osu file format v14

[General]
AudioFilename: audio.mp3
AudioLeadIn: 0
PreviewTime: 53604
Countdown: 0
SampleSet: Soft
StackLeniency: 0.4
Mode: 0
LetterboxInBreaks: 0
WidescreenStoryboard: 1

[Editor]
Bookmarks: 10879,21666,32452,43239,54025,64812,83688
DistanceSpacing: 0.6
BeatDivisor: 4
GridSize: 32
TimelineZoom: 2.7

[Metadata]
Title:Bursty Greedy Spider (TV Size)
TitleUnicode:Bursty Greedy Spider (TV Size)
Artist:Suzuki Konomi
ArtistUnicode:鈴木このみ
Creator:Erisu
Version:Tycani's Hard
Source:蜘蛛ですが、なにか?
Tags:i'm -keqing, so what? kumo desu ga nani ka? anime op opening 2 japanese rock j-rock jrock mayuzumi fuyuko frozz tycani a spider
BeatmapID:2939613
BeatmapSetID:1420385

[Difficulty]
HPDrainRate:4
CircleSize:4
OverallDifficulty:6.5
ApproachRate:8
SliderMultiplier:1.3
SliderTickRate:1

[Events]
//Background and Video events
0,0,"cropped-1920-1080-1010021.jpg",0,0
Video,-185,"op.mp4"
//Break Periods
//Storyboard Layer 0 (Background)
//Storyboard Layer 1 (Fail)
//Storyboard Layer 2 (Pass)
//Storyboard Layer 3 (Foreground)
//Storyboard Layer 4 (Overlay)
//Storyboard Sound Samples

[TimingPoints]
93,337.078651685393,4,2,21,50,1,0
93,-142.857142857143,4,2,21,50,0,0
8014,-142.857142857143,4,2,21,60,0,0
9194,-100,4,2,21,60,0,0
10542,-90.909090909091,4,2,21,60,0,0
10795,-90.909090909091,4,2,21,5,0,0
10879,-83.3333333333333,4,2,21,70,0,0
11637,-83.3333333333333,4,2,21,5,0,0
11722,-83.3333333333333,4,2,21,70,0,0
12312,-83.3333333333333,4,2,21,5,0,0
12396,-83.3333333333333,4,2,21,70,0,0
14334,-83.3333333333333,4,2,21,5,0,0
14418,-83.3333333333333,4,2,21,70,0,0
15008,-83.3333333333333,4,2,21,5,0,0
15092,-83.3333333333333,4,2,21,70,0,0
17031,-83.3333333333333,4,2,21,5,0,0
17115,-83.3333333333333,4,2,21,70,0,0
17705,-83.3333333333333,4,2,21,5,0,0
17789,-83.3333333333333,4,2,21,70,0,0
19727,-83.3333333333333,4,2,21,5,0,0
19812,-83.3333333333333,4,2,21,70,0,0
20149,-111.111111111111,4,2,21,70,0,0
21413,-111.111111111111,4,2,21,5,0,0
21497,-111.111111111111,4,2,21,70,0,0
21666,-111.111111111111,4,2,21,60,0,0
21834,-125,4,2,21,60,0,0
30345,-125,4,2,21,5,0,0
30430,-125,4,2,21,60,0,0
31104,-111.111111111111,4,2,21,60,0,0
31694,-111.111111111111,4,2,21,5,0,0
31778,-111.111111111111,4,2,21,60,0,0
32452,-111.111111111111,4,2,21,65,0,0
32621,-100,4,2,21,65,0,0
35064,-100,4,2,21,5,0,0
35149,-100,4,2,21,65,0,0
41806,-100,4,2,21,5,0,0
41890,-100,4,2,21,65,0,0
43239,-90.9090909090909,4,2,21,65,0,0
44671,-90.9090909090909,4,2,21,5,0,0
44755,-90.9090909090909,4,2,21,65,0,0
53182,-76.9230769230769,4,2,21,65,0,0
53267,-76.9230769230769,4,2,21,5,0,0
54025,-111.111111111111,4,2,21,60,0,0
63463,-90.9090909090909,4,2,21,60,0,0
64475,-90.9090909090909,4,2,21,70,0,0
64812,-76.9230769230769,4,2,21,85,0,1
65064,-76.9230769230769,4,2,21,5,0,1
65149,-76.9230769230769,4,2,21,85,0,1
65401,-76.9230769230769,4,2,21,5,0,1
65486,-76.9230769230769,4,2,21,85,0,1
66413,-76.9230769230769,4,2,21,5,0,1
66497,-76.9230769230769,4,2,21,85,0,1
68857,-71.4285714285714,4,2,21,85,0,1
69109,-71.4285714285714,4,2,21,5,0,1
69194,-71.4285714285714,4,2,21,85,0,1
69446,-71.4285714285714,4,2,21,5,0,1
69531,-71.4285714285714,4,2,21,85,0,1
69784,-71.4285714285714,4,2,21,5,0,1
69868,-71.4285714285714,4,2,21,85,0,1
70121,-71.4285714285714,4,2,21,5,0,1
70205,-71.4285714285714,4,2,21,85,0,1
70879,-76.9230769230769,4,2,21,85,0,1
71132,-76.9230769230769,4,2,21,5,0,1
71216,-76.9230769230769,4,2,21,85,0,1
74166,-76.9230769230769,4,2,21,5,0,1
74250,-76.9230769230769,4,2,21,85,0,1
75851,-76.9230769230769,4,2,21,5,0,1
75935,-76.9230769230769,4,2,21,85,0,1
76357,-76.9230769230769,4,2,21,5,0,1
76441,-76.9230769230769,4,2,21,85,0,1
76862,-76.9230769230769,4,2,21,5,0,1
76946,-76.9230769230769,4,2,21,85,0,1
77705,-76.9230769230769,4,2,21,5,0,1
77789,-76.9230769230769,4,2,21,85,0,1
78210,-76.9230769230769,4,2,21,5,0,1
78295,-76.9230769230769,4,2,21,85,0,1
78548,-76.9230769230769,4,2,21,5,0,1
78632,-76.9230769230769,4,2,21,85,0,1
79053,-76.9230769230769,4,2,21,5,0,1
79137,-76.9230769230769,4,2,21,85,0,1
80907,-76.9230769230769,4,2,21,5,0,1
80991,-76.9230769230769,4,2,21,85,0,1
81244,-76.9230769230769,4,2,21,5,0,1
81328,-76.9230769230769,4,2,21,85,0,1
81750,-76.9230769230769,4,2,21,5,0,1
81834,-76.9230769230769,4,2,21,85,0,1
82255,-76.9230769230769,4,2,21,5,0,1
82340,-76.9230769230769,4,2,21,85,0,1
83688,-83.3333333333333,4,2,21,70,0,0
84446,-83.3333333333333,4,2,21,5,0,0
84531,-83.3333333333333,4,2,21,70,0,0
85121,-83.3333333333333,4,2,21,5,0,0
85205,-83.3333333333333,4,2,21,70,0,0
88407,-71.4285714285714,4,2,21,70,0,0
88576,-71.4285714285714,4,2,21,5,0,0
88659,-71.4285714285714,4,2,21,70,0,0
88828,-71.4285714285714,4,2,21,5,0,0
88912,-71.4285714285714,4,2,21,70,0,0
89081,-71.4285714285714,4,2,21,5,0,0

[Colours]
Combo1 : 155,155,155
Combo2 : 255,85,85
Combo3 : 255,85,213

[HitObjects]
61,64,93,6,0,L|71:115,1,45.5,6|0,1:2|0:0,0:0:0:0:
121,166,430,2,0,B|76:154|76:154|29:180,2,90.9999999999999,2|2|0,1:2|1:2|1:2,0:0:0:0:
185,219,1272,1,2,0:0:0:0:
185,219,1441,6,0,P|167:254|164:304,2,90.9999999999999,2|0|0,1:2|1:2|1:2,0:0:0:0:
246,175,2284,1,0,0:0:0:0:
314,213,2452,2,0,L|365:197,1,45.5,2|0,1:2|0:0,0:0:0:0:
415,142,2789,6,0,L|435:46,2,90.9999999999999,0|0|0,1:2|1:2|1:2,0:0:0:0:
483,230,3800,2,0,L|471:278,1,45.5,0|0,1:2|3:0,0:0:0:0:
402,307,4137,6,0,L|390:259,1,45.5,2|0,1:2|0:0,0:0:0:0:
331,216,4475,1,2,1:2:0:0:
271,261,4643,1,8,0:0:0:0:
260,257,4727,1,8,0:0:0:0:
248,253,4812,2,0,L|194:265,2,45.5,10|10|6,0:0|0:3|0:3,0:0:0:0:
220,109,5486,6,0,L|163:121,1,45.5,6|0,1:2|0:0,0:0:0:0:
122,177,5823,2,0,L|65:165,1,45.5,2|0,1:2|0:0,0:0:0:0:
21,112,6160,2,0,P|-2:157|5:199,1,90.9999999999999,2|0,1:2|1:2,0:0:0:0:
59,249,6666,1,2,0:0:0:0:
27,320,6834,6,0,L|126:346,1,90.9999999999999,2|0,1:2|1:2,0:0:0:0:
185,381,7340,1,2,0:0:0:0:
246,322,7508,2,0,L|236:273,2,45.5,2|2|0,1:2|0:0|1:2,0:0:0:0:
317,366,8014,6,0,P|344:337|403:333,1,90.9999999999999,10|0,0:0|0:0,0:0:0:0:
463,373,8519,2,0,L|482:265,1,90.9999999999999,2|0,1:2|1:2,0:0:0:0:
376,230,9194,2,0,L|385:270,3,32.5,8|8|4|4,0:0|0:3|0:3|0:3,0:0:0:0:
391,294,9531,1,10,0:0:0:0:
465,128,10373,5,0,1:2:0:0:
467,113,10458,1,0,1:2:0:0:
470,98,10542,2,0,L|455:23,1,71.4999999999999,10|0,0:0|0:0,0:0:0:0:
365,82,10879,6,0,L|349:162,2,78,6|2|8,1:2|1:2|0:0,0:0:0:0:
287,20,11385,2,0,L|204:32,1,78,2|0,1:2|0:0,0:0:0:0:
165,108,11722,2,0,L|175:147,2,39,8|8|8,0:0|0:0|0:0,0:0:0:0:
119,38,12059,6,0,B|88:116|147:98|112:199,1,156,2|0,1:2|1:2,0:0:0:0:
38,228,12564,2,0,P|64:279|74:309,1,78,8|2,0:0|1:2,0:0:0:0:
47,384,12901,1,8,0:0:0:0:
135,384,13070,1,8,0:0:0:0:
157,376,13154,1,8,0:0:0:0:
179,368,13239,2,0,L|186:323,2,39,10|8|8,0:0|0:0|0:0,0:0:0:0:
278,308,13576,6,0,L|294:395,2,78,6|2|8,1:2|1:2|0:0,0:0:0:0:
203,239,14081,2,0,L|220:153,1,78,2|0,1:2|0:0,0:0:0:0:
280,105,14418,2,0,L|267:62,2,39,8|8|8,0:0|0:0|0:0,0:0:0:0:
355,157,14755,6,0,P|384:115|485:112,1,156,2|0,1:2|1:2,0:0:0:0:
512,187,15261,1,8,0:0:0:0:
469,263,15430,1,10,0:0:0:0:
476,280,15514,1,8,0:0:0:0:
483,297,15598,2,0,P|470:329|466:354,3,39,8|8|8|8,0:0|0:0|0:3|0:3,0:0:0:0:
427,361,15935,2,0,P|421:342|412:324,3,39,4|4|4|4,0:3|0:3|0:3|0:3,0:0:0:0:
374,303,16272,6,0,P|383:257|402:206,2,78,6|2|8,1:2|1:2|0:0,0:0:0:0:
307,356,16778,2,0,L|227:376,1,78,2|0,1:2|0:0,0:0:0:0:
176,311,17115,2,0,L|188:268,2,39,8|8|8,0:0|0:0|0:0,0:0:0:0:
99,355,17452,6,0,B|69:264|69:264|123:213,1,156,2|0,1:2|1:2,0:0:0:0:
179,166,17958,2,0,L|192:79,1,78,8|2,0:0|1:2,0:0:0:0:
281,134,18295,2,0,L|294:221,1,78,8|8,0:0|0:0,0:0:0:0:
375,248,18632,1,10,0:0:0:0:
393,243,18716,1,8,0:0:0:0:
411,238,18800,1,8,0:0:0:0:
384,150,18969,6,0,L|479:164,2,78,6|2|8,1:2|1:2|0:0,0:0:0:0:
338,80,19475,2,0,L|321:-9,1,78,2|0,1:2|0:0,0:0:0:0:
246,48,19812,2,0,L|206:33,2,39,8|8|8,0:0|0:0|0:0,0:0:0:0:
273,134,20149,5,2,1:2:0:0:
37,86,20991,6,0,P|62:82|105:81,1,58.5000000000001,10|0,0:0|1:2,0:0:0:0:
163,124,21328,1,10,0:0:0:0:
63,266,21666,5,6,1:2:0:0:
121,317,21834,2,0,L|111:372,2,52,0|2|0,0:0|1:2|0:0,0:0:0:0:
187,271,22340,2,0,B|239:252|243:286|292:277,1,104,2|0,1:2|1:2,0:0:0:0:
354,236,22845,1,2,0:0:0:0:
354,236,23014,6,0,P|333:271|350:338,2,104,2|0|0,1:2|1:2|1:2,0:0:0:0:
419,192,23857,2,0,L|432:132,1,52,2|2,0:0|1:2,0:0:0:0:
480,85,24194,6,0,L|375:47,1,104,10|0,0:0|0:0,0:0:0:0:
315,8,24699,2,0,L|259:19,1,52,2|0,1:2|0:0,0:0:0:0:
204,68,25036,2,0,P|218:98|225:123,1,52,2|0,1:2|0:0,0:0:0:0:
296,146,25373,2,0,P|303:121|315:97,1,52,2|2,1:2|0:0,0:0:0:0:
383,50,25710,6,0,L|366:-15,2,52,2|0|0,1:2|0:0|1:2,0:0:0:0:
436,110,26216,1,2,0:0:0:0:
391,176,26385,2,0,L|347:164,2,26,10|8|10,0:0|0:3|0:3,0:0:0:0:
451,230,26722,1,6,0:3:0:0:
454,245,26806,1,4,0:3:0:0:
457,260,26890,6,0,B|434:369,1,104,6|0,1:2|0:0,0:0:0:0:
364,324,27396,2,0,L|307:341,1,52,2|0,1:2|0:0,0:0:0:0:
252,381,27733,2,0,P|228:349|166:345,1,104,2|0,1:2|1:2,0:0:0:0:
102,383,28239,1,2,0:0:0:0:
41,329,28407,6,0,B|24:279|65:283|37:217,2,104,2|0|0,1:2|1:2|1:2,0:0:0:0:
102,383,29250,2,0,P|110:358|121:334,1,52,2|2,0:0|1:2,0:0:0:0:
193,286,29587,6,0,B|184:244|184:244|187:227|187:227|176:183,1,104,10|0,0:0|0:0,0:0:0:0:
121,124,30093,2,0,P|82:150|21:140,1,104,2|2,1:2|1:2,0:0:0:0:
0,71,30598,2,0,L|14:7,2,52,2|2|0,0:0|1:2|1:2,0:0:0:0:
33,157,31104,6,0,L|47:223,2,58.5000000000001,10|2|10,0:0|1:2|0:0,0:0:0:0:
96,92,31609,1,0,0:0:0:0:
172,134,31778,1,2,1:2:0:0:
233,74,31946,1,8,0:0:0:0:
237,56,32031,1,8,0:0:0:0:
242,39,32115,2,0,L|230:0,2,29.25,10|8|8,0:0|0:0|0:0,0:0:0:0:
322,71,32452,5,6,1:2:0:0:
388,20,32621,2,0,L|468:5,2,65,2|10|0,0:0|0:0|0:0,0:0:0:0:
322,71,33126,2,0,L|294:147,2,65,2|2|10,1:2|1:2|0:0,0:0:0:0:
400,104,33632,1,2,1:2:0:0:
400,104,33969,6,0,L|426:241,1,130,0|2,1:2|1:2,0:0:0:0:
478,302,34475,2,0,P|466:329|450:373,1,65,2|0,1:2|1:2,0:0:0:0:
386,311,34812,6,0,P|335:294|264:339,1,130,10|0,0:0|1:2,0:0:0:0:
212,384,35317,1,2,0:0:0:0:
144,329,35486,2,0,P|136:308|110:258,1,65,10|0,0:0|0:0,0:0:0:0:
179,216,35823,2,0,P|193:187|205:156,2,65,2|2|10,1:2|1:2|0:0,0:0:0:0:
117,269,36328,1,2,0:0:0:0:
49,219,36497,6,0,P|34:190|22:159,1,65,2|0,1:2|1:2,0:0:0:0:
59,86,36834,1,10,0:0:0:0:
179,216,37171,2,0,P|193:187|205:156,1,65,2|0,1:2|1:2,0:0:0:0:
169,83,37508,1,10,0:0:0:0:
290,149,37845,5,6,1:2:0:0:
347,90,38014,2,0,L|332:23,2,65,2|10|0,0:0|0:0|1:2,0:0:0:0:
412,139,38519,2,0,B|409:163|398:188|398:188|406:214|406:214|389:269,1,130,2|10,1:2|0:0,0:0:0:0:
342,324,39025,1,0,1:2:0:0:
414,358,39194,6,0,L|273:379,1,130,2|10,0:0|0:0,0:0:0:0:
219,327,39699,1,2,0:0:0:0:
156,380,39868,2,0,P|121:360|96:352,2,65,2|0|10,1:2|1:2|0:0,0:0:0:0:
219,327,40373,6,0,B|195:263|243:268|216:198,1,130,0|0,1:2|0:0,0:0:0:0:
138,159,40879,2,0,P|176:114|251:118,1,130,10|0,0:0|1:2,0:0:0:0:
313,162,41385,1,0,1:2:0:0:
372,100,41553,1,8,0:0:0:0:
372,100,41890,6,0,P|356:64|346:32,1,65,0|0,1:2|1:2,0:0:0:0:
273,4,42227,2,0,P|262:34|249:64,1,65,8|0,0:0|1:2,0:0:0:0:
184,111,42564,1,10,0:0:0:0:
119,64,42733,1,8,0:0:0:0:
55,117,42901,2,0,L|14:104,2,32.5,8|8|8,0:0|0:0|0:0,0:0:0:0:
97,194,43239,6,0,P|46:200|17:284,1,143,6|8,1:2|0:0,0:0:0:0:
76,333,43744,2,0,P|111:301|215:291,1,143,10|8,0:0|0:0,0:0:0:0:
368,295,44418,6,0,L|397:135,1,143,6|0,1:2|1:2,0:0:0:0:
422,81,44924,2,0,L|405:5,1,71.5,8|0,0:0|1:2,0:0:0:0:
337,48,45261,1,8,0:0:0:0:
264,8,45430,1,8,0:0:0:0:
195,51,45598,1,8,0:0:0:0:
422,81,45935,6,0,L|441:161,1,71.5,6|0,1:2|1:2,0:0:0:0:
486,215,46272,2,0,B|419:184|419:184|351:209,1,143,8|2,0:0|1:2,0:0:0:0:
304,264,46778,1,0,1:2:0:0:
237,209,46946,2,0,L|213:133,1,71.5,10|2,0:0|1:2,0:0:0:0:
139,195,47284,6,0,P|119:148|22:156,2,143,2|10|10,0:0|0:0|0:0,0:0:0:0:
96,262,48126,1,0,1:2:0:0:
103,281,48210,1,0,1:2:0:0:
110,301,48295,2,0,L|101:345,2,35.75,10|0|0,0:0|1:2|1:2,0:0:0:0:
201,337,48632,6,0,L|249:320,4,35.75,8|8|8|4|4,0:0|0:3|0:3|0:3|0:3,0:0:0:0:
300,280,49137,2,0,L|348:297,4,35.75,8|8|8|4|4,0:0|0:3|0:3|0:3|0:3,0:0:0:0:
412,321,49643,1,0,1:2:0:0:
417,300,49727,1,0,1:2:0:0:
422,279,49812,6,0,L|398:136,1,143,6|0,1:2|1:2,0:0:0:0:
448,69,50317,1,8,0:0:0:0:
385,22,50486,1,0,1:2:0:0:
363,21,50570,1,0,1:2:0:0:
341,20,50654,2,0,L|292:32,3,35.75,8|0|0|0,0:0|1:2|1:2|1:2,0:0:0:0:
267,52,50991,2,0,L|218:40,3,35.75,8|8|4|4,0:0|0:3|0:3|0:3,0:0:0:0:
202,17,51328,5,8,0:0:0:0:
202,17,53182,6,0,B|220:55|220:55|204:102,1,84.4999961318971,10|0,0:0|0:0,0:0:0:0:
28,192,54025,6,0,P|59:161|130:166,1,117,6|0,1:2|1:2,0:0:0:0:
184,241,54699,2,0,P|240:249|284:213,1,117,2|0,1:2|1:2,0:0:0:0:
361,149,55373,2,0,B|394:184|394:184|365:272,1,117,2|0,1:2|1:2,0:0:0:0:
295,314,56048,2,0,B|262:279|262:279|291:191,1,117,0|10,0:0|0:0,0:0:0:0:
238,102,56722,6,0,B|194:112|194:112|176:134|176:134|114:148,1,117,6|2,1:2|1:2,0:0:0:0:
34,72,57396,2,0,B|78:62|78:62|96:40|96:40|158:26,1,117,2|2,1:2|1:2,0:0:0:0:
249,0,58070,2,0,L|378:23,1,117,2|0,1:2|1:2,0:0:0:0:
445,121,58744,2,0,L|316:144,1,117,0|10,0:0|0:0,0:0:0:0:
232,78,59418,5,4,1:2:0:0:
164,159,59755,1,2,1:2:0:0:
164,264,60093,1,0,1:2:0:0:
232,345,60430,1,2,1:2:0:0:
335,363,60767,1,0,1:2:0:0:
426,311,61104,1,2,1:2:0:0:
462,212,61441,1,0,1:2:0:0:
426,113,61778,1,10,0:0:0:0:
341,173,62115,6,0,B|286:149|286:149|233:174,1,117,6|0,1:2|1:2,0:0:0:0:
171,272,62789,2,0,B|226:296|226:296|279:271,1,117,2|8,1:2|0:0,0:0:0:0:
166,130,63463,6,0,L|117:142,5,35.75,10|8|8|4|4|4,0:0|0:3|0:3|0:3|0:3|0:3,0:0:0:0:
94,171,63969,2,0,L|45:159,5,35.75,10|8|8|4|4|4,0:0|0:3|0:3|0:3|0:3|0:3,0:0:0:0:
22,128,64475,1,10,0:0:0:0:
118,252,64812,6,0,B|146:244|161:225|161:225|209:238|209:238|218:244|218:244|276:263,2,169,6|10|2,1:2|0:0|1:2,0:0:0:0:
36,215,65654,1,0,0:0:0:0:
1,302,65823,2,0,L|24:397,1,84.5,10|2,0:0|1:2,0:0:0:0:
100,334,66160,6,0,L|290:380,1,169,2|10,1:2|0:0,0:0:0:0:
353,384,66666,2,0,P|386:352|512:326,1,169,2|2,0:0|0:0,0:0:0:0:
448,240,67171,2,0,L|469:155,1,84.5,10|2,0:0|1:2,0:0:0:0:
499,65,67508,5,0,1:2:0:0:
410,102,67677,2,0,L|392:16,2,84.5,0|10|0,0:0|0:0|0:0,0:0:0:0:
333,155,68182,2,0,P|302:137|250:128,1,84.5,2|2,1:2|0:0,0:0:0:0:
184,183,68519,2,0,P|153:201|101:210,1,84.5,10|0,0:0|0:0,0:0:0:0:
46,124,68857,6,0,P|68:176|109:327,1,182,2|10,1:2|0:0,0:0:0:0:
270,208,69531,2,0,P|248:260|207:411,1,182,2|10,1:2|0:0,0:0:0:0:
416,319,70205,6,0,B|427:296|427:296|445:274|445:274|425:199|425:199|427:189|427:189|411:138,1,182,6|8,1:2|0:0,0:0:0:0:
348,86,70710,1,0,0:0:0:0:
414,27,70879,2,0,P|358:55|264:-1,1,169,2|10,1:2|0:0,0:0:0:0:
194,55,71385,1,2,0:0:0:0:
121,5,71553,6,0,L|86:184,1,169,2|10,1:2|0:0,0:0:0:0:
11,213,72059,2,0,L|46:392,1,169,2|2,0:0|0:0,0:0:0:0:
124,329,72564,1,10,0:0:0:0:
201,383,72733,6,0,B|300:363|250:329|353:311,1,169,2|2,0:0|0:0,0:0:0:0:
432,367,73239,2,0,L|452:268,1,84.5,10|0,0:0|0:0,0:0:0:0:
494,206,73576,2,0,L|474:107,1,84.5,0|0,1:2|0:0,0:0:0:0:
406,67,73913,1,10,0:0:0:0:
306,165,74250,5,2,1:2:0:0:
245,103,74418,1,0,1:2:0:0:
202,177,74587,1,10,0:0:0:0:
284,22,74924,5,10,0:0:0:0:
200,1,75093,1,8,0:0:0:0:
176,10,75177,1,8,0:0:0:0:
152,19,75261,2,0,L|103:4,2,42.25,10|8|8,0:0|0:0|0:0,0:0:0:0:
91,99,75598,6,0,L|135:286,1,169,6|8,1:2|0:0,0:0:0:0:
204,327,76104,2,0,L|248:140,1,169,2|0,1:2|1:2,0:0:0:0:
324,218,76609,2,0,L|415:181,1,84.5,10|0,0:0|0:0,0:0:0:0:
475,243,76946,6,0,L|494:150,1,84.5,2|0,1:2|1:2,0:0:0:0:
431,84,77284,1,8,0:0:0:0:
492,22,77452,2,0,B|376:53|376:53|336:24,1,169,2|0,1:2|1:2,0:0:0:0:
258,0,77958,2,0,L|175:24,1,84.5,10|0,0:0|0:0,0:0:0:0:
97,87,78295,6,0,B|62:187|129:163|102:260,1,169,6|8,1:2|0:0,0:0:0:0:
56,320,78800,2,0,P|119:267|216:279,1,169,2|0,1:2|1:2,0:0:0:0:
278,342,79306,1,10,0:0:0:0:
336,268,79475,1,0,1:2:0:0:
336,268,79559,1,8,0:0:0:0:
336,268,79643,6,0,L|436:289,1,84.5,0|0,1:2|1:2,0:0:0:0:
403,199,79980,2,0,L|495:155,1,84.5,8|0,0:0|1:2,0:0:0:0:
408,108,80317,2,0,L|427:12,1,84.5,2|0,0:0|1:2,0:0:0:0:
329,57,80654,2,0,L|261:2,1,84.5,10|0,0:0|0:0,0:0:0:0:
248,98,80991,6,0,B|140:127|140:127|109:179,1,169,6|8,1:2|0:0,0:0:0:0:
78,266,81497,2,0,L|43:84,1,169,2|0,1:2|1:2,0:0:0:0:
85,17,82003,2,0,P|115:27|186:41,1,84.5,10|0,0:0|0:0,0:0:0:0:
252,102,82340,6,0,P|210:110|170:123,1,84.5,2|0,1:2|1:2,0:0:0:0:
226,201,82677,1,8,0:0:0:0:
169,323,83014,1,10,0:0:0:0:
243,376,83182,1,8,0:0:0:0:
267,368,83267,1,8,0:0:0:0:
291,361,83351,2,0,L|349:372,2,42.25,8|8|10,0:0|0:0|0:0,0:0:0:0:
347,280,83688,6,0,L|444:262,1,78,6|2,1:2|1:2,0:0:0:0:
370,192,84025,1,8,0:0:0:0:
370,192,84194,2,0,L|353:104,1,78,2|0,1:2|0:0,0:0:0:0:
403,42,84531,2,0,L|453:53,2,39,8|8|8,0:0|0:0|0:0,0:0:0:0:
312,0,84868,6,0,B|248:11|248:11|231:31|231:31|152:46,1,156,2|0,1:2|1:2,0:0:0:0:
87,11,85373,2,0,L|69:109,1,78,8|2,0:0|1:2,0:0:0:0:
19,149,85710,1,8,0:0:0:0:
72,214,85879,1,8,0:0:0:0:
68,237,85963,1,8,0:0:0:0:
64,260,86048,2,0,L|77:306,2,39,10|8|8,0:0|0:0|0:0,0:0:0:0:
160,272,86385,6,0,L|142:352,2,78,6|2|8,1:2|1:2|0:0,0:0:0:0:
224,217,86890,1,2,1:2:0:0:
291,283,87059,2,0,P|331:263|379:253,1,78,8|0,0:0|1:2,0:0:0:0:
438,296,87396,1,8,0:0:0:0:
495,221,87564,6,0,B|508:143|452:159|484:67,1,156,10|8,0:0|0:0,0:0:0:0:
429,9,88070,1,10,0:0:0:0:
360,48,88239,1,2,0:0:0:0:
275,3,88407,6,0,P|216:30|132:50,2,136.5,10|10|10,0:0|0:0|0:0,0:0:0:0:
