osu file format v14

[General]
AudioFilename: audio.mp3
AudioLeadIn: 0
PreviewTime: 53604
Countdown: 0
SampleSet: Soft
StackLeniency: 0.7
Mode: 0
LetterboxInBreaks: 0
WidescreenStoryboard: 0

[Editor]
Bookmarks: 93,10879,21666,32452,43239,54025,64812,83688
DistanceSpacing: 1
BeatDivisor: 4
GridSize: 16
TimelineZoom: 1.6

[Metadata]
Title:Bursty Greedy Spider (TV Size)
TitleUnicode:Bursty Greedy Spider (TV Size)
Artist:Suzuki Konomi
ArtistUnicode:鈴木このみ
Creator:Erisu
Version:Shiraori
Source:蜘蛛ですが、なにか?
Tags:i'm -keqing, so what? kumo desu ga nani ka? anime op opening 2 japanese rock j-rock jrock mayuzumi fuyuko frozz tycani a spider
BeatmapID:2925833
BeatmapSetID:1420385

[Difficulty]
HPDrainRate:5.5
CircleSize:4
OverallDifficulty:8.8
ApproachRate:9.2
SliderMultiplier:1.9
SliderTickRate:1

[Events]
//Background and Video events
0,0,"cropped-1920-1080-1010021.jpg",0,0
Video,-185,"op.mp4"
//Break Periods
//Storyboard Layer 0 (Background)
//Storyboard Layer 1 (Fail)
//Storyboard Layer 2 (Pass)
//Storyboard Layer 3 (Foreground)
//Storyboard Layer 4 (Overlay)
//Storyboard Sound Samples

[TimingPoints]
93,337.078651685393,4,2,21,50,1,0
93,-142.857142857143,4,2,21,50,0,0
2368,-142.857142857143,4,2,21,5,0,0
2452,-142.857142857143,4,2,21,50,0,0
6413,-142.857142857143,4,2,21,5,0,0
6497,-142.857142857143,4,2,21,50,0,0
8014,-142.857142857143,4,2,21,60,0,0
10795,-142.857142857143,4,2,21,5,0,0
10879,-111.111111111111,4,2,21,70,0,0
11637,-111.111111111111,4,2,21,5,0,0
11722,-111.111111111111,4,2,21,70,0,0
12312,-111.111111111111,4,2,21,5,0,0
12396,-111.111111111111,4,2,21,70,0,0
14334,-111.111111111111,4,2,21,5,0,0
14418,-111.111111111111,4,2,21,70,0,0
15008,-111.111111111111,4,2,21,5,0,0
15092,-111.111111111111,4,2,21,70,0,0
17031,-111.111111111111,4,2,21,5,0,0
17115,-111.111111111111,4,2,21,70,0,0
17705,-111.111111111111,4,2,21,5,0,0
17789,-111.111111111111,4,2,21,70,0,0
19727,-111.111111111111,4,2,21,5,0,0
19812,-111.111111111111,4,2,21,70,0,0
21413,-111.111111111111,4,2,21,5,0,0
21497,-111.111111111111,4,2,21,70,0,0
21666,-125,4,2,21,60,0,0
22930,-125,4,2,21,60,0,0
23014,-125,4,2,21,60,0,0
23267,-125,4,2,21,5,0,0
23351,-125,4,2,21,60,0,0
27986,-125,4,2,21,5,0,0
28070,-125,4,2,21,60,0,0
28660,-125,4,2,21,5,0,0
28744,-125,4,2,21,60,0,0
30345,-125,4,2,21,5,0,0
30430,-125,4,2,21,60,0,0
31694,-125,4,2,21,5,0,0
31778,-125,4,2,21,60,0,0
32452,-111.111111111111,4,2,21,65,0,0
35064,-111.111111111111,4,2,21,5,0,0
35149,-111.111111111111,4,2,21,65,0,0
37087,-111.111111111111,4,2,21,5,0,0
37171,-111.111111111111,4,2,21,65,0,0
39446,-111.111111111111,4,2,21,5,0,0
39531,-111.111111111111,4,2,21,65,0,0
40626,-111.111111111111,4,2,21,5,0,0
40710,-111.111111111111,4,2,21,65,0,0
41806,-111.111111111111,4,2,21,5,0,0
41890,-111.111111111111,4,2,21,65,0,0
43239,-100,4,2,21,65,0,0
44671,-100,4,2,21,5,0,0
44755,-100,4,2,21,65,0,0
46188,-100,4,2,21,5,0,0
46272,-100,4,2,21,65,0,0
53182,-40,4,2,21,65,0,0
53267,-100,4,2,21,5,0,0
54025,-105.263157894737,4,2,21,60,0,0
54278,-105.263157894737,4,2,21,5,0,0
54362,-105.263157894737,4,2,21,60,0,0
54952,-105.263157894737,4,2,21,5,0,0
55036,-105.263157894737,4,2,21,60,0,0
55626,-105.263157894737,4,2,21,5,0,0
55710,-105.263157894737,4,2,21,60,0,0
58323,-105.263157894737,4,2,21,5,0,0
58407,-105.263157894737,4,2,21,60,0,0
62368,-105.263157894737,4,2,21,5,0,0
62452,-105.263157894737,4,2,21,60,0,0
62705,-105.263157894737,4,2,21,5,0,0
62789,-105.263157894737,4,2,21,60,0,0
63042,-105.263157894737,4,2,21,5,0,0
63126,-105.263157894737,4,2,21,60,0,0
63379,-105.263157894737,4,2,21,5,0,0
63463,-105.263157894737,4,2,21,60,0,0
64475,-105.263157894737,4,2,21,70,0,0
64812,-76.9230769230769,4,2,21,85,0,1
65064,-76.9230769230769,4,2,21,5,0,1
65149,-76.9230769230769,4,2,21,85,0,1
65486,-76.9230769230769,4,2,21,85,0,1
65739,-76.9230769230769,4,2,21,5,0,1
65823,-76.9230769230769,4,2,21,85,0,1
66413,-76.9230769230769,4,2,21,5,0,1
66497,-76.9230769230769,4,2,21,85,0,1
69109,-76.9230769230769,4,2,21,5,0,1
69194,-76.9230769230769,4,2,21,85,0,1
69446,-76.9230769230769,4,2,21,5,0,1
69531,-76.9230769230769,4,2,21,85,0,1
69784,-76.9230769230769,4,2,21,5,0,1
69868,-76.9230769230769,4,2,21,85,0,1
70121,-76.9230769230769,4,2,21,5,0,1
70205,-76.9230769230769,4,2,21,85,0,1
70458,-76.9230769230769,4,2,21,5,0,1
70542,-76.9230769230769,4,2,21,85,0,1
71132,-76.9230769230769,4,2,21,5,0,1
71216,-76.9230769230769,4,2,21,85,0,1
71806,-76.9230769230769,4,2,21,5,0,1
71890,-76.9230769230769,4,2,21,85,0,1
72986,-76.9230769230769,4,2,21,5,0,1
73070,-76.9230769230769,4,2,21,85,0,1
73491,-76.9230769230769,4,2,21,5,0,1
73576,-76.9230769230769,4,2,21,85,0,1
74166,-76.9230769230769,4,2,21,5,0,1
74250,-76.9230769230769,4,2,21,85,0,1
75851,-76.9230769230769,4,2,21,5,0,1
75935,-76.9230769230769,4,2,21,85,0,1
76357,-76.9230769230769,4,2,21,5,0,1
76441,-76.9230769230769,4,2,21,85,0,1
76862,-76.9230769230769,4,2,21,5,0,1
76946,-76.9230769230769,4,2,21,85,0,1
77705,-76.9230769230769,4,2,21,5,0,1
77789,-76.9230769230769,4,2,21,85,0,1
78210,-76.9230769230769,4,2,21,5,0,1
78295,-76.9230769230769,4,2,21,85,0,1
78548,-76.9230769230769,4,2,21,5,0,1
78632,-76.9230769230769,4,2,21,85,0,1
79053,-76.9230769230769,4,2,21,5,0,1
79137,-76.9230769230769,4,2,21,85,0,1
80907,-76.9230769230769,4,2,21,5,0,1
80991,-76.9230769230769,4,2,21,85,0,1
81244,-76.9230769230769,4,2,21,5,0,1
81328,-76.9230769230769,4,2,21,85,0,1
81750,-76.9230769230769,4,2,21,5,0,1
81834,-76.9230769230769,4,2,21,85,0,1
82255,-76.9230769230769,4,2,21,5,0,1
82340,-76.9230769230769,4,2,21,85,0,1
83688,-83.3333333333333,4,2,21,70,0,0
84446,-83.3333333333333,4,2,21,5,0,0
84531,-83.3333333333333,4,2,21,70,0,0
85121,-83.3333333333333,4,2,21,5,0,0
85205,-83.3333333333333,4,2,21,70,0,0
88407,-50,4,2,21,70,0,0
88576,-50,4,2,21,5,0,0
88660,-50,4,2,21,70,0,0
88828,-50,4,2,21,5,0,0
88913,-50,4,2,21,70,0,0
89081,-50,4,2,21,5,0,0

[Colours]
Combo1 : 155,155,155
Combo2 : 255,85,85
Combo3 : 255,85,213

[HitObjects]
71,68,93,5,6,1:2:0:0:
175,143,261,2,0,P|171:106|165:62,1,66.4999979705811,0|2,0:0|1:2,0:0:0:0:
104,192,598,1,0,0:0:0:0:
215,244,767,2,0,P|260:262|330:200,1,132.999995941162,2|0,1:2|1:2,0:0:0:0:
447,144,1272,1,2,0:0:0:0:
447,144,1441,6,0,P|463:176|454:221,1,66.4999979705811,2|0,1:2|0:0,0:0:0:0:
326,219,1778,2,0,P|348:195|381:189,1,66.4999979705811,0|0,1:2|0:0,0:0:0:0:
463,317,2115,2,0,P|425:314|383:256,1,99.7499969558717,0|0,1:2|0:0,0:0:0:0:
385,270,2452,1,2,1:2:0:0:
364,375,2620,1,0,0:0:0:0:
281,343,2789,6,0,P|207:339|139:331,1,132.999995941162,0|0,1:2|1:2,0:0:0:0:
160,318,3295,1,0,3:0:0:0:
33,297,3463,2,0,P|23:330|18:361,2,66.4999979705811,0|0|0,1:2|3:0|1:2,0:0:0:0:
13,213,3969,1,0,3:0:0:0:
117,137,4137,2,0,P|178:127|223:201,1,132.999995941162,2|2,1:2|1:2,0:0:0:0:
177,272,4643,5,8,0:0:0:0:
177,272,4727,1,8,0:0:0:0:
177,272,4812,1,10,0:0:0:0:
279,274,4980,1,10,0:3:0:0:
363,339,5149,1,6,0:3:0:0:
251,40,5486,5,6,1:2:0:0:
150,48,5654,2,0,P|111:42|75:34,1,66.4999979705811,0|2,0:0|1:2,0:0:0:0:
18,91,5991,1,0,0:0:0:0:
169,159,6160,2,0,B|133:168|133:168|117:180|117:180|75:190,1,99.7499969558717,2|0,1:2|0:0,0:0:0:0:
29,208,6497,1,0,1:2:0:0:
112,288,6666,1,2,0:0:0:0:
44,334,6834,6,0,P|120:339|131:395,1,132.999995941162,2|0,1:2|1:2,0:0:0:0:
221,304,7340,1,2,0:0:0:0:
379,366,7508,2,0,P|346:370|312:374,1,66.4999979705811,2|2,1:2|0:0,0:0:0:0:
420,285,7845,1,0,1:2:0:0:
346,147,8014,6,0,B|323:130|284:141|284:141|256:175|206:170,1,132.999995941162,10|0,0:0|0:0,0:0:0:0:
88,70,8519,2,0,P|123:71|176:79,1,66.4999979705811,2|0,1:2|0:0,0:0:0:0:
0,188,8857,2,0,P|29:181|65:175,1,66.4999979705811,0|0,1:2|0:0,0:0:0:0:
203,259,9194,1,8,0:0:0:0:
203,259,9278,1,8,0:3:0:0:
203,259,9362,2,0,P|172:260|150:268,1,33.2499989852906,4|4,0:3|0:3,0:0:0:0:
16,364,9531,5,10,0:0:0:0:
72,260,10373,5,0,1:2:0:0:
72,260,10458,1,0,1:2:0:0:
72,260,10542,2,0,P|79:283|67:258,1,99.7499969558717,10|0,0:0|0:0,0:0:0:0:
104,235,10879,6,0,B|141:239|141:239|152:244|152:244|208:250,1,85.4999973907472,6|2,1:2|1:2,0:0:0:0:
392,331,11216,1,8,0:0:0:0:
326,384,11385,2,0,P|344:328|292:262,1,128.249996086121,2|0,1:2|0:0,0:0:0:0:
235,189,11722,1,8,0:0:0:0:
202,161,11806,1,8,0:0:0:0:
189,121,11890,1,8,0:0:0:0:
197,80,11974,1,8,0:0:0:0:
225,49,12059,6,0,B|166:28|166:28|79:80,1,128.249996086121,2|0,1:2|0:0,0:0:0:0:
84,96,12396,1,0,1:2:0:0:
252,195,12564,1,8,0:0:0:0:
0,210,12733,2,0,P|40:203|89:198,1,85.4999973907472,2|8,1:2|0:0,0:0:0:0:
305,332,13070,1,8,0:0:0:0:
305,332,13154,1,8,0:0:0:0:
305,332,13239,1,10,0:0:0:0:
262,336,13323,1,8,0:0:0:0:
219,340,13407,1,8,0:0:0:0:
177,345,13491,1,8,0:0:0:0:
134,349,13576,6,0,B|129:308|129:308|141:262,1,85.4999973907472,6|2,1:2|1:2,0:0:0:0:
188,98,13913,1,8,0:0:0:0:
120,39,14081,2,0,B|93:99|93:99|129:181,1,128.249996086121,2|0,1:2|0:0,0:0:0:0:
179,237,14418,1,8,0:0:0:0:
221,233,14502,1,8,0:0:0:0:
264,229,14586,1,8,0:0:0:0:
306,225,14670,1,8,0:0:0:0:
349,221,14755,6,0,B|465:191|465:191|431:198|410:236,1,170.999994781494,2|0,1:2|1:2,0:0:0:0:
319,149,15261,1,8,0:0:0:0:
481,270,15430,2,0,L|492:327,1,42.7499986953736,10|8,0:0|0:0,0:0:0:0:
343,383,15598,2,0,L|354:326,1,42.7499986953736,8|8,0:0|0:0,0:0:0:0:
262,231,15767,1,8,0:3:0:0:
234,222,15851,1,8,0:3:0:0:
207,228,15935,1,4,0:3:0:0:
186,247,16019,1,4,0:3:0:0:
178,275,16104,1,4,0:3:0:0:
185,302,16188,1,4,0:3:0:0:
204,323,16272,6,0,P|158:331|94:338,1,85.4999973907472,6|2,1:2|1:2,0:0:0:0:
85,198,16609,1,8,0:0:0:0:
160,139,16778,2,0,P|204:130|274:198,1,128.249996086121,2|0,1:2|0:0,0:0:0:0:
342,285,17115,1,8,0:0:0:0:
343,242,17199,1,8,0:0:0:0:
345,199,17283,1,8,0:0:0:0:
346,156,17367,1,8,0:0:0:0:
348,114,17452,6,0,B|424:88|424:88|440:117|486:132,1,128.249996086121,2|0,1:2|0:0,0:0:0:0:
490,145,17789,1,0,1:2:0:0:
390,3,17958,1,8,0:0:0:0:
366,189,18126,1,2,1:2:0:0:
509,56,18295,1,8,0:0:0:0:
305,56,18463,1,8,0:0:0:0:
305,56,18547,1,8,0:0:0:0:
305,56,18631,1,10,0:0:0:0:
261,55,18715,1,8,0:0:0:0:
221,68,18800,1,8,0:0:0:0:
187,95,18884,1,8,0:0:0:0:
166,131,18969,6,0,P|177:177|187:232,1,85.4999973907472,6|2,1:2|1:2,0:0:0:0:
80,69,19306,1,8,0:0:0:0:
11,188,19475,2,0,B|-11:163|-11:163|45:155|81:206,1,128.249996086121,2|0,1:2|0:0,0:0:0:0:
152,269,19812,1,8,0:0:0:0:
152,269,19896,1,8,0:0:0:0:
152,269,19980,2,0,L|144:208,1,42.7499986953736,8|8,0:0|0:0,0:0:0:0:
14,348,20149,5,2,1:2:0:0:
14,348,20991,5,10,0:0:0:0:
231,321,21160,1,0,1:2:0:0:
71,205,21328,2,0,P|77:251|85:308,1,85.4999973907472,10|2,0:0|0:0,0:0:0:0:
186,195,21666,5,6,1:2:0:0:
186,195,21834,2,0,P|189:150|193:110,2,76,0|2|0,0:0|1:2|0:0,0:0:0:0:
218,321,22340,2,0,P|283:307|380:321,1,152,2|0,1:2|1:2,0:0:0:0:
358,323,22845,1,2,0:0:0:0:
460,212,23014,6,0,B|485:162|485:162|455:91,1,114,2|0,1:2|0:0,0:0:0:0:
469,36,23351,2,0,P|433:40|395:78,1,76,2|0,1:2|0:0,0:0:0:0:
310,147,23688,1,0,1:2:0:0:
258,29,23857,2,0,P|297:15|350:5,1,76,2|2,0:0|1:2,0:0:0:0:
227,124,24194,6,0,B|203:137|183:146|183:146|136:110|80:80,1,152,10|0,0:0|0:0,0:0:0:0:
8,170,24699,2,0,P|14:209|20:255,1,76,2|0,1:2|0:0,0:0:0:0:
68,368,25036,1,2,1:2:0:0:
98,283,25205,1,0,0:0:0:0:
198,368,25373,2,0,B|239:371|239:371|280:347,1,76,2|2,1:2|0:0,0:0:0:0:
347,283,25710,5,2,1:2:0:0:
362,361,25879,1,0,0:0:0:0:
479,299,26048,5,0,1:2:0:0:
499,198,26217,1,2,0:0:0:0:
341,144,26385,6,0,L|377:134,1,38,10|8,0:0|0:3,0:0:0:0:
480,63,26553,1,10,0:3:0:0:
480,63,26637,1,8,0:3:0:0:
480,63,26722,2,0,L|421:47,1,38,6|4,0:3|0:3,0:0:0:0:
302,59,26890,6,0,B|291:119|291:119|302:147|302:147|291:207,1,152,6|0,1:2|0:0,0:0:0:0:
211,330,27396,2,0,P|203:293|192:248,1,76,2|0,1:2|0:0,0:0:0:0:
42,187,27733,2,0,P|43:144|40:63,1,114,2|0,1:2|0:0,0:0:0:0:
29,78,28070,1,0,1:2:0:0:
135,150,28239,1,2,0:0:0:0:
220,19,28407,6,0,P|235:76|176:84,1,114,2|0,1:2|0:0,0:0:0:0:
220,19,28744,2,0,B|293:33|293:33|308:49|308:49|372:62,1,152,2|0,1:2|1:2,0:0:0:0:
362,60,29250,1,2,0:0:0:0:
512,159,29418,1,2,1:2:0:0:
473,31,29587,6,0,B|461:88|461:88|436:114|436:114|417:187,1,152,10|0,0:0|0:0,0:0:0:0:
471,310,30092,2,0,B|448:286|402:293|402:293|422:301|432:323,1,114,2|0,1:2|0:0,0:0:0:0:
461,384,30430,1,2,1:2:0:0:
314,276,30598,1,2,0:0:0:0:
222,384,30767,1,2,1:2:0:0:
310,359,30935,1,0,1:2:0:0:
132,205,31104,5,10,0:0:0:0:
420,259,31272,1,2,1:2:0:0:
201,265,31441,5,10,0:0:0:0:
441,156,31609,1,0,0:0:0:0:
310,359,31778,1,2,1:2:0:0:
334,178,31946,5,8,0:0:0:0:
308,150,32030,1,8,0:0:0:0:
273,136,32114,1,10,0:0:0:0:
236,140,32198,1,8,0:0:0:0:
204,161,32283,1,8,0:0:0:0:
186,194,32367,1,8,0:0:0:0:
188,213,32452,5,6,1:2:0:0:
236,30,32621,1,2,0:0:0:0:
65,9,32789,2,0,P|75:53|83:92,1,85.4999973907472,10|0,0:0|0:0,0:0:0:0:
127,269,33126,1,2,1:2:0:0:
218,108,33295,1,2,1:2:0:0:
42,187,33463,1,10,0:0:0:0:
212,282,33632,6,0,B|327:259|327:259|295:269|283:304,1,170.999994781494,2|0,1:2|1:2,0:0:0:0:
417,371,34137,1,10,0:0:0:0:
488,161,34306,2,0,P|481:206|477:245,1,85.4999973907472,2|2,1:2|1:2,0:0:0:0:
351,327,34643,1,0,1:2:0:0:
382,151,34812,2,0,P|325:120|332:30,1,128.249996086121,10|0,0:0|0:0,0:0:0:0:
317,22,35149,5,0,1:2:0:0:
268,184,35317,1,2,0:0:0:0:
457,93,35486,2,0,P|465:137|472:193,1,85.4999973907472,10|0,0:0|0:0,0:0:0:0:
395,360,35823,1,2,1:2:0:0:
344,180,35991,1,2,1:2:0:0:
490,302,36160,1,10,0:0:0:0:
330,163,36328,1,2,0:0:0:0:
286,319,36497,6,0,B|250:341|250:341|182:330,1,85.4999973907472,2|0,1:2|1:2,0:0:0:0:
146,187,36834,2,0,P|210:186|221:251,1,128.249996086121,10|0,0:0|0:0,0:0:0:0:
157,270,37171,2,0,P|110:263|50:261,1,85.4999973907472,2|0,1:2|1:2,0:0:0:0:
2,119,37508,1,10,0:0:0:0:
188,39,37677,1,0,1:2:0:0:
188,39,37761,1,8,0:0:0:0:
188,39,37845,5,6,1:2:0:0:
126,192,38014,1,2,0:0:0:0:
14,35,38182,2,0,P|8:80|2:127,1,85.4999973907472,10|0,0:0|1:2,0:0:0:0:
210,217,38519,2,0,B|215:175|215:175|195:132,1,85.4999973907472,2|0,1:2|1:2,0:0:0:0:
23,251,38857,1,10,0:0:0:0:
135,384,39025,1,0,1:2:0:0:
23,251,39194,6,0,B|101:264|58:298|162:307,1,128.249996086121,2|0,0:0|0:0,0:0:0:0:
182,314,39531,1,10,0:0:0:0:
302,136,39699,1,2,0:0:0:0:
212,124,39868,2,0,P|212:166|234:202,1,85.4999973907472,2|0,1:2|1:2,0:0:0:0:
425,310,40205,1,10,0:0:0:0:
481,177,40373,5,0,1:2:0:0:
481,177,40458,1,10,0:0:0:0:
481,177,40542,2,0,B|492:132|492:132|462:67,1,85.4999973907472,0|0,1:2|0:0,0:0:0:0:
315,31,40879,2,0,B|224:18|224:18|191:64|246:116,1,170.999994781494,10|0,0:0|1:2,0:0:0:0:
183,252,41385,1,0,1:2:0:0:
389,174,41553,2,0,P|322:167|240:172,1,128.249996086121,8|0,0:0|0:0,0:0:0:0:
275,182,41890,5,0,1:2:0:0:
117,343,42059,1,0,1:2:0:0:
145,140,42227,1,8,0:0:0:0:
251,341,42396,1,0,1:2:0:0:
54,242,42564,1,10,0:0:0:0:
301,268,42733,5,8,0:0:0:0:
340,253,42817,1,8,0:0:0:0:
380,266,42901,1,8,0:0:0:0:
405,300,42985,1,8,0:0:0:0:
449,301,43070,1,8,0:0:0:0:
482,275,43154,1,8,0:0:0:0:
493,234,43239,6,0,B|518:143|518:143|465:42,1,190,6|8,1:2|0:0,0:0:0:0:
281,11,43744,2,0,B|197:24|197:24|153:76|209:124,1,190,10|8,0:0|0:0,0:0:0:0:
490,323,44418,6,0,B|440:303|390:337|418:341|375:388|286:354,1,190,6|0,1:2|1:2,0:0:0:0:
168,216,44924,2,0,P|213:227|269:247,1,95,8|0,0:0|1:2,0:0:0:0:
78,353,45261,1,8,0:0:0:0:
176,101,45430,1,8,0:0:0:0:
347,289,45598,1,8,0:0:0:0:
23,43,45935,6,0,B|82:60|82:60|100:78|100:78|165:98,1,142.5,6|0,1:2|0:0,0:0:0:0:
176,101,46272,1,8,0:0:0:0:
323,158,46441,2,0,B|305:112|305:112|320:56,1,95,0|2,1:2|1:2,0:0:0:0:
327,37,46694,1,8,0:0:0:0:
327,37,46778,1,0,1:2:0:0:
226,181,46946,1,10,0:0:0:0:
404,101,47115,1,2,1:2:0:0:
177,249,47284,6,0,P|156:200|147:144,1,95,2|0,0:0|1:2,0:0:0:0:
348,362,47621,2,0,P|353:314|374:270,1,95,8|8,0:0|0:0,0:0:0:0:
381,241,47873,1,8,0:0:0:0:
381,241,47958,2,0,L|437:261,1,47.5,10|0,0:0|1:2,0:0:0:0:
512,154,48126,2,0,L|467:169,1,47.5,0|0,1:2|1:2,0:0:0:0:
350,93,48295,2,0,L|395:108,1,47.5,2|0,1:2|1:2,0:0:0:0:
511,31,48463,2,0,L|466:46,1,47.5,0|0,1:2|1:2,0:0:0:0:
259,22,48632,5,8,0:0:0:0:
228,11,48716,1,8,0:3:0:0:
196,17,48800,1,8,0:3:0:0:
170,37,48884,1,4,0:3:0:0:
158,67,48969,2,0,L|135:109,1,47.5,4|4,0:3|0:3,0:0:0:0:
11,270,49137,5,8,0:0:0:0:
29,312,49221,1,8,0:3:0:0:
67,340,49305,1,8,0:3:0:0:
113,347,49389,1,4,0:3:0:0:
157,331,49474,2,0,L|223:314,1,47.5,4|4,0:3|0:3,0:0:0:0:
423,351,49643,2,0,L|376:339,1,47.5,0|0,1:2|1:2,0:0:0:0:
274,202,49812,6,0,B|245:152|281:94|290:122|330:71|294:-5,1,190,6|0,1:2|1:2,0:0:0:0:
152,231,50317,1,8,0:0:0:0:
348,160,50486,2,0,P|372:149|412:152,1,47.5,0|0,1:2|1:2,0:0:0:0:
294,328,50654,2,0,P|283:301|285:261,1,47.5,8|0,0:0|1:2,0:0:0:0:
186,151,50823,1,0,1:2:0:0:
139,142,50907,1,0,1:2:0:0:
95,156,50991,1,8,0:0:0:0:
62,190,51075,1,8,0:3:0:0:
64,213,51160,1,4,0:3:0:0:
66,237,51244,1,4,0:3:0:0:
68,260,51328,5,8,0:0:0:0:
468,247,53182,6,0,B|411:263|411:263|478:297,1,118.75,10|0,0:0|0:0,0:0:0:0:
447,148,54025,6,0,P|409:207|471:247,1,135.374996385098,6|0,1:2|0:0,0:0:0:0:
446,246,54362,2,0,P|390:253|339:268,1,90.2499975900651,0|0,1:2|0:0,0:0:0:0:
236,204,54699,2,0,P|187:199|151:290,1,135.374996385098,2|0,1:2|0:0,0:0:0:0:
141,295,55036,1,0,1:2:0:0:
8,168,55205,1,2,0:0:0:0:
115,40,55373,6,0,B|165:52|165:52|197:78|197:78|273:103,1,135.374996385098,2|0,1:2|0:0,0:0:0:0:
277,104,55710,1,0,1:2:0:0:
469,15,55879,2,0,P|472:70|472:126,1,90.2499975900651,2|0,0:0|0:0,0:0:0:0:
348,230,56216,1,2,0:0:0:0:
385,84,56385,1,10,0:0:0:0:
424,179,56553,1,2,0:0:0:0:
297,156,56722,6,0,P|246:138|187:125,1,90.2499975900651,6|2,1:2|0:0,0:0:0:0:
41,263,57059,1,2,1:2:0:0:
113,366,57227,1,0,0:0:0:0:
217,299,57396,1,2,1:2:0:0:
151,189,57564,1,2,0:0:0:0:
134,282,57733,5,2,1:2:0:0:
134,282,57901,1,2,0:0:0:0:
216,100,58070,6,0,B|256:89|281:112|281:112|301:157|366:150,1,135.374996385098,2|0,1:2|0:0,0:0:0:0:
363,162,58407,1,0,1:2:0:0:
363,162,58576,1,2,0:0:0:0:
178,349,58913,5,2,0:0:0:0:
241,186,59081,1,10,0:0:0:0:
80,232,59250,2,0,B|133:248|171:208|148:198|187:160|255:192,1,180.49999518013,2|0,0:0|0:0,0:0:0:0:
324,47,59755,5,2,1:2:0:0:
489,111,59924,2,0,B|420:77|420:77|389:80|389:80|299:34,1,180.49999518013,2|0,0:0|0:0,0:0:0:0:
168,89,60430,5,2,1:2:0:0:
25,76,60599,2,0,P|113:39|171:100,1,180.49999518013,2|0,0:0|0:0,0:0:0:0:
303,343,61104,5,2,1:2:0:0:
154,278,61272,2,0,B|201:259|237:299|237:299|266:254|329:269,1,180.49999518013,2|0,0:0|0:0,0:0:0:0:
200,143,61778,5,10,0:0:0:0:
334,266,61946,1,2,0:0:0:0:
281,15,62115,6,0,P|246:52|327:74,1,135.374996385098,6|0,1:2|0:0,0:0:0:0:
281,15,62452,6,0,B|239:27|239:27|206:56|206:56|149:71,1,135.374996385098,0|0,1:2|0:0,0:0:0:0:
88,21,62789,6,0,B|67:87|67:87|118:167,1,135.374996385098,2|0,1:2|0:0,0:0:0:0:
64,248,63126,6,0,B|145:228|145:228|104:250|106:297,1,135.374996385098,8|0,0:0|0:0,0:0:0:0:
178,300,63463,5,10,0:0:0:0:
153,346,63548,1,8,0:3:0:0:
188,384,63632,1,8,0:3:0:0:
235,362,63716,1,4,0:3:0:0:
229,310,63800,2,0,L|304:268,1,45.1249987950325,4|4,0:3|0:3,0:0:0:0:
426,172,63969,5,10,0:0:0:0:
476,189,64054,1,8,0:3:0:0:
476,241,64138,1,8,0:3:0:0:
426,257,64222,1,4,0:3:0:0:
396,215,64306,2,0,L|327:179,1,45.1249987950325,4|4,0:3|0:3,0:0:0:0:
212,81,64475,5,10,0:0:0:0:
411,16,64643,1,0,1:2:0:0:
212,81,64812,6,0,P|126:74|105:168,1,185.249991519928,6|0,1:2|0:0,0:0:0:0:
49,206,65149,2,0,P|105:228|157:199,1,123.499994346619,10|0,0:0|0:0,0:0:0:0:
224,164,65401,1,8,0:0:0:0:
224,164,65486,2,0,B|288:155|288:155|348:171|355:224|302:269,1,185.249991519928,2|0,1:2|0:0,0:0:0:0:
262,297,65823,1,10,0:0:0:0:
212,81,65991,1,2,1:2:0:0:
262,297,66160,6,0,B|215:306|201:361|201:361|168:314|93:321,1,185.249991519928,2|0,1:2|0:0,0:0:0:0:
51,300,66497,1,10,0:0:0:0:
284,369,66666,2,0,B|345:382|345:382|416:344,1,123.499994346619,2|0,0:0|1:2,0:0:0:0:
310,144,67003,1,2,0:0:0:0:
512,267,67171,1,10,0:0:0:0:
416,90,67340,2,0,B|449:150|389:154|429:212,1,123.499994346619,2|0,1:2|1:2,0:0:0:0:
321,304,67677,5,0,0:0:0:0:
202,95,67846,1,10,0:0:0:0:
336,324,68014,1,0,0:0:0:0:
135,240,68183,1,2,1:2:0:0:
342,120,68351,1,2,0:0:0:0:
224,384,68519,2,0,P|231:321|234:251,1,123.499994346619,10|0,0:0|0:0,0:0:0:0:
94,131,68857,6,0,B|61:109|52:74|52:74|116:55|169:90,1,185.249991519928,2|0,1:2|0:0,0:0:0:0:
278,193,69194,6,0,B|275:232|249:257|249:257|201:211|204:148,1,185.249991519928,10|0,0:0|0:0,0:0:0:0:
235,2,69531,6,0,B|270:-16|305:-6|305:-6|289:59|233:87,1,185.249991519928,2|0,1:2|0:0,0:0:0:0:
134,194,69868,6,0,B|173:155|221:162|221:162|227:169|227:169|251:205|328:207,1,185.249991519928,10|0,0:0|0:0,0:0:0:0:
436,178,70205,6,0,P|491:195|488:308,1,185.249991519928,6|0,1:2|0:0,0:0:0:0:
397,369,70542,2,0,L|382:240,1,123.499994346619,8|0,0:0|0:0,0:0:0:0:
258,136,70879,2,0,B|214:139|166:101|166:101|210:141|201:211,1,185.249991519928,2|0,1:2|0:0,0:0:0:0:
194,251,71216,1,10,0:0:0:0:
328,87,71385,1,2,0:0:0:0:
194,251,71553,6,0,P|97:244|94:143,1,185.249991519928,2|0,1:2|0:0,0:0:0:0:
68,92,71890,1,10,0:0:0:0:
241,11,72059,2,0,B|252:66|252:66|249:86|249:86|256:144,1,123.499994346619,2|0,0:0|1:2,0:0:0:0:
338,311,72396,1,2,0:0:0:0:
453,68,72564,1,10,0:0:0:0:
451,260,72733,6,0,B|492:239|492:239|439:216|392:231|369:283,1,185.249991519928,2|0,0:0|0:0,0:0:0:0:
338,311,73070,1,2,0:0:0:0:
156,152,73239,6,0,P|111:200|200:233,1,185.249991519928,10|0,0:0|0:0,0:0:0:0:
253,181,73576,2,0,P|238:123|231:38,1,123.499994346619,0|0,1:2|0:0,0:0:0:0:
3,47,73913,2,0,B|19:104|19:104|-3:164|-3:164|24:242,1,185.249991519928,10|0,0:0|0:0,0:0:0:0:
34,268,74250,1,2,1:2:0:0:
205,91,74418,1,0,1:2:0:0:
185,363,74587,5,10,0:0:0:0:
118,97,74755,1,0,1:2:0:0:
265,333,74924,5,10,0:0:0:0:
287,113,75092,2,0,L|258:175,1,61.7499971733095,8|8,0:0|0:0,0:0:0:0:
337,352,75261,2,0,L|291:310,1,61.7499971733095,10|8,0:0|0:0,0:0:0:0:
109,233,75430,2,0,L|170:242,1,61.7499971733095,8|8,0:0|0:0,0:0:0:0:
456,133,75598,6,0,B|474:101|510:96|510:96|466:81|432:116|449:121|416:191|331:157,1,246.999988693238,6|8,1:2|0:0,0:0:0:0:
227,21,76104,2,0,P|323:5|367:90,1,185.249991519928,2|0,1:2|0:0,0:0:0:0:
370,92,76441,1,0,1:2:0:0:
251,215,76609,2,0,P|191:212|252:280,1,185.249991519928,10|0,0:0|0:0,0:0:0:0:
251,215,76946,6,0,P|184:208|125:191,1,123.499994346619,2|0,1:2|1:2,0:0:0:0:
0,82,77284,1,8,0:0:0:0:
0,342,77452,2,0,P|62:327|116:300,1,123.499994346619,2|0,1:2|0:0,0:0:0:0:
294,362,77789,1,0,1:2:0:0:
202,158,77958,1,10,0:0:0:0:
177,361,78126,1,0,0:0:0:0:
385,217,78295,6,0,B|425:205|425:205|395:171|349:171|310:189|287:227,1,185.249991519928,6|0,1:2|0:0,0:0:0:0:
277,234,78632,1,8,0:0:0:0:
105,14,78800,2,0,B|172:35|172:35|203:69|203:69|289:92,1,185.249991519928,2|0,1:2|0:0,0:0:0:0:
298,97,79137,1,0,1:2:0:0:
94,168,79306,1,10,0:0:0:0:
256,0,79475,1,0,0:0:0:0:
9,162,79643,6,0,P|7:100|9:36,2,123.499994346619,0|0|8,1:2|1:2|0:0,0:0:0:0:
137,99,80149,1,0,1:2:0:0:
61,289,80317,2,0,P|129:303|151:358,1,123.499994346619,2|0,0:0|1:2,0:0:0:0:
314,384,80654,2,0,P|258:325|312:234,1,185.249991519928,10|0,0:0|0:0,0:0:0:0:
296,159,80991,6,0,B|358:182|358:182|379:227|379:227|447:257,1,185.249991519928,6|0,1:2|0:0,0:0:0:0:
512,290,81328,1,8,0:0:0:0:
497,101,81497,2,0,B|460:101|420:57|420:57|454:107|456:162,1,185.249991519928,2|0,1:2|0:0,0:0:0:0:
437,168,81834,1,0,1:2:0:0:
255,70,82003,2,0,B|192:50|192:50|323:24,1,185.249991519928,10|0,0:0|0:0,0:0:0:0:
377,0,82340,5,2,1:2:0:0:
329,247,82508,1,0,1:2:0:0:
192,50,82677,1,8,0:0:0:0:
448,189,82845,1,0,1:2:0:0:
196,177,83014,1,10,0:0:0:0:
478,62,83182,5,8,0:0:0:0:
512,108,83266,1,8,0:0:0:0:
506,167,83350,1,8,0:0:0:0:
455,197,83434,1,8,0:0:0:0:
420,246,83519,1,10,0:0:0:0:
430,305,83603,1,8,0:0:0:0:
481,336,83688,6,0,P|423:340|354:358,1,113.999996520996,6|2,1:2|1:2,0:0:0:0:
274,202,84025,1,8,0:0:0:0:
119,352,84194,2,0,B|186:375|186:375|261:363|238:263,1,170.999994781494,2|0,1:2|0:0,0:0:0:0:
231,271,84531,1,8,0:0:0:0:
197,225,84615,1,8,0:0:0:0:
145,204,84699,1,8,0:0:0:0:
90,214,84783,1,8,0:0:0:0:
48,252,84868,6,0,B|30:193|30:193|43:140|43:140|20:51,1,170.999994781494,2|0,1:2|0:0,0:0:0:0:
5,17,85205,1,0,1:2:0:0:
145,204,85373,1,8,0:0:0:0:
198,0,85542,1,2,1:2:0:0:
39,159,85710,1,8,0:0:0:0:
213,87,85879,1,8,0:0:0:0:
213,87,85963,1,8,0:0:0:0:
213,87,86048,1,10,0:0:0:0:
260,55,86132,1,8,0:0:0:0:
316,50,86216,1,8,0:0:0:0:
365,77,86300,1,8,0:0:0:0:
390,127,86385,6,0,P|384:187|379:257,1,113.999996520996,6|2,1:2|1:2,0:0:0:0:
253,356,86722,1,8,0:0:0:0:
178,72,86890,1,2,1:2:0:0:
51,304,87059,1,8,0:0:0:0:
277,177,87227,1,0,1:2:0:0:
47,138,87396,1,8,0:0:0:0:
135,365,87564,6,0,P|142:310|154:235,1,113.999996520996,10|0,0:0|0:0,0:0:0:0:
284,167,87901,1,8,0:0:0:0:
227,337,88070,2,0,P|277:378|339:365,1,113.999996520996,10|2,0:0|0:0,0:0:0:0:
457,133,88407,6,0,B|399:122|367:157|367:157|374:209|330:236,1,190,10|0,0:0|0:0,0:0:0:0:
171,34,88660,6,0,B|190:89|237:100|237:100|278:68|323:92,1,190,10|0,0:0|0:0,0:0:0:0:
227,337,88913,6,0,B|265:292|251:246|251:246|202:227|201:176,1,190,10|0,0:0|0:0,0:0:0:0:
