osu file format v14

[General]
AudioFilename: audio.mp3
AudioLeadIn: 0
PreviewTime: 53604
Countdown: 0
SampleSet: Soft
StackLeniency: 0.7
Mode: 0
LetterboxInBreaks: 0
WidescreenStoryboard: 1

[Editor]
Bookmarks: 93,10879,21666,32452,43239,54025,64812,83688
DistanceSpacing: 0.9
BeatDivisor: 4
GridSize: 16
TimelineZoom: 1.6

[Metadata]
Title:Bursty Greedy Spider (TV Size)
TitleUnicode:Bursty Greedy Spider (TV Size)
Artist:Suzuki Konomi
ArtistUnicode:鈴木このみ
Creator:Erisu
Version:Easy
Source:蜘蛛ですが、なにか?
Tags:i'm -keqing, so what? kumo desu ga nani ka? anime op opening 2 japanese rock j-rock jrock mayuzumi fuyuko frozz tycani a spider
BeatmapID:2952008
BeatmapSetID:1420385

[Difficulty]
HPDrainRate:2.5
CircleSize:2
OverallDifficulty:3
ApproachRate:4
SliderMultiplier:0.999999999999999
SliderTickRate:1

[Events]
//Background and Video events
0,0,"cropped-1920-1080-1010021.jpg",0,0
Video,-185,"op.mp4"
//Break Periods
//Storyboard Layer 0 (Background)
//Storyboard Layer 1 (Fail)
//Storyboard Layer 2 (Pass)
//Storyboard Layer 3 (Foreground)
//Storyboard Layer 4 (Overlay)
//Storyboard Sound Samples

[TimingPoints]
93,337.078651685393,4,2,21,50,1,0
93,-90.9090909090909,4,2,21,50,0,0
2368,-90.9090909090909,4,2,21,50,0,0
2452,-90.9090909090909,4,2,21,50,0,0
6413,-90.9090909090909,4,2,21,50,0,0
6497,-90.9090909090909,4,2,21,50,0,0
8014,-90.9090909090909,4,2,21,60,0,0
10795,-90.9090909090909,4,2,21,5,0,0
10879,-90.9090909090909,4,2,21,70,0,0
11637,-90.9090909090909,4,2,21,5,0,0
11722,-90.9090909090909,4,2,21,70,0,0
12312,-90.9090909090909,4,2,21,5,0,0
12396,-90.9090909090909,4,2,21,70,0,0
14334,-90.9090909090909,4,2,21,5,0,0
14418,-90.9090909090909,4,2,21,70,0,0
15008,-90.9090909090909,4,2,21,5,0,0
15092,-90.9090909090909,4,2,21,70,0,0
17031,-90.9090909090909,4,2,21,5,0,0
17115,-90.9090909090909,4,2,21,70,0,0
17705,-90.9090909090909,4,2,21,5,0,0
17789,-90.9090909090909,4,2,21,70,0,0
19727,-90.9090909090909,4,2,21,5,0,0
19812,-90.9090909090909,4,2,21,70,0,0
21413,-90.9090909090909,4,2,21,5,0,0
21497,-90.9090909090909,4,2,21,70,0,0
21666,-90.9090909090909,4,2,21,60,0,0
22930,-90.9090909090909,4,2,21,60,0,0
23014,-90.9090909090909,4,2,21,60,0,0
23267,-90.9090909090909,4,2,21,60,0,0
23351,-90.9090909090909,4,2,21,60,0,0
27986,-90.9090909090909,4,2,21,60,0,0
28070,-90.9090909090909,4,2,21,60,0,0
28660,-90.9090909090909,4,2,21,60,0,0
28744,-90.9090909090909,4,2,21,60,0,0
30345,-90.9090909090909,4,2,21,5,0,0
30430,-90.9090909090909,4,2,21,60,0,0
31694,-90.9090909090909,4,2,21,5,0,0
31778,-90.9090909090909,4,2,21,60,0,0
32452,-90.9090909090909,4,2,21,65,0,0
35064,-90.9090909090909,4,2,21,5,0,0
35149,-90.9090909090909,4,2,21,65,0,0
37087,-90.9090909090909,4,2,21,65,0,0
37171,-90.9090909090909,4,2,21,65,0,0
39446,-90.9090909090909,4,2,21,65,0,0
39531,-90.9090909090909,4,2,21,65,0,0
40626,-90.9090909090909,4,2,21,65,0,0
40710,-90.9090909090909,4,2,21,65,0,0
41806,-90.9090909090909,4,2,21,5,0,0
41890,-90.9090909090909,4,2,21,65,0,0
43239,-90.9090909090909,4,2,21,65,0,0
44671,-90.9090909090909,4,2,21,5,0,0
44755,-90.9090909090909,4,2,21,65,0,0
46188,-90.9090909090909,4,2,21,65,0,0
46272,-90.9090909090909,4,2,21,65,0,0
53182,-90.9090909090909,4,2,21,65,0,0
53267,-90.9090909090909,4,2,21,5,0,0
54025,-90.9090909090909,4,2,21,60,0,0
54278,-90.9090909090909,4,2,21,60,0,0
54362,-90.9090909090909,4,2,21,60,0,0
54952,-90.9090909090909,4,2,21,60,0,0
55036,-90.9090909090909,4,2,21,60,0,0
55626,-90.9090909090909,4,2,21,60,0,0
55710,-90.9090909090909,4,2,21,60,0,0
58323,-90.9090909090909,4,2,21,60,0,0
58407,-90.9090909090909,4,2,21,60,0,0
62368,-90.9090909090909,4,2,21,60,0,0
62452,-90.9090909090909,4,2,21,60,0,0
62705,-90.9090909090909,4,2,21,60,0,0
62789,-90.9090909090909,4,2,21,60,0,0
63042,-90.9090909090909,4,2,21,60,0,0
63126,-90.9090909090909,4,2,21,60,0,0
63379,-90.9090909090909,4,2,21,60,0,0
63463,-90.9090909090909,4,2,21,60,0,0
64475,-90.9090909090909,4,2,21,70,0,0
64812,-90.9090909090909,4,2,21,85,0,1
65064,-90.9090909090909,4,2,21,5,0,1
65149,-90.9090909090909,4,2,21,85,0,1
65401,-90.9090909090909,4,2,21,5,0,1
65486,-90.9090909090909,4,2,21,85,0,1
65739,-90.9090909090909,4,2,21,85,0,1
65823,-90.9090909090909,4,2,21,85,0,1
66413,-90.9090909090909,4,2,21,5,0,1
66497,-90.9090909090909,4,2,21,85,0,1
69109,-90.9090909090909,4,2,21,5,0,1
69194,-90.9090909090909,4,2,21,85,0,1
69446,-90.9090909090909,4,2,21,5,0,1
69531,-90.9090909090909,4,2,21,85,0,1
69784,-90.9090909090909,4,2,21,5,0,1
69868,-90.9090909090909,4,2,21,85,0,1
70121,-90.9090909090909,4,2,21,5,0,1
70205,-90.9090909090909,4,2,21,85,0,1
70458,-90.9090909090909,4,2,21,85,0,1
70542,-90.9090909090909,4,2,21,85,0,1
71132,-90.9090909090909,4,2,21,5,0,1
71216,-90.9090909090909,4,2,21,85,0,1
71806,-90.9090909090909,4,2,21,85,0,1
71890,-90.9090909090909,4,2,21,85,0,1
72986,-90.9090909090909,4,2,21,85,0,1
73070,-90.9090909090909,4,2,21,85,0,1
73491,-90.9090909090909,4,2,21,85,0,1
73576,-90.9090909090909,4,2,21,85,0,1
74166,-90.9090909090909,4,2,21,5,0,1
74250,-90.9090909090909,4,2,21,85,0,1
75851,-90.9090909090909,4,2,21,5,0,1
75935,-90.9090909090909,4,2,21,85,0,1
76357,-90.9090909090909,4,2,21,5,0,1
76441,-90.9090909090909,4,2,21,85,0,1
76862,-90.9090909090909,4,2,21,5,0,1
76946,-90.9090909090909,4,2,21,85,0,1
77705,-90.9090909090909,4,2,21,5,0,1
77789,-90.9090909090909,4,2,21,85,0,1
78210,-90.9090909090909,4,2,21,5,0,1
78295,-90.9090909090909,4,2,21,85,0,1
78548,-90.9090909090909,4,2,21,5,0,1
78632,-90.9090909090909,4,2,21,85,0,1
79053,-90.9090909090909,4,2,21,5,0,1
79137,-90.9090909090909,4,2,21,85,0,1
80907,-90.9090909090909,4,2,21,5,0,1
80991,-90.9090909090909,4,2,21,85,0,1
81244,-90.9090909090909,4,2,21,5,0,1
81328,-90.9090909090909,4,2,21,85,0,1
81750,-90.9090909090909,4,2,21,5,0,1
81834,-90.9090909090909,4,2,21,85,0,1
82255,-90.9090909090909,4,2,21,5,0,1
82340,-90.9090909090909,4,2,21,85,0,1
83688,-90.9090909090909,4,2,21,70,0,0
84446,-90.9090909090909,4,2,21,5,0,0
84531,-90.9090909090909,4,2,21,70,0,0
85121,-90.9090909090909,4,2,21,5,0,0
85205,-90.9090909090909,4,2,21,70,0,0
88407,-90.9090909090909,4,2,21,70,0,0
88576,-90.9090909090909,4,2,21,5,0,0
88660,-90.9090909090909,4,2,21,70,0,0
88828,-90.9090909090909,4,2,21,5,0,0
88913,-90.9090909090909,4,2,21,70,0,0
89081,-90.9090909090909,4,2,21,5,0,0

[Colours]
Combo1 : 155,155,155
Combo2 : 255,85,85
Combo3 : 255,85,213

[HitObjects]
415,36,93,6,0,B|369:146|477:124|439:253,1,220.000006713867,6|2,1:2|1:2,0:0:0:0:
400,333,1104,1,0,1:2:0:0:
304,359,1441,2,0,B|213:342|213:342|180:361|180:361|87:337,1,220.000006713867,2|0,1:2|1:2,0:0:0:0:
19,273,2452,1,2,1:2:0:0:
65,185,2789,6,0,P|59:131|46:56,2,110.000003356934,0|0|0,1:2|1:2|1:2,0:0:0:0:
135,254,3800,1,0,1:2:0:0:
207,186,4137,2,0,B|257:188|257:188|270:202|270:202|326:213,1,110.000003356934,2|2,1:2|1:2,0:0:0:0:
403,243,4812,2,0,L|411:303,2,55.0000016784668,10|10|6,0:0|0:3|0:3,0:0:0:0:
464,165,5486,6,0,P|468:103|427:56,1,110.000003356934,6|2,1:2|1:2,0:0:0:0:
350,28,6160,2,0,P|291:35|231:49,1,110.000003356934,2|0,1:2|1:2,0:0:0:0:
254,144,6834,2,0,P|201:135|135:123,1,110.000003356934,2|0,1:2|1:2,0:0:0:0:
126,27,7508,2,0,P|65:24|17:44,1,110.000003356934,2|0,1:2|1:2,0:0:0:0:
2,88,8014,6,0,B|1:128|21:156|21:156|13:191|13:191|35:224|30:277,1,165.0000050354,10|2,0:0|1:2,0:0:0:0:
88,325,8857,1,0,1:2:0:0:
184,301,9194,2,0,L|250:313,2,55.0000016784668,8|4|10,0:0|0:3|0:0,0:0:0:0:
435,71,10879,6,0,P|371:65|261:42,1,165.0000050354,6|2,1:2|1:2,0:0:0:0:
176,20,11722,1,8,0:0:0:0:
83,55,12059,2,0,B|62:130|50:174|50:174|78:204,1,165.0000050354,2|8,1:2|0:0,0:0:0:0:
169,242,12901,2,0,P|157:301|147:361,1,110.000003356934,8|10,0:0|0:0,0:0:0:0:
246,369,13576,6,0,B|300:346|300:346|423:372,1,165.0000050354,6|2,1:2|1:2,0:0:0:0:
498,338,14418,1,8,0:0:0:0:
448,252,14755,2,0,B|473:173|473:173|427:74,1,165.0000050354,2|8,1:2|0:0,0:0:0:0:
382,16,15598,2,0,P|343:24|270:45,1,110.000003356934,8|4,0:0|0:3,0:0:0:0:
197,104,16272,6,0,P|142:35|64:54,1,165.0000050354,6|2,1:2|1:2,0:0:0:0:
10,122,17115,1,8,0:0:0:0:
24,219,17452,2,0,P|83:287|178:248,1,165.0000050354,2|8,1:2|0:0,0:0:0:0:
174,181,18295,2,0,P|221:155|287:170,1,110.000003356934,8|10,0:0|0:0,0:0:0:0:
370,138,18969,6,0,B|419:204|419:204|398:289,1,165.0000050354,6|2,1:2|1:2,0:0:0:0:
335,360,19812,2,0,L|261:353,2,55.0000016784668,8|8|2,0:0|0:0|1:2,0:0:0:0:
232,135,20991,2,0,P|170:125|108:163,1,110.000003356934,10|10,0:0|0:0,0:0:0:0:
51,205,21666,6,0,B|33:128|33:128|66:76|66:76|45:-24,1,220.000006713867,6|2,1:2|1:2,0:0:0:0:
148,2,22677,1,0,1:2:0:0:
196,88,23014,2,0,P|252:94|317:105,1,110.000003356934,2|0,1:2|1:2,0:0:0:0:
356,193,23688,2,0,P|411:206|461:165,1,110.000003356934,0|2,1:2|1:2,0:0:0:0:
483,139,24194,6,0,B|504:226|504:226|477:318,1,165.0000050354,10|2,0:0|1:2,0:0:0:0:
400,353,25036,1,2,1:2:0:0:
304,325,25373,1,2,1:2:0:0:
220,377,25710,2,0,P|133:355|84:346,1,110.000003356934,2|0,1:2|1:2,0:0:0:0:
56,269,26385,2,0,P|108:233|192:238,1,110.000003356934,10|6,0:0|0:3,0:0:0:0:
202,232,26890,6,0,P|193:200|161:41,1,165.0000050354,6|2,1:2|1:2,0:0:0:0:
247,15,27733,1,2,1:2:0:0:
329,69,28070,1,0,1:2:0:0:
414,19,28407,2,0,P|421:80|425:159,1,110.000003356934,2|0,1:2|1:2,0:0:0:0:
356,200,29081,2,0,P|424:242|426:328,2,165.0000050354,0|10|2,1:2|0:0|1:2,0:0:0:0:
259,223,30430,6,0,P|242:170|274:101,1,110.000003356934,2|2,1:2|1:2,0:0:0:0:
285,24,31104,1,10,0:0:0:0:
382,7,31441,1,10,0:0:0:0:
430,93,31778,2,0,L|488:103,2,55.0000016784668,2|8|10,1:2|0:0|0:0,0:0:0:0:
340,132,32452,6,0,B|306:162|306:162|206:137,1,110.000003356934,6|10,1:2|0:0,0:0:0:0:
147,172,33126,2,0,P|108:270|171:334,1,165.0000050354,2|2,1:2|1:2,0:0:0:0:
215,371,33969,2,0,P|269:359|396:349,1,165.0000050354,0|2,1:2|1:2,0:0:0:0:
476,357,34812,1,10,0:0:0:0:
504,262,35149,6,0,P|496:203|483:116,1,110.000003356934,0|10,1:2|0:0,0:0:0:0:
455,59,35823,2,0,P|370:11|263:61,1,220.000006713867,2|2,1:2|1:2,0:0:0:0:
219,145,36834,2,0,P|163:136|90:120,1,110.000003356934,10|2,0:0|1:2,0:0:0:0:
40,54,37508,1,10,0:0:0:0:
9,146,37845,6,0,B|71:273|-42:261|33:372,1,220.000006713867,6|2,1:2|1:2,0:0:0:0:
122,350,38857,1,10,0:0:0:0:
220,355,39194,2,0,P|268:344|341:331,1,110.000003356934,2|10,0:0|0:0,0:0:0:0:
385,252,39868,2,0,P|443:261|502:287,1,110.000003356934,2|10,1:2|0:0,0:0:0:0:
500,181,40542,5,0,1:2:0:0:
415,129,40879,2,0,P|250:41|187:237,1,440.000013427734,10|8,0:0|0:0,0:0:0:0:
235,313,42564,1,10,0:0:0:0:
157,375,42901,1,8,0:0:0:0:
71,324,43239,6,0,B|60:253|60:253|69:229|69:229|54:138,1,165.0000050354,6|10,1:2|0:0,0:0:0:0:
12,75,44081,1,8,0:0:0:0:
95,22,44418,2,0,B|197:12|155:61|273:43,1,165.0000050354,6|8,1:2|0:0,0:0:0:0:
354,52,45261,2,0,L|367:-12,2,55.0000016784668,8|8|8,0:0|0:0|0:0,0:0:0:0:
388,144,45935,6,0,B|413:179|409:225|409:225|383:259|395:325,1,165.0000050354,6|0,1:2|1:2,0:0:0:0:
311,359,46778,1,0,1:2:0:0:
237,292,47115,2,0,P|152:300|66:321,1,165.0000050354,2|10,1:2|0:0,0:0:0:0:
2,249,47958,1,10,0:0:0:0:
41,158,48295,1,10,0:0:0:0:
139,167,48632,6,0,P|264:99|337:209,1,275.000008392334,8|4,0:0|0:3,0:0:0:0:
303,276,49812,2,0,P|351:305|445:218,1,165.0000050354,6|8,1:2|0:0,0:0:0:0:
488,172,50654,1,8,0:0:0:0:
408,112,50991,2,0,L|419:26,2,55.0000016784668,8|4|8,0:0|0:3|0:0,0:0:0:0:
48,96,53182,1,10,0:0:0:0:
117,304,54025,6,0,P|55:305|8:353,2,110.000003356934,6|0|2,1:2|1:2|1:2,0:0:0:0:
202,354,55036,1,0,1:2:0:0:
246,265,55373,2,0,B|345:255|298:310|405:305,1,165.0000050354,2|2,1:2|0:0,0:0:0:0:
486,353,56216,2,0,L|497:230,1,110.000003356934,0|2,0:0|0:0,0:0:0:0:
457,212,56722,6,0,B|431:158|429:109|429:109|466:50|414:-7,1,220.000006713867,6|2,1:2|1:2,0:0:0:0:
324,3,57733,1,2,1:2:0:0:
274,88,58070,2,0,B|242:69|233:31|233:31|77:22,1,220.000006713867,2|0,1:2|0:0,0:0:0:0:
12,89,59081,1,10,0:0:0:0:
85,155,59418,6,0,B|131:274|-10:263|62:381,1,220.000006713867,4|0,1:2|1:2,0:0:0:0:
149,362,60430,1,2,1:2:0:0:
194,274,60767,2,0,P|290:225|374:326,1,220.000006713867,0|0,1:2|1:2,0:0:0:0:
436,359,61778,1,10,0:0:0:0:
479,270,62115,6,0,B|494:133|494:134,2,110.000003356934,6|0|2,1:2|1:2|1:2,0:0:0:0:
436,359,63126,1,8,0:0:0:0:
355,302,63463,2,0,B|152:261|215:375|14:343,1,330.000010070801,10|10,0:0|0:0,0:0:0:0:
9,250,64812,6,0,P|-5:194|31:132,1,110.000003356934,6|10,1:2|0:0,0:0:0:0:
92,86,65486,1,2,1:2:0:0:
171,145,65823,1,10,0:0:0:0:
235,69,66160,2,0,P|291:100|354:88,1,110.000003356934,2|10,1:2|0:0,0:0:0:0:
383,84,66666,2,0,L|399:274,1,165.0000050354,2|10,0:0|0:0,0:0:0:0:
478,303,67508,6,0,P|484:253|492:177,1,110.000003356934,0|10,1:2|0:0,0:0:0:0:
482,95,68182,2,0,P|431:65|358:76,1,110.000003356934,2|10,1:2|0:0,0:0:0:0:
295,115,68857,2,0,L|290:-7,2,110.000003356934,2|10|2,1:2|0:0|1:2,0:0:0:0:
239,196,69868,1,10,0:0:0:0:
182,114,70205,6,0,P|106:44|3:130,1,220.000006713867,6|2,1:2|1:2,0:0:0:0:
81,163,71216,1,10,0:0:0:0:
23,243,71553,2,0,P|36:299|44:382,1,110.000003356934,2|10,1:2|0:0,0:0:0:0:
138,374,72227,1,0,1:2:0:0:
204,300,72564,2,0,P|250:317|336:338,1,110.000003356934,10|0,0:0|1:2,0:0:0:0:
405,354,73239,6,0,P|406:298|416:225,1,110.000003356934,10|0,0:0|1:2,0:0:0:0:
497,193,73913,2,0,P|496:137|486:64,1,110.000003356934,10|2,0:0|1:2,0:0:0:0:
403,33,74587,1,10,0:0:0:0:
332,102,74924,1,10,0:0:0:0:
262,32,75261,1,10,0:0:0:0:
198,107,75598,6,10,P|144:96|67:175,1,165.0000050354,14|2,1:2|1:2,0:0:0:0:
57,313,76609,1,10,0:0:0:0:
155,306,76946,2,0,P|219:330|292:261,1,165.0000050354,2|2,1:2|1:2,0:0:0:0:
311,127,77958,1,10,0:0:0:0:
386,63,78295,6,0,P|440:56|479:148,1,165.0000050354,6|2,1:2|1:2,0:0:0:0:
492,291,79306,1,10,0:0:0:0:
415,354,79643,2,0,B|358:365|358:365|301:341,1,110.000003356934,0|8,1:2|0:0,0:0:0:0:
227,290,80317,1,2,0:0:0:0:
308,233,80654,1,10,0:0:0:0:
219,187,80991,6,0,B|129:176|153:238|60:221,2,165.0000050354,6|2|10,1:2|1:2|0:0,0:0:0:0:
280,108,82340,2,0,P|378:87|450:175,1,220.000006713867,2|10,1:2|0:0,0:0:0:0:
413,262,83351,1,8,0:0:0:0:
331,318,83688,6,0,P|240:308|182:363,1,165.0000050354,6|2,1:2|1:2,0:0:0:0:
88,349,84531,1,8,0:0:0:0:
36,264,84868,2,0,B|8:177|77:205|27:105,1,165.0000050354,2|8,1:2|0:0,0:0:0:0:
82,23,85710,2,0,P|134:31|201:43,1,110.000003356934,8|10,0:0|0:0,0:0:0:0:
272,97,86385,6,0,B|373:80|328:147|439:129,1,165.0000050354,6|2,1:2|1:2,0:0:0:0:
493,204,87227,1,0,1:2:0:0:
435,284,87564,2,0,B|361:323|361:323|270:298,1,165.0000050354,10|10,0:0|0:0,0:0:0:0:
211,231,88407,2,0,L|225:138,2,82.5000025177002,10|10|10,0:0|0:0|0:0,0:0:0:0:
