osu file format v14

[General]
AudioFilename: audio.mp3
AudioLeadIn: 0
PreviewTime: 53604
Countdown: 0
SampleSet: Soft
StackLeniency: 0.7
Mode: 0
LetterboxInBreaks: 0
WidescreenStoryboard: 1

[Editor]
Bookmarks: 10879,21666,32452,43239,54025,64812,83688
DistanceSpacing: 1
BeatDivisor: 4
GridSize: 32
TimelineZoom: 2.7

[Metadata]
Title:Bursty Greedy Spider (TV Size)
TitleUnicode:Bursty Greedy Spider (TV Size)
Artist:Suzuki Konomi
ArtistUnicode:鈴木このみ
Creator:Erisu
Version:-Keqing's Insane
Source:蜘蛛ですが、なにか?
Tags:i'm -keqing, so what? kumo desu ga nani ka? anime op opening 2 japanese rock j-rock jrock mayuzumi fuyuko frozz tycani a spider
BeatmapID:2925832
BeatmapSetID:1420385

[Difficulty]
HPDrainRate:4.5
CircleSize:4
OverallDifficulty:7.8
ApproachRate:9
SliderMultiplier:1.8
SliderTickRate:1

[Events]
//Background and Video events
0,0,"cropped-1920-1080-1010021.jpg",0,0
Video,-185,"op.mp4"
//Break Periods
//Storyboard Layer 0 (Background)
//Storyboard Layer 1 (Fail)
//Storyboard Layer 2 (Pass)
//Storyboard Layer 3 (Foreground)
//Storyboard Layer 4 (Overlay)
//Storyboard Sound Samples

[TimingPoints]
93,337.078651685393,4,2,21,50,1,0
93,-142.857142857143,4,2,21,50,0,0
8014,-142.857142857143,4,2,21,60,0,0
10542,-90.909090909091,4,2,21,60,0,0
10795,-90.909090909091,4,2,21,5,0,0
10879,-83.3333333333333,4,2,21,70,0,0
11637,-83.3333333333333,4,2,21,5,0,0
11722,-83.3333333333333,4,2,21,70,0,0
12312,-83.3333333333333,4,2,21,5,0,0
12396,-83.3333333333333,4,2,21,70,0,0
14334,-83.3333333333333,4,2,21,5,0,0
14418,-83.3333333333333,4,2,21,70,0,0
15008,-83.3333333333333,4,2,21,5,0,0
15092,-83.3333333333333,4,2,21,70,0,0
17031,-83.3333333333333,4,2,21,5,0,0
17115,-83.3333333333333,4,2,21,70,0,0
17705,-83.3333333333333,4,2,21,5,0,0
17789,-83.3333333333333,4,2,21,70,0,0
19727,-83.3333333333333,4,2,21,5,0,0
19812,-83.3333333333333,4,2,21,70,0,0
20149,-111.111111111111,4,2,21,70,0,0
21413,-111.111111111111,4,2,21,5,0,0
21497,-111.111111111111,4,2,21,70,0,0
21666,-125,4,2,21,60,0,0
30345,-125,4,2,21,5,0,0
30430,-125,4,2,21,60,0,0
31104,-111.111111111111,4,2,21,60,0,0
31694,-111.111111111111,4,2,21,5,0,0
31778,-111.111111111111,4,2,21,60,0,0
32452,-100,4,2,21,65,0,0
35064,-100,4,2,21,5,0,0
35149,-100,4,2,21,65,0,0
41806,-100,4,2,21,5,0,0
41890,-100,4,2,21,65,0,0
43239,-90.9090909090909,4,2,21,65,0,0
44671,-90.9090909090909,4,2,21,5,0,0
44755,-90.9090909090909,4,2,21,65,0,0
53182,-55.5555555555556,4,2,21,65,0,0
53267,-55.5555555555556,4,2,21,5,0,0
54025,-111.111111111111,4,2,21,60,0,0
64475,-66.6666666666667,4,2,21,70,0,0
64812,-76.9230769230769,4,2,21,85,0,1
65064,-76.9230769230769,4,2,21,5,0,1
65149,-76.9230769230769,4,2,21,85,0,1
65401,-76.9230769230769,4,2,21,5,0,1
65486,-76.9230769230769,4,2,21,85,0,1
66413,-76.9230769230769,4,2,21,5,0,1
66497,-76.9230769230769,4,2,21,85,0,1
68857,-71.4285714285714,4,2,21,85,0,1
69109,-71.4285714285714,4,2,21,5,0,1
69194,-83.3333333333333,4,2,21,85,0,1
69446,-83.3333333333333,4,2,21,5,0,1
69531,-100,4,2,21,85,0,1
69784,-100,4,2,21,5,0,1
69868,-83.3333333333333,4,2,21,85,0,1
70121,-83.3333333333333,4,2,21,5,0,1
70205,-71.4285714285714,4,2,21,85,0,1
70879,-76.9230769230769,4,2,21,85,0,1
71132,-76.9230769230769,4,2,21,5,0,1
71216,-76.9230769230769,4,2,21,85,0,1
74166,-76.9230769230769,4,2,21,5,0,1
74250,-76.9230769230769,4,2,21,85,0,1
75851,-76.9230769230769,4,2,21,5,0,1
75935,-76.9230769230769,4,2,21,85,0,1
76357,-76.9230769230769,4,2,21,5,0,1
76441,-76.9230769230769,4,2,21,85,0,1
76862,-76.9230769230769,4,2,21,5,0,1
76946,-76.9230769230769,4,2,21,85,0,1
77705,-76.9230769230769,4,2,21,5,0,1
77789,-76.9230769230769,4,2,21,85,0,1
78210,-76.9230769230769,4,2,21,5,0,1
78295,-76.9230769230769,4,2,21,85,0,1
78548,-76.9230769230769,4,2,21,5,0,1
78632,-76.9230769230769,4,2,21,85,0,1
79053,-76.9230769230769,4,2,21,5,0,1
79137,-76.9230769230769,4,2,21,85,0,1
80907,-76.9230769230769,4,2,21,5,0,1
80991,-76.9230769230769,4,2,21,85,0,1
81244,-76.9230769230769,4,2,21,5,0,1
81328,-76.9230769230769,4,2,21,85,0,1
81750,-76.9230769230769,4,2,21,5,0,1
81834,-76.9230769230769,4,2,21,85,0,1
82255,-76.9230769230769,4,2,21,5,0,1
82340,-76.9230769230769,4,2,21,85,0,1
83688,-83.3333333333333,4,2,21,70,0,0
84446,-83.3333333333333,4,2,21,5,0,0
84531,-83.3333333333333,4,2,21,70,0,0
85121,-83.3333333333333,4,2,21,5,0,0
85205,-83.3333333333333,4,2,21,70,0,0
88407,-40,4,2,21,70,0,0
88576,-40,4,2,21,5,0,0
88660,-50,4,2,21,70,0,0
88828,-50,4,2,21,5,0,0
88913,-66.6666666666667,4,2,21,70,0,0
89081,-66.6666666666667,4,2,21,5,0,0

[Colours]
Combo1 : 255,85,213
Combo2 : 255,85,85

[HitObjects]
396,150,93,6,0,P|368:134|338:124,1,62.9999980773926,6|0,1:2|0:0,0:0:0:0:
416,238,430,2,0,P|443:222|473:212,1,62.9999980773926,2|0,1:2|0:0,0:0:0:0:
403,335,767,2,0,B|355:315|355:315|350:305|350:305|270:275,1,125.999996154785,2|0,1:2|1:2,0:0:0:0:
236,348,1272,1,2,0:0:0:0:
163,286,1441,2,0,B|118:315|118:315|146:406,2,125.999996154785,2|0|0,1:2|1:2|1:2,0:0:0:0:
264,163,2452,2,0,P|294:129|295:92,1,62.9999980773926,2|0,1:2|0:0,0:0:0:0:
182,73,2789,6,0,B|224:56|224:56|235:31|235:31|300:8,1,125.999996154785,0|0,1:2|1:2,0:0:0:0:
381,61,3295,1,0,3:0:0:0:
457,16,3463,2,0,P|469:54|464:86,1,62.9999980773926,0|0,1:2|3:0,0:0:0:0:
506,175,3800,2,0,P|479:204|448:216,1,62.9999980773926,0|0,1:2|3:0,0:0:0:0:
413,317,4137,6,0,P|377:290|345:280,1,62.9999980773926,2|0,1:2|0:0,0:0:0:0:
283,220,4475,2,0,P|253:243|216:253,1,62.9999980773926,2|8,1:2|0:0,0:0:0:0:
215,248,4727,1,8,0:0:0:0:
200,244,4812,1,10,0:0:0:0:
84,276,4980,1,10,0:3:0:0:
104,357,5149,1,6,0:3:0:0:
75,55,5486,6,0,P|44:40|3:32,1,62.9999980773926,6|0,1:2|0:0,0:0:0:0:
89,148,5823,2,0,P|120:133|161:125,1,62.9999980773926,2|0,1:2|0:0,0:0:0:0:
7,233,6160,2,0,B|-19:190|-19:190|14:97,1,125.999996154785,2|0,1:2|1:2,0:0:0:0:
75,55,6666,1,2,0:0:0:0:
147,126,6834,2,0,B|197:102|197:102|198:94|198:94|268:61,1,125.999996154785,2|0,1:2|1:2,0:0:0:0:
344,118,7340,1,2,0:0:0:0:
449,81,7508,1,2,1:2:0:0:
463,97,7677,2,0,L|447:173,1,62.9999980773926,2|0,0:0|1:2,0:0:0:0:
462,335,8014,6,0,P|426:298|329:285,1,125.999996154785,10|0,0:0|0:0,0:0:0:0:
238,246,8519,2,0,P|275:231|306:208,1,62.9999980773926,2|0,1:2|0:0,0:0:0:0:
119,280,8857,2,0,P|137:244|146:207,1,62.9999980773926,0|0,1:2|0:0,0:0:0:0:
49,382,9194,1,8,0:0:0:0:
46,366,9278,1,8,0:3:0:0:
43,351,9362,1,4,0:3:0:0:
38,336,9446,1,4,0:3:0:0:
31,321,9531,1,10,0:0:0:0:
48,100,10373,5,0,1:2:0:0:
48,100,10458,1,0,1:2:0:0:
48,100,10542,2,0,B|150:69|150:69|128:112,1,148.50000453186,10|0,0:0|0:0,0:0:0:0:
124,121,10879,5,6,1:2:0:0:
238,246,11048,2,0,L|216:133,1,107.999996704102,2|8,1:0|0:0,0:0:0:0:
344,86,11385,2,0,B|380:-12|380:-12|354:10|314:19,1,161.999995056152,2|0,1:0|0:0,0:0:0:0:
261,65,11722,5,8,0:0:0:0:
261,65,11806,1,8,0:0:0:0:
261,65,11890,1,8,0:0:0:0:
261,65,11975,1,8,0:0:0:0:
261,65,12059,2,0,B|343:85|295:127|392:153,1,161.999995056152,2|0,1:0|0:0,0:0:0:0:
413,152,12396,5,0,1:2:0:0:
489,254,12564,1,8,0:0:0:0:
374,362,12733,2,0,L|395:243,1,107.999996704102,2|8,1:0|0:0,0:0:0:0:
496,120,13070,5,8,0:0:0:0:
496,120,13154,1,8,0:0:0:0:
496,120,13239,2,0,L|481:37,1,53.9999983520508,10|8,0:1|0:0,0:0:0:0:
382,5,13407,2,0,L|299:19,1,53.9999983520508,8|8,0:0|0:0,0:0:0:0:
261,65,13576,5,6,1:2:0:0:
117,15,13744,2,0,B|149:49|149:49|127:139,1,107.999996704102,2|8,1:0|0:0,0:0:0:0:
20,205,14081,2,0,B|63:177|95:202|95:202|98:253|184:285,1,161.999995056153,2|0,1:0|0:0,0:0:0:0:
213,335,14418,5,8,0:0:0:0:
233,317,14502,1,8,0:0:0:0:
244,293,14586,1,8,0:0:0:0:
246,266,14670,1,8,0:0:0:0:
238,240,14755,2,0,B|216:139|216:139|236:169|273:181,1,161.999995056153,2|0,1:0|0:0,0:0:0:0:
280,180,15092,5,0,1:2:0:0:
433,127,15261,1,8,0:0:0:0:
342,48,15430,1,10,0:1:0:0:
342,48,15514,1,8,0:0:0:0:
342,48,15598,2,0,L|330:117,1,53.9999983520508,8|8,0:0|0:0,0:0:0:0:
383,221,15767,2,0,L|395:290,1,53.9999983520508,8|8,0:3|0:3,0:0:0:0:
486,384,15935,5,4,0:3:0:0:
466,365,16019,1,4,0:3:0:0:
442,352,16103,1,4,0:3:0:0:
416,347,16187,1,4,0:3:0:0:
389,350,16272,5,6,1:2:0:0:
261,363,16441,2,0,B|232:318|232:318|249:254,1,107.999996704102,2|8,1:0|0:0,0:0:0:0:
161,139,16778,2,0,B|135:135|114:114|114:114|142:240,1,161.999995056153,2|0,1:0|0:0,0:0:0:0:
59,359,17115,5,8,0:0:0:0:
59,359,17199,1,8,0:0:0:0:
59,359,17284,1,8,0:0:0:0:
59,359,17368,1,8,0:0:0:0:
59,359,17452,2,0,B|21:317|21:317|47:201,1,161.999995056153,2|0,1:0|0:0,0:0:0:0:
51,194,17789,5,0,1:2:0:0:
144,80,17958,1,8,0:0:0:0:
27,0,18126,2,0,L|56:110,1,107.999996704102,2|8,1:0|0:0,0:0:0:0:
146,227,18463,5,8,0:0:0:0:
146,227,18548,1,8,0:0:0:0:
146,227,18632,2,0,L|212:215,1,53.9999983520508,10|8,0:1|0:0,0:0:0:0:
294,282,18800,2,0,L|306:348,1,53.9999983520508,8|8,0:0|0:0,0:0:0:0:
373,377,18969,5,6,1:2:0:0:
476,322,19137,2,0,B|494:279|494:279|473:208,1,107.999996704102,2|8,1:0|0:0,0:0:0:0:
325,195,19475,2,0,B|381:172|381:172|398:129|398:129|460:100,1,161.999995056153,2|0,1:0|0:0,0:0:0:0:
494,22,19812,5,8,0:0:0:0:
469,10,19896,1,8,0:0:0:0:
442,8,19980,1,8,0:0:0:0:
417,16,20064,1,8,0:0:0:0:
396,33,20149,2,0,B|348:45|312:68|312:68|266:55|277:3,1,161.999995056153,2|0,1:0|0:0,0:0:0:0:
192,14,20654,5,2,0:0:0:0:
192,14,20823,1,2,0:0:0:0:
161,158,20991,2,0,L|116:60,1,80.9999975280763,10|0,0:1|1:2,0:0:0:0:
79,249,21328,2,0,P|99:245|136:251,1,40.4999987640381,10|0,0:1|0:0,0:0:0:0:
144,261,21497,1,2,0:0:0:0:
174,366,21666,6,0,P|226:339|260:330,1,72,6|0,1:2|0:0,0:0:0:0:
305,270,22003,2,0,P|357:297|391:306,1,72,2|0,1:2|0:0,0:0:0:0:
442,376,22340,2,0,B|479:325|479:325|454:234,1,144,2|0,1:2|1:2,0:0:0:0:
354,184,22845,1,2,0:0:0:0:
371,89,23014,2,0,B|380:67|380:67|462:78|434:169,2,144,2|0|0,1:2|1:2|1:2,0:0:0:0:
354,184,23857,1,2,0:0:0:0:
277,147,24025,1,2,1:2:0:0:
205,253,24194,6,0,B|157:269|157:269|141:303|141:303|72:327,1,144,10|0,0:0|0:0,0:0:0:0:
0,209,24699,2,0,P|46:220|82:236,1,72,2|0,1:2|0:0,0:0:0:0:
133,98,25036,2,0,P|92:122|54:129,1,72,2|0,1:2|0:0,0:0:0:0:
126,11,25373,1,2,1:2:0:0:
208,47,25542,1,2,0:0:0:0:
312,4,25710,2,0,B|355:24|355:24|335:139,1,144,2|0,1:2|1:2,0:0:0:0:
269,173,26216,1,2,0:0:0:0:
345,251,26385,2,0,P|373:246|407:246,1,36,10|8,0:0|0:3,0:0:0:0:
422,234,26553,2,0,P|446:248|472:270,1,36,10|8,0:3|0:3,0:0:0:0:
431,343,26722,5,6,0:3:0:0:
417,367,26806,1,4,0:3:0:0:
397,382,26890,2,0,B|346:370|346:370|334:332|334:332|273:312,1,144,6|0,1:2|0:0,0:0:0:0:
171,265,27396,2,0,B|153:294|153:294|169:353,1,72,2|0,1:2|0:0,0:0:0:0:
60,384,27733,2,0,B|23:348|23:348|50:226,1,144,2|0,1:2|1:2,0:0:0:0:
114,206,28239,1,2,0:0:0:0:
50,115,28407,2,0,B|30:129|33:148|33:148|78:110|158:107,2,144,2|0|0,1:2|1:2|1:2,0:0:0:0:
123,24,29250,1,2,0:0:0:0:
200,57,29418,1,2,1:2:0:0:
316,0,29587,6,0,B|304:53|304:53|310:74|310:74|295:151,1,144,10|0,0:0|0:0,0:0:0:0:
241,260,30092,2,0,P|196:226|205:167,1,108,2|0,1:2|0:0,0:0:0:0:
208,168,30430,1,2,1:2:0:0:
297,140,30598,1,2,0:0:0:0:
365,233,30767,2,0,L|348:315,1,72,2|0,1:2|1:2,0:0:0:0:
353,314,31019,1,0,1:2:0:0:
356,325,31104,5,10,0:0:0:0:
288,384,31272,1,2,1:2:0:0:
443,314,31441,2,0,B|467:270|467:270|440:172,1,121.499996292114,10|0,0:0|0:0,0:0:0:0:
441,185,31778,1,2,1:2:0:0:
403,83,31946,1,8,0:0:0:0:
403,83,32031,1,8,0:0:0:0:
403,83,32115,2,0,L|418:31,1,40.4999987640381,10|8,0:0|0:0,0:0:0:0:
304,79,32284,2,0,L|290:26,1,40.4999987640381,8|8,0:0|0:0,0:0:0:0:
184,182,32452,5,6,1:2:0:0:
110,120,32621,1,2,0:0:0:0:
207,0,32789,2,0,L|190:93,1,90,10|0,0:0|0:0,0:0:0:0:
184,182,33126,1,2,1:2:0:0:
237,249,33295,1,2,1:2:0:0:
86,338,33463,1,10,0:0:0:0:
100,253,33632,6,0,B|154:280|154:280|164:318|164:318|250:359,1,180,2|0,1:2|1:2,0:0:0:0:
411,314,34137,1,10,0:0:0:0:
321,337,34306,1,2,1:2:0:0:
321,337,34390,1,8,0:0:0:0:
321,337,34475,2,0,L|349:241,1,90,2|0,1:2|1:2,0:0:0:0:
397,121,34812,2,0,B|365:34|365:34|388:50|426:60,1,135,10|0,0:0|0:0,0:0:0:0:
401,132,35149,5,0,1:2:0:0:
503,254,35317,1,2,0:0:0:0:
503,254,35486,2,0,P|464:224|410:222,1,90,10|0,0:0|0:0,0:0:0:0:
306,165,35823,1,2,1:2:0:0:
222,205,35991,1,2,1:2:0:0:
98,120,36160,1,10,0:0:0:0:
105,27,36328,1,2,0:0:0:0:
254,37,36497,6,0,P|223:75|200:109,1,90,2|0,1:2|1:2,0:0:0:0:
59,233,36834,2,0,P|119:200|173:184,1,90,10|0,0:0|0:0,0:0:0:0:
257,354,37171,2,0,P|206:340|162:331,1,90,2|0,1:2|1:2,0:0:0:0:
0,299,37508,2,0,P|58:336|87:377,1,90,10|0,0:0|1:2,0:0:0:0:
78,359,37761,1,8,0:0:0:0:
84,366,37845,5,6,1:2:0:0:
169,332,38014,1,2,0:0:0:0:
119,180,38182,2,0,L|98:283,1,90,10|0,0:0|1:2,0:0:0:0:
101,268,38435,1,8,0:0:0:0:
101,268,38519,1,2,1:2:0:0:
223,267,38688,1,0,1:2:0:0:
310,384,38857,2,0,B|294:343|294:343|323:276,1,90,10|0,0:0|1:2,0:0:0:0:
389,195,39194,6,0,P|411:153|404:97,1,90,2|0,0:0|1:2,0:0:0:0:
265,31,39531,1,10,0:0:0:0:
320,107,39699,1,2,0:0:0:0:
444,24,39868,2,0,P|386:20|342:37,1,90,2|0,1:2|1:2,0:0:0:0:
227,119,40205,1,10,0:0:0:0:
130,89,40373,5,0,1:2:0:0:
130,89,40458,1,10,0:0:0:0:
130,89,40542,2,0,L|140:0,1,90,0|0,1:2|0:0,0:0:0:0:
13,131,40879,2,0,B|105:146|67:194|178:208,1,180,10|0,0:0|1:2,0:0:0:0:
227,119,41385,1,0,1:2:0:0:
293,224,41553,2,0,B|334:181|334:181|313:70,1,135,8|0,0:0|0:0,0:0:0:0:
329,85,41890,5,0,1:2:0:0:
434,152,42059,1,0,1:2:0:0:
371,274,42227,2,0,P|317:248|266:240,1,90,8|0,0:0|1:2,0:0:0:0:
383,384,42564,2,0,P|437:358|488:350,1,90,10|8,0:0|0:0,0:0:0:0:
475,354,42817,1,8,0:0:0:0:
483,354,42901,2,0,P|457:348|424:332,1,45,8|8,0:0|0:0,0:0:0:0:
300,364,43070,2,0,P|277:349|252:323,1,45,8|8,0:0|0:0,0:0:0:0:
199,206,43239,6,0,B|173:237|136:263|136:263|159:321|171:391,1,198.000006042481,6|8,1:2|0:0,0:0:0:0:
303,384,43744,2,0,B|329:353|366:327|366:327|343:269|331:199,1,198.000006042481,10|8,0:0|0:0,0:0:0:0:
186,65,44418,6,0,P|106:86|37:120,1,148.50000453186,6|0,1:2|0:0,0:0:0:0:
43,122,44755,1,0,1:2:0:0:
83,6,44924,1,8,0:0:0:0:
194,69,45092,1,0,1:2:0:0:
312,6,45261,5,8,0:0:0:0:
288,125,45430,1,8,0:0:0:0:
264,244,45598,1,8,0:0:0:0:
450,379,45935,5,6,1:2:0:0:
450,379,46104,2,0,L|428:273,1,99.0000030212403,0|8,1:2|0:0,0:0:0:0:
512,193,46441,2,0,B|446:163|446:163|437:113|437:113|349:70,1,198.000006042481,0|0,1:2|1:2,0:0:0:0:
288,125,46946,1,10,0:0:0:0:
201,40,47115,6,0,B|178:81|178:81|199:157,1,99.0000030212403,2|0,1:2|0:0,0:0:0:0:
92,236,47452,1,0,1:2:0:0:
92,236,47621,2,0,B|115:195|115:195|94:119,1,99.0000030212403,10|8,0:0|0:0,0:0:0:0:
94,138,47873,1,8,0:0:0:0:
86,131,47958,6,0,L|35:149,3,49.5000015106202,10|0|0|0,0:0|1:2|1:2|1:2,0:0:0:0:
175,253,48295,2,0,L|226:271,3,49.5000015106202,10|0|0|0,0:0|1:2|1:2|1:2,0:0:0:0:
116,336,48632,5,8,0:0:0:0:
116,336,48716,1,8,0:3:0:0:
116,336,48800,2,0,P|89:347|65:363,3,49.5000015106202,8|4|4|4,0:3|0:3|0:3|0:3,0:0:0:0:
204,361,49137,1,8,0:0:0:0:
204,361,49221,1,8,0:3:0:0:
204,361,49306,2,0,P|228:365|251:373,1,49.5000015106202,8|4,0:3|0:3,0:0:0:0:
349,370,49475,5,0,1:2:0:0:
349,370,49559,1,0,1:2:0:0:
349,370,49643,1,0,1:2:0:0:
349,370,49727,1,0,1:2:0:0:
349,370,49812,2,0,B|379:339|406:311|406:311|359:176,1,198.000006042481,6|0,1:2|1:2,0:0:0:0:
511,110,50317,2,0,B|531:153|531:153|509:209,1,99.0000030212403,8|0,0:0|1:2,0:0:0:0:
506,210,50570,1,0,1:2:0:0:
499,218,50654,2,0,P|478:209|441:201,3,49.5000015106202,8|0|0|0,0:0|1:2|1:2|1:2,0:0:0:0:
311,293,50991,1,8,0:0:0:0:
286,297,51075,1,8,0:3:0:0:
263,305,51159,1,4,0:3:0:0:
241,317,51243,1,4,0:3:0:0:
221,331,51328,5,8,0:0:0:0:
94,164,53182,2,0,B|129:174|129:174|133:179|133:179|196:195,1,80.9999975280763,10|0,0:0|0:0,0:0:0:0:
12,222,54025,6,0,P|90:200|170:189,1,161.999995056153,6|0,1:2|1:2,0:0:0:0:
118,41,54699,2,0,P|195:62|276:74,1,161.999995056153,2|0,1:2|1:2,0:0:0:0:
356,26,55205,1,2,0:0:0:0:
356,26,55373,2,0,B|405:78|405:78|368:191,1,161.999995056153,2|0,1:2|1:2,0:0:0:0:
299,188,55879,1,2,0:0:0:0:
456,358,56216,5,2,0:0:0:0:
395,265,56385,1,10,0:0:0:0:
315,290,56553,2,0,P|278:318|246:349,1,80.9999975280763,2|6,0:0|1:2,0:0:0:0:
130,358,56890,5,2,0:0:0:0:
141,369,57059,2,0,P|164:335|164:279,1,80.9999975280763,2|0,1:2|0:0,0:0:0:0:
99,225,57396,1,2,1:2:0:0:
94,241,57564,1,2,0:0:0:0:
170,149,57733,1,2,1:2:0:0:
175,165,57901,1,2,0:0:0:0:
81,93,58070,6,0,P|152:104|206:29,1,161.999995056153,2|0,1:2|1:2,0:0:0:0:
132,2,58576,1,2,0:0:0:0:
361,68,58913,5,2,0:0:0:0:
457,38,59081,1,10,0:0:0:0:
506,104,59250,2,0,L|494:281,1,161.999995056153,2|0,0:0|0:0,0:0:0:0:
432,360,59755,1,2,1:2:0:0:
361,317,59924,2,0,P|307:337|272:350,1,80.9999975280763,2|0,0:0|1:2,0:0:0:0:
72,290,60430,5,2,1:2:0:0:
128,355,60598,2,0,P|166:321|157:194,1,161.999995056153,2|0,0:0|0:0,0:0:0:0:
126,102,61104,1,2,1:2:0:0:
41,134,61272,2,0,P|67:180|84:211,1,80.9999975280763,2|0,0:0|1:2,0:0:0:0:
288,224,61778,5,10,0:0:0:0:
368,180,61946,1,2,0:0:0:0:
455,210,62115,2,0,P|468:261|491:390,1,161.999995056153,6|0,1:2|1:2,0:0:0:0:
322,383,62789,2,0,P|309:332|286:203,1,161.999995056153,2|8,1:2|0:0,0:0:0:0:
314,57,63463,5,10,0:0:0:0:
314,57,63547,1,8,0:3:0:0:
314,57,63632,2,0,P|294:50|275:46,3,40.4999987640381,8|4|4|4,0:3|0:3|0:3|0:3,0:0:0:0:
368,158,63969,1,10,0:0:0:0:
368,158,64053,1,8,0:3:0:0:
368,158,64138,2,0,P|387:151|406:147,3,40.4999987640381,8|4|4|4,0:3|0:3|0:3|0:3,0:0:0:0:
288,224,64475,6,0,B|242:199|242:199|233:168|233:168|188:144,1,135.000005149842,10|0,0:0|1:2,0:0:0:0:
103,172,64727,1,8,0:0:0:0:
94,176,64812,6,0,B|132:67|132:67|107:92|70:105,1,175.499991966248,6|0,1:2|0:0,0:0:0:0:
0,180,65149,2,0,B|91:190|53:241|155:252,1,175.499991966248,10|0,0:0|0:0,0:0:0:0:
253,305,65486,2,0,P|198:325|151:360,1,116.999994644165,2|0,1:2|0:0,0:0:0:0:
288,224,65823,1,10,0:0:0:0:
366,356,65991,5,2,1:2:0:0:
366,356,66076,1,8,0:0:0:0:
366,356,66160,2,0,B|410:304|410:304|362:164,1,175.499991966248,2|0,1:2|0:0,0:0:0:0:
385,188,66497,1,10,0:0:0:0:
482,83,66666,2,0,B|504:135|504:135|475:209,1,116.999994644165,2|0,0:0|1:2,0:0:0:0:
385,70,67003,1,2,0:0:0:0:
511,0,67171,1,10,0:0:0:0:
393,79,67340,5,2,1:2:0:0:
393,79,67424,1,8,0:0:0:0:
393,79,67508,2,0,P|336:59|277:45,1,116.999994644165,0|0,1:2|0:0,0:0:0:0:
375,202,67845,2,0,P|432:182|491:168,1,116.999994644165,10|0,0:0|0:0,0:0:0:0:
325,301,68182,1,2,1:2:0:0:
261,185,68351,1,2,0:0:0:0:
427,270,68519,2,0,B|459:316|459:316|437:406,1,116.999994644165,10|0,0:0|0:0,0:0:0:0:
244,309,68857,6,0,B|149:296|182:370|68:355,1,188.999994232178,2|0,1:2|0:0,0:0:0:0:
31,220,69194,2,0,B|11:214|-6:236|-6:236|51:235|131:281,1,161.999995056153,10|0,0:0|0:0,0:0:0:0:
175,211,69531,2,0,B|192:113|192:113|163:128|161:160,1,135,2|0,1:2|0:0,0:0:0:0:
61,114,69868,2,0,B|21:11|21:11|51:36|98:43,1,161.999995056153,10|0,0:0|0:0,0:0:0:0:
175,211,70205,6,0,B|259:185|259:185|278:130|278:130|393:94,1,251.999992309571,6|8,1:2|0:0,0:0:0:0:
446,375,70879,2,0,P|370:340|284:303,1,175.499991966248,2|0,1:2|0:0,0:0:0:0:
277,307,71216,1,10,0:0:0:0:
418,252,71385,1,2,0:0:0:0:
202,368,71553,6,0,B|178:317|178:317|204:242,1,116.999994644165,2|0,1:2|0:0,0:0:0:0:
20,210,71890,1,10,0:0:0:0:
94,264,72059,2,0,B|118:213|118:213|92:138,1,116.999994644165,2|0,0:0|1:2,0:0:0:0:
254,46,72396,1,2,0:0:0:0:
180,100,72564,1,10,0:0:0:0:
60,47,72733,6,0,P|111:11|184:28,1,116.999994644165,2|0,0:0|1:2,0:0:0:0:
293,145,73070,1,2,0:0:0:0:
346,25,73239,2,0,P|382:76|365:149,1,116.999994644165,10|0,0:0|0:0,0:0:0:0:
418,302,73576,2,0,P|415:244|449:198,1,116.999994644165,0|0,1:2|0:0,0:0:0:0:
486,368,73913,2,0,P|415:338|311:314,1,175.499991966248,10|0,0:0|0:0,0:0:0:0:
308,320,74250,5,2,1:2:0:0:
158,365,74418,1,0,1:2:0:0:
175,202,74587,1,10,0:0:0:0:
223,303,74755,1,0,1:2:0:0:
270,131,74924,1,10,0:0:0:0:
72,179,75092,1,8,0:0:0:0:
72,179,75177,1,8,0:0:0:0:
72,179,75261,2,0,L|57:106,1,58.4999973220826,10|8,0:0|0:0,0:0:0:0:
167,41,75430,5,8,0:0:0:0:
167,41,75514,1,8,0:0:0:0:
167,41,75598,2,0,B|139:43|133:71|133:71|195:43|287:50,1,175.499991966248,6|0,1:2|0:0,0:0:0:0:
272,52,75935,1,8,0:0:0:0:
323,186,76104,2,0,B|347:199|341:227|341:227|296:175|210:143,1,175.499991966248,2|0,1:2|0:0,0:0:0:0:
223,151,76441,1,0,1:2:0:0:
142,306,76609,2,0,B|117:319|123:347|123:347|168:295|254:263,1,175.499991966248,10|0,0:0|0:0,0:0:0:0:
246,273,76946,5,2,1:2:0:0:
339,355,77115,2,0,B|369:307|369:307|347:236,1,116.999994644165,0|8,1:2|0:0,0:0:0:0:
451,96,77452,2,0,B|426:89|402:68|402:68|446:204,1,175.499991966248,2|0,1:2|0:0,0:0:0:0:
445,197,77789,1,0,1:2:0:0:
485,308,77958,2,0,P|453:252|344:254,1,175.499991966248,10|0,0:0|0:0,0:0:0:0:
285,296,78295,6,0,B|223:274|223:274|217:237|217:237|133:204,1,175.499991966248,6|0,1:2|0:0,0:0:0:0:
135,211,78632,1,8,0:0:0:0:
25,145,78800,2,0,B|49:142|76:125|76:125|31:265,1,175.499991966248,2|0,1:2|0:0,0:0:0:0:
46,250,79137,1,0,1:2:0:0:
143,313,79306,2,0,P|90:341|47:397,1,116.999994644165,10|0,0:0|0:0,0:0:0:0:
149,210,79643,5,0,1:2:0:0:
259,305,79812,1,0,1:2:0:0:
401,181,79980,1,8,0:0:0:0:
320,131,80149,1,0,1:2:0:0:
320,131,80317,2,0,B|296:181|296:181|320:244,1,116.999994644165,2|0,0:0|1:2,0:0:0:0:
481,383,80654,2,0,P|486:311|386:284,1,175.499991966248,10|0,0:0|0:0,0:0:0:0:
284,321,80991,6,0,B|231:260|231:260|271:132,1,175.499991966248,6|0,1:2|0:0,0:0:0:0:
268,153,81328,1,8,0:0:0:0:
96,196,81497,2,0,B|149:135|149:135|109:7,1,175.499991966248,2|0,1:2|0:0,0:0:0:0:
112,28,81834,1,0,1:2:0:0:
335,18,82003,2,0,P|275:-4|215:80,1,175.499991966248,10|0,0:0|0:0,0:0:0:0:
219,82,82340,5,2,1:2:0:0:
344,26,82508,1,0,1:2:0:0:
409,160,82677,2,0,L|380:284,1,116.999994644165,8|0,0:0|1:2,0:0:0:0:
444,384,83014,1,10,0:0:0:0:
390,282,83182,1,8,0:0:0:0:
390,282,83267,1,8,0:0:0:0:
390,282,83351,2,0,L|323:303,1,58.4999973220826,8|8,0:0|0:0,0:0:0:0:
207,357,83519,5,10,0:0:0:0:
207,357,83604,1,8,0:0:0:0:
207,357,83688,1,6,1:2:0:0:
223,190,83857,2,0,B|260:226|260:226|245:319,1,107.999996704102,2|8,1:0|0:0,0:0:0:0:
96,168,84194,2,0,B|125:63|125:63|103:94|68:105,1,161.999995056153,2|0,1:0|0:0,0:0:0:0:
8,175,84531,5,8,0:0:0:0:
8,175,84615,1,8,0:0:0:0:
8,175,84699,1,8,0:0:0:0:
8,175,84784,1,8,0:0:0:0:
8,175,84868,2,0,B|81:188|54:240|147:251,1,161.999995056153,2|0,1:0|0:0,0:0:0:0:
163,247,85205,5,0,1:2:0:0:
333,208,85373,1,8,0:0:0:0:
247,377,85542,2,0,L|259:259,1,107.999996704102,2|8,1:0|0:0,0:0:0:0:
237,125,85879,5,8,0:0:0:0:
237,125,85963,1,8,0:0:0:0:
237,125,86048,2,0,L|245:39,1,53.9999983520508,10|8,0:1|0:0,0:0:0:0:
345,13,86216,2,0,L|430:21,1,53.9999983520508,8|8,0:0|0:0,0:0:0:0:
454,76,86385,5,6,1:2:0:0:
413,190,86553,2,0,P|348:159|292:147,1,107.999996704102,2|8,1:0|0:0,0:0:0:0:
257,269,86890,1,2,1:0:0:0:
326,375,87059,2,0,P|385:335|447:326,1,107.999996704102,8|0,0:0|1:2,0:0:0:0:
510,255,87396,1,8,0:0:0:0:
342,258,87564,6,0,B|272:239|272:239|249:185|249:185|156:156,1,215.999993408203,10|8,0:1|0:0,0:0:0:0:
47,203,88070,1,10,0:1:0:0:
75,286,88239,1,2,0:0:0:0:
170,84,88407,6,0,B|169:59|169:59|191:32|220:-12|220:-12|222:40|229:78|229:78|217:102,1,225,10|0,0:1|0:0,0:0:0:0:
287,155,88660,6,0,B|298:139|298:139|328:135|366:122|366:122|342:151|326:181|326:181|306:188,1,180,10|0,0:1|0:0,0:0:0:0:
334,272,88913,6,0,B|348:269|348:269|370:282|395:291|395:291|366:296|343:306|343:306|326:299,1,135.000005149842,10|0,0:1|0:0,0:0:0:0:
