osu file format v14

[General]
AudioFilename: audio.mp3
AudioLeadIn: 0
PreviewTime: 53447
Countdown: 0
SampleSet: None
StackLeniency: 0.3
Mode: 0
LetterboxInBreaks: 0
WidescreenStoryboard: 1

[Editor]
DistanceSpacing: 0.9
BeatDivisor: 4
GridSize: 8
TimelineZoom: 1.5

[Metadata]
Title:Blow out
TitleUnicode:Blow out
Artist:Suzuki Konomi
ArtistUnicode:鈴木このみ
Creator:Shogud
Version:Sho
Source:ロクでなし魔術講師と禁忌教典
Tags:of bastard magic instructor Rokudenashi Majutsu Koushi to Akashic Records tv size op opening irohas mugiwarasekai kibbleru
BeatmapID:1420459
BeatmapSetID:671898

[Difficulty]
HPDrainRate:6
CircleSize:4
OverallDifficulty:8.9
ApproachRate:9.2
SliderMultiplier:1.84
SliderTickRate:1

[Events]
//Background and Video events
0,0,"819668.jpg",0,0
//Break Periods
//Storyboard Layer 0 (Background)
//Storyboard Layer 1 (Fail)
//Storyboard Layer 2 (Pass)
//Storyboard Layer 3 (Foreground)
//Storyboard Sound Samples

[TimingPoints]
-613,312.5,4,2,0,20,1,0
480,-200,4,2,0,20,0,0
3137,-133.333333333333,4,2,0,30,0,0
5637,-100,4,2,0,40,0,0
7824,-100,4,3,0,40,0,0
9230,-66.6666666666667,4,2,0,50,0,0
10480,-100,4,2,0,50,0,0
15168,-200,4,2,0,50,0,0
15480,-100,4,2,0,50,0,0
20480,-133.333333333333,4,2,0,50,0,0
22980,-100,4,2,0,50,0,0
44387,-133.333333333333,4,2,0,50,0,0
46730,-100,4,2,0,50,0,0
49230,-80,4,2,0,50,0,0
53449,-133.333333333333,4,2,0,50,0,0
53918,-66.6666666666667,4,2,0,50,0,0
54230,-80,4,2,0,50,0,0
64230,-133.333333333333,4,2,0,50,0,0
64699,-80,4,2,0,50,0,0
74230,-100,4,2,0,50,0,0
78918,-200,4,2,0,50,0,0
79230,-100,4,2,0,50,0,0
84230,-133.333333333333,4,2,0,50,0,0

[Colours]
Combo1 : 255,255,0
Combo2 : 128,128,255
Combo3 : 0,84,168
Combo4 : 0,128,255

[HitObjects]
176,88,480,5,0,0:0:0:0:
264,120,793,1,0,0:0:0:0:
264,120,949,2,0,L|275:183,1,46
192,269,1261,2,0,L|200:224,1,46
344,136,1574,1,0,0:0:0:0:
344,136,1730,2,0,L|352:183,1,46
368,264,2043,2,0,L|376:311,1,46
424,152,2355,2,0,L|432:199,1,46
448,280,2668,2,0,B|473:332|439:322|467:390,1,92,0|0,0:3|0:3,0:3:0:0:
424,152,3293,5,0,0:0:0:0:
424,152,3449,2,0,L|345:138,1,69.0000026321412
256,232,3762,2,0,L|334:218,1,69.0000026321412
416,64,4074,1,0,0:0:0:0:
416,64,4230,2,0,L|345:51,1,69.0000026321412
272,80,4543,2,0,L|201:67,1,69.0000026321412
400,144,4855,2,0,L|329:131,1,69.0000026321412
256,160,5168,2,0,B|232:160|200:152|200:152|168:168|168:168|144:160|96:160,1,138.000005264282
280,328,5793,5,0,0:0:0:0:
280,328,5949,2,0,L|260:217,1,92
384,104,6262,2,0,L|368:194,1,92
192,296,6574,1,0,0:0:0:0:
192,296,6730,2,0,L|173:193,1,92
200,120,7043,2,0,L|181:17,1,92
112,320,7355,2,0,L|93:217,1,92
120,144,7668,1,0,0:0:0:0:
104,53,7824,5,0,0:0:0:0:
336,248,7980,1,0,0:0:0:0:
336,248,9230,6,0,B|368:248|384:256|384:256|368:200|320:168,1,138.000005264282
192,72,9543,2,0,B|159:77|120:72|120:72|144:93|160:128,1,138.000005264282
221,251,9855,2,0,B|255:315|256:360|256:360|280:320|264:288,1,138.000005264282
336,88,10168,1,0,0:0:0:0:
336,87,10480,6,0,P|318:133|288:171,1,92
104,248,10793,1,0,0:0:0:0:
292,167,10949,2,0,P|334:184|369:213,1,92
200,200,11262,2,0,P|157:182|122:153,1,92
96,24,11574,1,0,0:0:0:0:
200,200,11730,6,0,L|220:318,1,92
343,362,12043,2,0,L|328:272,1,92
288,200,12355,2,0,L|308:81,1,92
431,37,12668,2,0,B|424:79|424:79|431:129|431:129|423:176,1,138
432,192,12980,6,0,P|413:240|382:277,1,92
160,248,13293,1,0,0:0:0:0:
345,351,13449,2,0,P|372:314|388:271,1,92
344,112,13762,2,0,P|314:147|296:189,1,92
464,320,14074,1,0,0:0:0:0:
168,80,14230,5,0,0:0:0:0:
456,200,14543,5,0,0:0:0:0:
112,328,14855,5,0,0:0:0:0:
256,56,15012,2,0,L|247:103,1,46
280,120,15168,6,0,B|280:136|282:147|282:147|276:157|276:157|278:176|269:196,1,69
296,216,15480,6,0,B|306:250|306:250|293:321,1,92
96,280,15793,1,0,0:0:0:0:
296,305,15949,2,0,P|348:283|379:257,1,92
464,120,16262,2,0,P|411:141|380:168,1,92
416,344,16574,1,0,0:0:0:0:
384,163,16730,6,0,L|364:52,1,92
288,176,17043,2,0,L|272:266,1,92
64,96,17355,2,0,L|79:5,1,92
160,109,17668,2,0,B|175:143|175:143|170:167|178:195|178:195|174:225|185:253,1,138
160,255,17980,6,0,P|181:308|208:339,1,92
248,104,18293,5,0,0:0:0:0:
286,324,18449,1,0,0:0:0:0:
312,56,18605,1,0,0:0:0:0:
234,265,18761,1,0,0:0:0:0:
424,272,18918,5,0,0:0:0:0:
215,194,19074,1,0,0:0:0:0:
432,352,19230,1,0,0:0:0:0:
290,179,19387,1,0,0:0:0:0:
290,179,19465,1,0,0:0:0:0:
290,179,19543,5,0,0:0:0:0:
208,336,19699,1,0,0:0:0:0:
424,200,19855,1,0,0:0:0:0:
182,180,20012,5,0,0:0:0:0:
195,258,20168,1,0,0:0:0:0:
208,336,20324,1,0,0:0:0:0:
182,180,20480,6,0,L|167:95,1,69.0000026321412
262,52,20793,1,0,0:0:0:0:
262,52,20949,2,0,L|250:119,1,69.0000026321412
350,204,21262,2,0,L|338:136,1,69.0000026321412
182,44,21574,1,0,0:0:0:0:
182,44,21730,2,0,L|168:122,1,69.0000026321412,0|0,0:3|0:3,0:3:0:0:
136,184,22043,2,0,L|122:262,1,69.0000026321412,0|0,0:3|0:3,0:3:0:0:
88,48,22355,5,0,0:0:0:0:
42,188,22512,1,0,0:0:0:0:
78,121,22668,1,0,0:0:0:0:
32,260,22824,1,0,0:0:0:0:
170,111,22980,6,0,B|205:108|228:98|228:98|276:119|276:119|309:97|376:104,1,184,0|0,0:3|0:3,0:3:0:0:
344,192,23371,1,0,0:0:0:0:
344,192,23449,2,0,L|444:175,1,92,0|0,0:3|0:3,0:3:0:0:
488,280,23683,1,0,0:0:0:0:
488,280,23761,2,0,L|387:263,1,92,0|0,0:3|0:3,0:3:0:0:
336,320,23996,1,0,0:0:0:0:
336,320,24074,2,0,L|235:303,1,92,0|0,0:3|0:3,0:3:0:0:
184,360,24308,1,0,0:0:0:0:
184,360,24387,6,0,P|159:315|168:273,1,92
224,216,24621,1,0,0:0:0:0:
224,216,24700,2,0,P|179:191|152:192,1,46
200,112,24855,1,0,0:0:0:0:
80,256,25012,2,0,P|55:211|64:169,1,92
120,112,25246,1,0,0:0:0:0:
120,112,25324,2,0,P|75:87|48:88,1,46
0,128,25480,1,0,0:0:0:0:
144,200,25637,6,0,L|238:216,1,92
304,280,25871,1,0,0:0:0:0:
304,280,25949,2,0,L|322:177,1,92
384,120,26184,1,0,0:0:0:0:
384,120,26262,2,0,L|281:101,1,92
224,40,26496,1,0,0:0:0:0:
224,40,26574,2,0,L|214:95,1,46
144,200,26730,1,0,0:0:0:0:
293,104,26887,6,8,P|349:105|403:123,1,92
456,136,27121,1,0,0:0:0:0:
400,192,27199,2,8,P|448:221|485:263,1,92
240,168,27433,1,0,0:0:0:0:
240,168,27512,2,8,P|288:197|325:239,1,92
365,277,27746,1,0,0:0:0:0:
288,297,27824,2,8,P|314:346|326:402,1,92
192,336,28058,1,0,0:0:0:0:
192,336,28137,6,0,L|208:241,1,92
288,224,28371,1,0,0:0:0:0:
288,224,28450,2,0,L|271:129,1,92
200,64,28683,1,0,0:0:0:0:
200,64,28762,2,0,L|184:154,1,92
104,176,28996,1,0,0:0:0:0:
104,176,29075,2,0,L|119:266,1,92
88,344,29308,1,0,0:0:0:0:
88,344,29387,6,0,P|138:351|174:328,1,92
248,360,29621,1,0,0:0:0:0:
248,360,29700,2,0,P|255:309|232:273,1,92
264,200,29933,1,0,0:0:0:0:
264,200,30012,2,0,P|213:192|177:215,1,92
104,184,30246,1,0,0:0:0:0:
104,184,30325,2,0,P|96:234|112:264,1,46
235,275,30480,5,0,0:0:0:0:
112,72,30637,1,0,0:0:0:0:
142,287,30793,1,0,0:0:0:0:
158,329,30871,1,0,0:0:0:0:
192,359,30949,1,0,0:0:0:0:
236,369,31027,1,0,0:0:0:0:
280,358,31105,5,0,0:0:0:0:
313,327,31183,1,0,0:0:0:0:
328,280,31262,1,0,0:0:0:0:
352,228,31340,1,0,0:0:0:0:
391,186,31418,5,0,0:0:0:0:
440,157,31496,1,0,0:0:0:0:
496,143,31574,1,0,0:0:0:0:
500,211,31652,1,0,0:0:0:0:
460,266,31730,5,0,0:0:0:0:
460,266,32043,5,0,0:0:0:0:
352,136,32199,1,0,0:0:0:0:
472,148,32355,1,0,0:0:0:0:
341,256,32511,1,0,0:0:0:0:
272,128,32668,5,0,0:0:0:0:
272,128,32746,1,0,0:0:0:0:
272,128,32824,1,0,0:0:0:0:
460,266,32980,6,0,B|443:358,1,92
184,312,33293,1,0,0:0:0:0:
369,281,33449,2,0,L|479:261,1,92
277,352,33762,1,0,0:0:0:0:
304,160,33918,1,0,0:0:0:0:
368,368,34074,2,0,B|273:351,1,92
232,200,34387,5,0,0:0:0:0:
403,152,34543,1,0,0:0:0:0:
216,290,34699,2,0,B|232:195,1,92
368,53,35012,1,0,0:0:0:0:
320,216,35168,1,0,0:0:0:0:
264,56,35324,1,0,0:0:0:0:
403,152,35480,1,0,0:0:0:0:
403,152,35558,1,0,0:0:0:0:
403,152,35637,5,0,0:0:0:0:
234,156,35793,1,0,0:0:0:0:
418,61,35949,2,0,L|399:163,1,92
288,312,36262,1,0,0:0:0:0:
328,144,36418,1,0,0:0:0:0:
378,327,36574,2,0,L|267:307,1,92
88,184,36887,5,0,0:0:0:0:
234,156,37043,1,0,0:0:0:0:
72,274,37199,2,0,L|90:171,1,92
152,32,37512,1,0,0:0:0:0:
232,232,37668,1,0,0:0:0:0:
136,122,37824,1,0,0:0:0:0:
158,118,37902,1,0,0:0:0:0:
181,114,37980,1,0,0:0:0:0:
203,110,38058,1,0,0:0:0:0:
224,104,38137,6,0,P|280:96|336:104,1,92
448,136,38449,2,0,P|422:174|406:217,1,92
368,360,38762,1,0,0:0:0:0:
512,216,38918,1,0,0:0:0:0:
320,184,39074,2,0,P|267:205|223:240,1,92
192,352,39387,5,0,0:0:0:0:
406,217,39543,1,0,0:0:0:0:
185,161,39699,2,0,P|129:153|72:160,1,92
0,272,40012,1,0,0:0:0:0:
238,225,40168,1,0,0:0:0:0:
79,73,40324,2,0,P|34:38|-17:16,1,92
94,176,40637,6,0,L|196:157,1,92
368,128,40949,1,0,0:0:0:0:
238,250,41105,1,0,0:0:0:0:
196,76,41262,1,0,0:0:0:0:
412,210,41418,1,0,0:0:0:0:
238,250,41574,1,0,0:0:0:0:
289,78,41731,1,0,0:0:0:0:
289,78,42043,5,0,0:0:0:0:
152,248,42199,1,0,0:0:0:0:
216,120,42355,1,0,0:0:0:0:
182,335,42512,1,0,0:0:0:0:
289,163,42668,1,0,0:0:0:0:
91,317,42824,1,0,0:0:0:0:
289,78,42980,1,0,0:0:0:0:
289,78,43293,5,0,0:0:0:0:
240,320,43449,1,0,0:0:0:0:
237,304,43527,1,0,0:0:0:0:
234,288,43605,1,0,0:0:0:0:
201,112,43762,1,0,0:0:0:0:
200,120,43840,1,0,0:0:0:0:
198,127,43918,1,0,0:0:0:0:
160,272,44074,1,0,0:0:0:0:
424,88,44230,1,0,0:0:0:0:
424,88,44543,5,0,0:0:0:0:
424,88,44699,2,0,P|432:128|424:160,1,69.0000026321412
424,160,45012,1,0,0:0:0:0:
360,264,45324,5,0,0:0:0:0:
360,264,45480,2,0,P|352:224|360:192,1,69.0000026321412
272,200,45793,1,0,0:0:0:0:
272,200,45949,2,0,P|280:160|272:128,1,69.0000026321412
274,132,46262,1,0,0:0:0:0:
160,72,46418,2,0,P|152:112|160:144,1,69.0000026321412
152,225,46730,6,0,P|168:177|152:129,1,92
274,132,47043,1,0,0:0:0:0:
274,132,47199,2,0,P|258:84|274:36,1,92
268,45,47512,1,0,0:0:0:0:
384,128,47824,5,0,0:0:0:0:
384,128,47980,2,0,P|399:170|389:214,1,92
506,220,48292,1,0,0:0:0:0:
506,221,48449,2,0,P|490:269|506:317,1,92
500,307,48762,1,0,0:0:0:0:
272,272,48918,1,0,0:0:0:0:
440,360,49074,1,0,0:0:0:0:
344,192,49230,6,0,B|317:180|317:180|230:195,1,115
112,320,49543,1,0,0:0:0:0:
368,272,49699,1,0,0:0:0:0:
80,248,49855,5,0,0:0:0:0:
325,334,50011,1,0,0:0:0:0:
120,72,50168,5,0,0:0:0:0:
289,268,50324,1,0,0:0:0:0:
328,56,50480,5,0,0:0:0:0:
159,252,50636,1,0,0:0:0:0:
159,252,50715,1,0,0:0:0:0:
159,252,50793,1,0,0:0:0:0:
400,120,50949,1,0,0:0:0:0:
400,120,51027,1,0,0:0:0:0:
400,120,51105,1,0,0:0:0:0:
96,176,51262,1,0,0:0:0:0:
96,176,51340,1,0,0:0:0:0:
96,176,51418,1,0,0:0:0:0:
408,208,51574,5,0,0:0:0:0:
80,88,51730,1,0,0:0:0:0:
80,88,52043,5,0,0:0:0:0:
256,328,52199,1,0,0:0:0:0:
432,88,52355,1,0,0:0:0:0:
384,344,52512,1,0,0:0:0:0:
256,40,52668,1,0,0:0:0:0:
128,344,52824,1,0,0:0:0:0:
256,120,52980,1,0,0:0:0:0:
256,248,53137,1,0,0:0:0:0:
256,248,53449,5,0,0:0:0:0:
256,248,53605,2,0,P|286:261|326:260,1,69.0000026321412
440,176,53918,6,0,B|405:165|405:165|303:183,1,138.000005264282
438,285,54230,6,0,P|454:229|438:173,1,115
384,48,54543,1,0,0:0:0:0:
256,248,54699,2,0,L|374:227,1,115
261,138,55012,2,0,L|134:160,1,115
8,360,55324,2,0,L|126:339,1,115
256,248,55637,6,0,P|272:192|256:128,1,115
64,64,55949,2,0,L|86:190,1,115
236,361,56262,2,0,L|259:227,1,115
424,88,56574,2,0,P|440:152|424:200,1,115
272,176,56808,1,0,0:0:0:0:
248,136,56887,6,0,B|282:125|282:125|368:141,1,115,0|0,0:3|0:3,0:3:0:0:
472,312,57199,2,0,B|437:322|437:322|351:306,1,115,0|0,0:3|0:3,0:3:0:0:
152,264,57512,1,0,0:0:0:0:
348,54,57668,1,0,0:0:0:0:
256,272,57824,1,0,0:0:0:0:
144,168,57980,6,0,L|166:41,1,115
368,168,58293,2,0,L|348:54,1,115
256,272,58605,2,0,L|256:144,1,115
256,8,58918,1,0,0:0:0:0:
135,206,59074,1,0,0:0:0:0:
129,248,59152,1,0,0:0:0:0:
140,289,59230,1,0,0:0:0:0:
166,323,59308,1,0,0:0:0:0:
203,345,59387,6,0,P|257:359|312:343,1,115
252,159,59699,2,0,B|241:193|241:193|258:287,1,115
432,168,60012,2,0,B|442:133|442:133|425:39,1,115
376,240,60324,2,0,P|432:256|488:240,1,115
271,45,60637,6,0,L|247:178,1,115
123,274,60949,2,0,L|146:140,1,115
271,45,61262,2,0,P|335:29|383:45,1,115
280,336,61574,1,0,0:0:0:0:
328,104,61730,1,0,0:0:0:0:
328,104,62043,5,0,0:0:0:0:
424,344,62199,1,0,0:0:0:0:
384,48,62355,1,0,0:0:0:0:
349,327,62512,1,0,0:0:0:0:
352,312,62590,1,0,0:0:0:0:
354,296,62668,1,0,0:0:0:0:
464,48,62824,1,0,0:0:0:0:
462,55,62902,1,0,0:0:0:0:
461,63,62980,1,0,0:0:0:0:
432,264,63137,5,0,0:0:0:0:
123,220,63293,1,0,0:0:0:0:
397,74,63449,1,0,0:0:0:0:
261,353,63605,5,0,0:0:0:0:
207,47,63918,5,0,0:0:0:0:
432,264,64230,6,0,B|368:240|360:288|296:264,1,138.000005264282
336,80,64699,6,0,B|344:122|344:122|329:208,1,115
232,336,65012,2,0,B|219:265|219:265|228:223,1,115
441,191,65324,2,0,P|385:207|329:191,1,115
144,72,65637,6,0,P|208:56|256:72,1,115
216,256,65949,2,0,L|193:129,1,115
16,24,66262,2,0,L|38:150,1,115
160,328,66574,2,0,P|224:344|272:328,1,115
408,224,66808,1,0,0:0:0:0:
432,184,66887,6,0,B|397:173|397:173|303:190,1,115
269,329,67199,2,0,B|303:339|303:339|397:322,1,115
196,142,67512,2,0,L|218:268,1,115
400,80,67824,1,0,0:0:0:0:
184,64,67980,6,0,L|42:89,1,115
144,288,68293,1,0,0:0:0:0:
412,158,68449,1,0,0:0:0:0:
196,142,68605,2,0,L|54:167,1,115
156,366,68918,1,0,0:0:0:0:
296,136,69074,1,0,0:0:0:0:
296,136,69152,1,0,0:0:0:0:
296,136,69230,1,0,0:0:0:0:
296,136,69543,5,0,0:0:0:0:
376,344,69699,1,0,0:0:0:0:
392,24,69855,1,0,0:0:0:0:
296,328,70011,1,0,0:0:0:0:
120,24,70168,1,0,0:0:0:0:
216,328,70324,1,0,0:0:0:0:
256,8,70480,1,0,0:0:0:0:
256,8,70793,5,0,0:0:0:0:
104,272,70949,1,0,0:0:0:0:
184,24,71105,1,0,0:0:0:0:
336,288,71261,1,0,0:0:0:0:
236,82,71418,1,0,0:0:0:0:
499,234,71574,1,0,0:0:0:0:
160,96,71730,1,0,0:0:0:0:
160,96,72043,5,0,0:0:0:0:
464,152,72199,1,0,0:0:0:0:
440,156,72277,1,0,0:0:0:0:
416,160,72355,1,0,0:0:0:0:
104,200,72512,1,0,0:0:0:0:
119,202,72590,1,0,0:0:0:0:
135,205,72668,1,0,0:0:0:0:
368,272,72824,1,0,0:0:0:0:
64,40,72980,1,0,0:0:0:0:
440,192,73293,5,0,0:0:0:0:
96,336,73605,5,0,0:0:0:0:
256,24,73918,5,0,0:0:0:0:
256,24,74230,2,0,P|238:69|204:114,1,92
32,176,74543,1,0,0:0:0:0:
213,104,74699,2,0,P|258:121|303:156,1,92
384,272,75012,2,0,P|338:254|293:220,1,92
424,96,75324,1,0,0:0:0:0:
384,272,75480,6,0,L|360:405,1,92
303,229,75793,2,0,L|321:126,1,92
136,224,76105,2,0,L|159:357,1,92
216,184,76418,2,0,B|219:158|207:136|207:136|211:111|211:111|190:82|190:42,1,138
168,40,76730,6,0,P|123:56|77:92,1,92
0,256,77043,1,0,0:0:0:0:
208,216,77199,2,0,P|191:173|165:135,1,92
44,2,77512,2,0,P|60:44|86:82,1,92
304,88,77824,1,0,0:0:0:0:
88,176,77980,1,0,0:0:0:0:
408,344,78293,5,0,0:0:0:0:
144,64,78605,5,0,0:0:0:0:
256,320,78762,2,0,L|264:272,1,46
240,240,78918,6,0,B|240:224|238:213|238:213|244:203|244:203|242:184|251:164,1,69
232,136,79230,6,0,B|221:101|221:101|234:30,1,92
440,120,79543,1,0,0:0:0:0:
232,136,79699,2,0,P|192:152|129:154,1,92
0,80,80012,2,0,P|40:64|102:61,1,92
280,72,80324,1,0,0:0:0:0:
128,240,80480,6,0,L|-5:216,1,92
168,312,80793,2,0,L|301:335,1,92
304,224,81105,2,0,L|213:239,1,92
344,296,81418,2,0,B|366:283|366:283|384:280|399:286|399:286|413:275|413:275|447:285|485:270,1,138
496,256,81730,6,0,P|475:203|448:172,1,92
352,32,82043,1,0,0:0:0:0:
373,220,82199,2,0,P|425:199|456:172,1,92
304,152,82512,2,0,P|251:172|220:200,1,92
252,353,82824,1,0,0:0:0:0:
224,195,82980,6,0,L|203:76,1,92
104,13,83293,2,0,L|120:104,1,92
136,184,83605,2,0,L|143:229,1,46
252,353,83762,1,0,0:0:0:0:
238,274,83918,1,0,0:0:0:0:
224,195,84074,1,0,0:0:0:0:
196,112,84230,6,0,P|164:104|124:112,1,69.0000026321412
8,160,84543,1,0,0:0:0:0:
156,192,84699,2,0,P|188:200|228:192,1,69.0000026321412
290,196,85012,2,0,P|258:188|218:196,1,69.0000026321412
144,272,85324,1,0,0:0:0:0:
313,287,85480,2,0,L|392:273,1,69.0000026321412
464,336,85793,2,0,L|385:349,1,69.0000026321412
290,196,86105,2,0,L|368:182,1,69.0000026321412
416,96,86418,2,0,B|351:89|373:117|300:117,1,103.500003948212
288,96,86730,6,0,P|256:88|216:96,1,69.0000026321412
152,200,87043,1,0,0:0:0:0:
220,93,87199,2,0,P|228:61|220:21,1,69.0000026321412
154,132,87512,2,0,P|146:164|154:204,1,69.0000026321412
208,352,87824,1,0,0:0:0:0:
232,256,87980,6,0,L|244:185,1,69.0000026321412
312,136,88293,2,0,L|324:65,1,69.0000026321412
304,296,88605,2,0,L|316:225,1,69.0000026321412
384,176,88918,2,0,B|390:136|390:136|404:106|404:106|409:74,1,103.500003948212
432,56,89230,5,0,0:0:0:0:
