osu file format v14

[General]
AudioFilename: audio.mp3
AudioLeadIn: 0
PreviewTime: 53371
Countdown: 0
SampleSet: Soft
StackLeniency: 0.7
Mode: 2
LetterboxInBreaks: 0
WidescreenStoryboard: 0

[Editor]
DistanceSpacing: 1.2
BeatDivisor: 8
GridSize: 8
TimelineZoom: 2.3

[Metadata]
Title:Blow out
TitleUnicode:Blow out
Artist:Suzuki Konomi
ArtistUnicode:鈴木このみ
Creator:Sc4v4ng3r
Version:Overdose
Source:ロクでなし魔術講師と禁忌教典
Tags:Rokudenashi Majutsu Koushi to Akashic Records of Bastard Magic Instructor tv size op sc4 scavanger JBHyperion JBH Razor Sharp
BeatmapID:1291382
BeatmapSetID:611813

[Difficulty]
HPDrainRate:6
CircleSize:4
OverallDifficulty:9.3
ApproachRate:9.3
SliderMultiplier:1.8
SliderTickRate:1

[Events]
//Background and Video events
0,0,"bg1.png",0,0
//Break Periods
//Storyboard Layer 0 (Background)
//Storyboard Layer 1 (Fail)
//Storyboard Layer 2 (Pass)
//Storyboard Layer 3 (Foreground)
//Storyboard Sound Samples

[TimingPoints]
-613,312.5,4,2,1,85,1,0
480,-100,4,2,1,5,0,0
637,-100,4,2,1,7,0,0
949,-100,4,2,1,9,0,0
1262,-100,4,2,1,11,0,0
1574,-100,4,2,1,13,0,0
1887,-100,4,2,1,15,0,0
2199,-100,4,2,1,17,0,0
2511,-100,4,2,1,19,0,0
2824,-100,4,2,1,21,0,0
3136,-100,4,2,1,23,0,0
3449,-100,4,2,1,25,0,0
3762,-100,4,2,1,27,0,0
4074,-100,4,2,1,29,0,0
4387,-100,4,2,1,31,0,0
4699,-100,4,2,1,33,0,0
5012,-100,4,2,1,35,0,0
5324,-100,4,2,1,37,0,0
5636,-100,4,2,1,39,0,0
5949,-100,4,2,1,41,0,0
6261,-100,4,2,1,43,0,0
6574,-100,4,2,1,45,0,0
6887,-100,4,2,1,47,0,0
7199,-100,4,2,1,49,0,0
7512,-100,4,2,1,51,0,0
7668,-100,4,2,1,5,0,0
7824,-100,4,2,1,65,0,0
7980,-100,4,2,1,80,0,0
10480,-100,4,2,1,70,0,0
15480,-100,4,2,1,75,0,0
20480,-100,4,2,2,65,0,0
22512,-100,4,2,1,75,0,0
22980,-100,4,2,2,60,0,0
30637,-100,4,2,1,70,0,0
30793,-100,4,2,1,45,0,0
31730,-125,4,2,2,60,0,0
32980,-100,4,2,1,75,0,0
37824,-100,4,2,1,55,0,0
38137,-100,4,2,1,75,0,0
44230,-100,4,2,1,65,0,0
53137,-100,4,2,2,55,0,0
53918,-100,4,2,2,80,0,0
54152,-100,4,2,2,30,0,0
54230,-100,4,2,1,90,0,1
58137,-100,4,2,1,73,0,1
59387,-100,4,2,1,90,0,1
64230,-100,4,2,1,75,0,0
64621,-100,4,2,1,30,0,0
64699,-100,4,2,1,90,0,1
74230,-100,4,2,1,70,0,0
79230,-100,4,2,1,75,0,0
81730,-100,4,2,1,65,0,0
84230,-100,4,2,1,60,0,0
84699,-100,4,2,2,60,0,0
86730,-100,4,2,1,60,0,0
87199,-100,4,2,2,60,0,0

[Colours]
Combo1 : 202,0,0
Combo2 : 111,111,255
Combo3 : 238,200,49
Combo4 : 0,0,202

[HitObjects]
256,192,480,12,0,7668,0:0:0:0:
132,128,7824,5,8,0:0:0:0:
400,136,7980,1,8,0:0:0:0:
68,172,9230,6,0,L|192:184,1,90,2|0,0:0|0:0,0:0:0:0:
460,176,9543,2,0,L|370:184,1,90,2|0,0:0|0:0,0:0:0:0:
16,192,9855,2,0,L|112:200,1,90,2|0,0:0|0:0,0:0:0:0:
336,192,10168,2,0,L|484:200,1,135,8|0,3:0|0:0,0:0:0:0:
244,160,10480,6,0,P|196:152|248:80,1,180,4|2,0:0|0:0,0:0:0:0:
352,108,10949,2,0,L|480:104,1,90,2|0,0:0|0:0,0:0:0:0:
164,168,11262,2,0,L|260:156,1,90,8|0,0:0|0:0,0:0:0:0:
96,144,11574,1,2,0:0:0:0:
324,192,11730,6,0,B|416:184|416:184|316:192,1,180,4|2,0:1|0:0,0:0:0:0:
220,196,12199,1,2,0:0:0:0:
328,192,12355,1,0,0:0:0:0:
68,232,12512,2,0,L|168:244,1,90,8|0,0:0|0:0,0:0:0:0:
420,240,12824,1,8,0:0:0:0:
172,244,12980,6,0,P|104:216|180:200,1,180,4|2,0:1|0:0,0:0:0:0:
268,216,13449,2,0,L|176:228,1,90,2|0,0:0|0:0,0:0:0:0:
444,196,13762,2,0,L|336:180,1,90,8|0,0:0|0:0,0:0:0:0:
112,156,14074,1,8,0:0:0:0:
356,144,14230,6,0,L|472:136,1,90,2|0,0:0|0:0,0:0:0:0:
204,128,14543,2,0,L|96:116,1,90,2|0,0:0|0:0,0:0:0:0:
360,112,14855,2,0,L|472:104,1,90,2|0,0:0|0:0,0:0:0:0:
396,108,15090,1,0,0:0:0:0:
172,124,15168,2,0,P|116:108|32:72,1,135,8|0,0:0|0:0,0:0:0:0:
328,96,15480,6,0,P|376:132|300:192,1,180,6|0,0:0|0:0,0:0:0:0:
56,168,15949,2,0,L|184:156,1,90,8|0,0:0|0:0,0:0:0:0:
316,184,16262,1,2,0:0:0:0:
208,196,16418,1,2,0:0:0:0:
432,208,16574,1,8,0:0:0:0:
144,232,16730,6,0,P|80:208|144:160,1,180,2|0,0:0|0:0,0:0:0:0:
376,208,17199,1,8,0:0:0:0:
268,216,17355,2,0,L|168:208,1,90,0|2,0:0|0:0,0:0:0:0:
336,180,17668,1,2,0:0:0:0:
168,176,17824,1,8,0:0:0:0:
440,168,17980,6,0,P|416:120|284:144,1,180,4|2,0:0|0:0,0:0:0:0:
40,160,18449,2,0,L|140:164,1,90,8|2,0:0|0:0,0:0:0:0:
392,184,18762,2,0,L|296:188,1,90,8|2,0:0|0:0,0:0:0:0:
40,192,19074,2,0,L|144:200,1,90,8|2,0:0|0:0,0:0:0:0:
408,192,19387,5,8,0:0:0:0:
464,192,19465,1,8,0:0:0:0:
408,192,19543,1,2,0:0:0:0:
128,208,19699,2,0,L|24:208,1,90,12|2,0:1|0:0,0:0:0:0:
296,184,20012,2,0,L|176:184,1,90,8|8,0:0|0:0,0:0:0:0:
464,168,20324,1,8,0:0:0:0:
200,160,20480,6,0,P|128:136|192:88,1,180,4|0,0:0|0:0,0:0:0:0:
336,112,20949,2,0,L|224:120,1,90,2|0,0:0|0:0,0:0:0:0:
136,128,21262,1,0,0:0:0:0:
296,184,21418,2,0,L|408:192,1,90,2|0,0:0|0:0,0:0:0:0:
144,248,21730,6,0,L|40:256,1,90,2|0,0:0|0:0,0:0:0:0:
176,224,22043,1,0,0:0:0:0:
24,216,22199,2,0,L|32:112,1,90,2|0,0:0|0:0,0:0:0:0:
136,104,22512,1,2,0:0:0:0:
416,120,22668,2,0,L|320:120,1,90,8|8,0:0|0:0,0:0:0:0:
72,152,22980,6,0,P|104:192|216:152,1,180,4|0,0:0|0:0,0:0:0:0:
320,136,23449,2,0,L|208:120,1,90,2|0,0:1|0:0,0:0:0:0:
368,112,23762,2,0,P|416:144|344:200,1,180,2|2,0:1|0:1,0:0:0:0:
240,168,24230,1,0,0:0:0:0:
400,144,24387,6,0,B|496:152|496:152|392:144,1,180,2|2,0:1|0:1,0:0:0:0:
152,144,24855,2,0,L|312:48,1,180,8|0,0:0|0:0,0:0:0:0:
416,64,25324,1,2,0:1:0:0:
144,88,25480,6,0,P|104:96|160:176,1,180
256,160,25949,1,2,0:1:0:0:
152,168,26105,2,0,L|48:176,1,90,0|2,0:0|0:1,0:0:0:0:
168,184,26418,2,0,L|64:200,1,90,0|2,0:0|0:1,0:0:0:0:
344,224,26730,6,0,B|440:216|440:216|352:224,1,180,8|0,0:0|0:0,0:0:0:0:
96,224,27199,2,0,L|208:224,1,90,8|0,0:0|0:0,0:0:0:0:
296,224,27512,1,2,0:1:0:0:
192,232,27668,1,0,0:0:0:0:
448,232,27824,2,0,L|336:224,1,90,8|0,0:0|0:0,0:0:0:0:
104,224,28137,5,4,0:0:0:0:
208,192,28293,2,0,L|104:200,1,90,0|2,0:0|0:1,0:0:0:0:
8,208,28605,1,0,0:0:0:0:
152,216,28762,2,0,L|248:224,1,90,2|0,0:1|0:0,0:0:0:0:
352,224,29074,1,2,0:1:0:0:
96,176,29230,6,0,P|40:144|104:80,1,180
208,224,29699,1,2,0:1:0:0:
104,232,29855,2,0,L|-8:240,1,90,0|2,0:0|0:1,0:0:0:0:
120,240,30168,1,0,0:0:0:0:
224,248,30324,1,2,0:1:0:0:
56,224,30480,1,8,0:0:0:0:
376,248,30637,5,4,0:0:0:0:
472,200,30793,1,8,0:0:0:0:
416,200,30871,1,8,0:0:0:0:
192,192,30949,1,8,0:0:0:0:
136,184,31027,1,8,0:0:0:0:
136,128,31105,1,8,0:0:0:0:
192,120,31183,1,8,0:0:0:0:
416,152,31262,6,0,L|461:152,1,45,8|8,0:0|0:0,0:0:0:0:
192,264,31418,2,0,L|128:264,1,45,8|8,0:0|0:0,0:0:0:0:
416,176,31574,2,0,L|496:176,1,45,8|8,0:0|0:0,0:0:0:0:
120,192,31730,6,0,P|8:136|160:32,1,360,2|0,0:0|0:0,0:0:0:0:
248,112,32668,1,0,0:0:0:0:
304,112,32746,1,0,0:0:0:0:
152,80,32824,1,8,0:0:0:0:
432,184,32980,6,0,P|432:232|296:240,1,180,4|2,0:0|0:0,0:0:0:0:
64,216,33449,2,0,L|168:208,1,90,8|0,0:0|0:0,0:0:0:0:
304,200,33762,2,0,L|208:184,1,90,2|2,0:0|0:0,0:0:0:0:
464,192,34074,2,0,L|360:200,1,90,8|0,0:0|0:0,0:0:0:0:
120,200,34387,6,0,L|24:192,1,90,2|0,0:0|0:0,0:0:0:0:
272,168,34699,1,8,0:0:0:0:
168,160,34855,1,0,0:0:0:0:
344,136,35012,1,2,0:0:0:0:
240,144,35168,1,2,0:0:0:0:
480,144,35324,2,0,L|464:240,1,90,8|0,0:0|0:0,0:0:0:0:
184,240,35637,6,0,L|288:248,1,90,4|0,0:1|0:0,0:0:0:0:
40,272,35949,2,0,L|152:272,1,90,8|0,0:0|0:0,0:0:0:0:
288,296,36262,2,0,L|272:184,1,90,2|2,0:0|0:0,0:0:0:0:
40,192,36574,2,0,L|136:192,1,90,8|0,0:0|0:0,0:0:0:0:
384,200,36887,6,0,L|480:192,1,90,4|0,0:1|0:0,0:0:0:0:
232,184,37199,2,0,L|136:184,1,90,8|0,0:0|0:0,0:0:0:0:
296,160,37512,2,0,L|312:56,1,90,2|2,0:0|0:0,0:0:0:0:
56,40,37824,2,0,L|112:48,1,45,8|8,0:0|0:0,0:0:0:0:
304,64,37980,2,0,L|248:72,1,45,8|8,0:0|0:0,0:0:0:0:
32,80,38137,6,0,P|80:112|144:128,1,90,6|0,0:0|0:0,0:0:0:0:
360,144,38449,2,0,L|256:144,1,90,8|0,0:0|0:0,0:0:0:0:
432,128,38762,2,0,L|448:40,1,90,2|2,0:0|0:0,0:0:0:0:
208,56,39074,2,0,L|88:56,1,90,8|0,0:0|0:0,0:0:0:0:
376,112,39387,6,0,L|472:112,1,90,2|0,0:0|0:0,0:0:0:0:
232,160,39699,2,0,L|328:160,1,90,8|0,0:0|0:0,0:0:0:0:
480,168,40012,1,2,0:0:0:0:
376,176,40168,1,2,0:0:0:0:
136,224,40324,2,0,L|40:216,1,90,8|0,0:0|0:0,0:0:0:0:
312,240,40637,6,0,L|192:248,1,90,4|0,0:0|0:0,0:0:0:0:
464,240,40949,2,0,L|488:144,1,90,8|0,0:0|0:0,0:0:0:0:
336,160,41262,1,2,0:0:0:0:
440,152,41418,1,2,0:0:0:0:
200,136,41574,1,8,0:0:0:0:
456,112,41730,6,0,P|464:176|352:184,1,180,4|2,0:0|0:0,0:0:0:0:
96,168,42199,2,0,L|192:160,1,90,8|2,0:0|0:0,0:0:0:0:
464,168,42512,2,0,L|368:160,1,90,8|0,0:0|0:0,0:0:0:0:
112,136,42824,1,8,0:0:0:0:
376,176,42980,6,0,P|424:192|360:256,1,180,4|2,0:1|0:0,0:0:0:0:
120,224,43449,2,0,L|48:232,2,45,8|8|2,0:0|0:0|0:0,0:0:0:0:
368,216,43762,1,8,3:0:0:0:
320,184,43840,1,0,3:0:0:0:
280,152,43918,1,0,3:0:0:0:
32,104,44074,1,8,0:0:0:0:
320,128,44230,6,0,B|427:121|427:121|344:128,1,180,4|2,0:0|0:0,0:0:0:0:
256,96,44699,2,0,L|160:96,1,90,2|0,0:0|0:0,0:0:0:0:
456,96,45012,2,0,P|432:144|336:96,1,180,8|2,0:0|0:0,0:0:0:0:
456,96,45480,1,2,0:0:0:0:
216,72,45637,6,0,L|96:80,2,90,2|2|2,0:0|0:0|0:0,0:0:0:0:
320,88,46105,1,0,0:0:0:0:
80,136,46262,2,0,L|176:144,2,90,8|0|0,0:0|0:0|0:0,0:0:0:0:
368,176,46730,6,0,P|432:160|368:120,1,180,4|2,0:0|0:0,0:0:0:0:
264,144,47199,2,0,L|376:144,1,90,2|0,0:0|0:0,0:0:0:0:
80,200,47512,2,0,P|32:200|88:152,1,180,8|2,0:0|0:0,0:0:0:0:
192,176,47980,1,2,0:0:0:0:
432,160,48137,6,0,L|328:144,2,90,2|2|2,0:0|0:0|0:0,0:0:0:0:
328,176,48605,1,0,0:0:0:0:
80,208,48762,2,0,L|192:216,1,90,8|2,0:0|0:0,0:0:0:0:
424,208,49074,1,8,0:0:0:0:
168,208,49230,6,0,L|352:216,1,180,4|2,0:0|0:0,0:0:0:0:
88,200,49699,2,0,L|80:96,1,90,8|0,0:0|0:0,0:0:0:0:
408,200,50012,2,0,L|288:184,1,90,8|0,0:0|0:0,0:0:0:0:
48,184,50324,2,0,L|168:168,1,90,8|0,0:0|0:0,0:0:0:0:
424,144,50637,5,8,0:0:0:0:
456,104,50715,1,8,0:0:0:0:
432,56,50793,1,0,3:0:0:0:
376,40,50871,1,0,3:0:0:0:
192,104,50949,1,8,3:0:0:0:
144,136,51027,1,0,3:0:0:0:
104,104,51105,1,0,3:0:0:0:
120,48,51183,1,0,3:0:0:0:
448,152,51262,5,8,0:0:0:0:
440,208,51340,1,0,3:0:0:0:
408,248,51418,1,0,3:0:0:0:
352,256,51496,1,0,3:0:0:0:
136,248,51574,1,8,0:0:0:0:
376,264,51730,6,0,L|488:256,1,90,4|0,0:0|0:0,0:0:0:0:
224,248,52043,2,0,L|120:240,1,90,8|8,0:0|0:0,0:0:0:0:
384,208,52355,1,8,0:0:0:0:
128,216,52512,2,0,L|32:208,1,90,8|8,0:0|0:0,0:0:0:0:
296,176,52824,1,8,0:0:0:0:
38,208,52980,2,0,L|16:104,1,90,0|2,0:0|0:0,0:0:0:0:
392,184,53918,2,0,P|448:176|512:112,1,135,8|0,0:0|0:0,0:0:0:0:
136,136,54230,6,0,B|32:128|32:128|144:136,1,180,4|0,0:0|0:0,0:0:0:0:
392,136,54699,2,0,L|488:128,1,90,8|0,0:0|0:0,0:0:0:0:
320,112,55012,2,0,L|200:104,1,90,2|0,0:0|0:0,0:0:0:0:
496,136,55324,2,0,L|384:144,1,90,8|0,0:0|0:0,0:0:0:0:
128,176,55637,6,0,L|16:168,1,90,2|0,0:0|0:0,0:0:0:0:
296,200,55949,2,0,L|400:192,1,90,8|0,0:0|0:0,0:0:0:0:
216,152,56262,1,2,0:0:0:0:
320,160,56418,1,0,0:0:0:0:
64,184,56574,1,8,0:0:0:0:
168,184,56730,1,0,0:0:0:0:
456,184,56887,6,0,L|360:176,1,90,6|0,0:0|0:0,0:0:0:0:
104,144,57199,2,0,L|232:128,1,90,8|0,0:0|0:0,0:0:0:0:
352,112,57512,1,2,0:0:0:0:
248,104,57668,1,0,0:0:0:0:
488,128,57824,2,0,L|456:232,1,90,8|0,0:0|0:0,0:0:0:0:
168,208,58137,6,0,L|72:208,1,90,4|0,0:1|0:0,0:0:0:0:
328,176,58449,2,0,L|224:168,1,90,12|0,0:1|0:0,0:0:0:0:
488,168,58762,1,6,0:0:0:0:
384,168,58918,1,0,0:0:0:0:
104,176,59074,1,8,0:0:0:0:
56,160,59152,1,8,0:0:0:0:
272,168,59230,1,8,0:0:0:0:
320,152,59308,1,8,0:0:0:0:
88,160,59387,6,0,P|40:152|0:128,1,90,6|0,0:0|0:0,0:0:0:0:
288,128,59699,2,0,L|176:120,1,90,8|0,0:0|0:0,0:0:0:0:
352,144,60012,2,0,L|368:240,1,90,2|0,0:0|0:0,0:0:0:0:
112,232,60324,2,0,L|208:240,1,90,8|0,0:0|0:0,0:0:0:0:
464,216,60637,6,0,L|360:208,1,90,6|0,0:1|0:0,0:0:0:0:
120,192,60949,2,0,L|224:184,1,90,8|0,0:0|0:0,0:0:0:0:
48,168,61262,1,2,0:0:0:0:
152,160,61418,1,0,0:0:0:0:
408,160,61574,1,8,0:0:0:0:
120,200,61730,6,0,L|312:184,1,180,4|2,0:0|0:0,0:0:0:0:
32,184,62199,2,0,L|16:72,1,90,8|0,0:0|0:0,0:0:0:0:
328,88,62512,2,0,L|400:96,2,45,8|8|2,0:0|0:0|0:0,0:0:0:0:
64,104,62824,2,0,L|-8:112,2,45,8|0|0,3:0|3:0|3:0,0:0:0:0:
352,104,63137,6,0,L|464:104,1,90,8|0,0:0|0:0,0:0:0:0:
144,168,63449,1,8,0:0:0:0:
424,168,63605,2,0,P|472:192|424:240,1,135,2|0,0:0|0:0,0:0:0:0:
168,264,63918,2,0,L|32:256,1,135,2|0,0:0|0:0,0:0:0:0:
336,272,64230,2,0,P|400:272|464:136,1,225,2|0,0:0|0:0,0:0:0:0:
144,208,64699,6,0,L|40:200,1,90,12|0,0:0|0:0,0:0:0:0:
296,192,65012,2,0,L|400:176,1,90,2|0,0:0|0:0,0:0:0:0:
120,160,65324,2,0,L|224:152,1,90,8|0,0:0|0:0,0:0:0:0:
464,160,65637,6,0,L|360:152,1,90,2|0,0:0|0:0,0:0:0:0:
80,184,65949,2,0,L|176:192,1,90,8|0,0:0|0:0,0:0:0:0:
424,184,66262,2,0,L|464:96,1,90,2|0,0:0|0:0,0:0:0:0:
208,112,66574,2,0,L|96:120,1,90,8|0,0:0|0:0,0:0:0:0:
376,144,66887,6,0,L|472:152,1,90,6|0,0:0|0:0,0:0:0:0:
200,152,67199,2,0,L|312:160,1,90,8|0,0:0|0:0,0:0:0:0:
32,168,67512,2,0,L|24:64,1,90,2|0,0:0|0:0,0:0:0:0:
280,72,67824,1,8,0:0:0:0:
32,144,67980,6,0,P|64:192|168:144,1,180
416,136,68449,2,0,L|320:128,1,90,12|0,0:1|0:0,0:0:0:0:
72,112,68762,2,0,L|176:104,1,90,2|0,0:0|0:0,0:0:0:0:
432,96,69074,1,8,0:0:0:0:
384,64,69152,1,8,0:0:0:0:
176,80,69230,6,0,P|224:128|352:104,1,180,6|2,0:0|0:0,0:0:0:0:
72,136,69699,2,0,L|56:248,1,90,8|2,0:0|0:0,0:0:0:0:
328,200,70012,2,0,L|352:312,1,90,8|2,0:0|0:0,0:0:0:0:
59,225,70324,1,8,0:0:0:0:
336,264,70480,6,0,P|384:264|320:224,1,180,6|2,0:0|0:0,0:0:0:0:
72,248,70949,2,0,L|192:248,1,90,8|2,0:0|0:0,0:0:0:0:
440,216,71262,2,0,L|320:216,1,90,8|2,0:0|0:0,0:0:0:0:
64,208,71574,1,8,0:0:0:0:
376,184,71730,6,0,P|352:136|224:144,1,180,6|2,0:0|0:0,0:0:0:0:
488,144,72199,2,0,L|496:96,2,45,8|8|2,0:0|0:0|0:0,0:0:0:0:
224,200,72512,1,8,3:0:0:0:
176,176,72590,1,0,3:0:0:0:
176,120,72668,1,0,3:0:0:0:
224,104,72746,1,0,3:0:0:0:
424,96,72824,1,8,0:0:0:0:
168,80,72980,6,0,L|48:88,1,90,2|0,0:0|0:0,0:0:0:0:
344,96,73293,2,0,L|448:104,1,90,2|0,0:0|0:0,0:0:0:0:
152,120,73605,2,0,L|272:128,1,90,2|0,0:0|0:0,0:0:0:0:
488,136,73918,2,0,P|432:176|360:168,1,135,8|0,0:0|0:0,0:0:0:0:
128,144,74230,6,0,P|72:168|144:232,1,180,4|2,0:0|0:0,0:0:0:0:
232,224,74699,2,0,L|328:216,1,90,2|0,0:0|0:0,0:0:0:0:
64,184,75012,2,0,L|192:168,1,90,8|0,0:0|0:0,0:0:0:0:
56,208,75324,1,2,0:0:0:0:
312,216,75480,6,0,L|496:208,1,180,4|2,0:1|0:0,0:0:0:0:
392,160,75949,2,0,L|496:160,1,90,2|2,0:0|0:0,0:0:0:0:
224,128,76262,2,0,L|112:136,1,90,8|2,0:0|0:0,0:0:0:0:
392,120,76574,1,8,0:0:0:0:
168,152,76730,6,0,P|112:160|176:216,1,180,4|2,0:1|0:0,0:0:0:0:
272,200,77199,2,0,L|384:192,1,90,2|0,0:0|0:0,0:0:0:0:
104,184,77512,2,0,L|208:176,1,90,8|2,0:0|0:0,0:0:0:0:
48,128,77824,1,8,0:0:0:0:
384,120,77980,6,0,L|488:128,1,90,2|0,0:0|0:0,0:0:0:0:
184,112,78293,2,0,L|88:104,1,90,2|0,0:0|0:0,0:0:0:0:
360,136,78605,2,0,L|256:120,1,90,2|0,0:0|0:0,0:0:0:0:
216,112,78840,1,0,0:0:0:0:
32,136,78918,2,0,P|64:192|144:184,1,135,8|0,0:0|0:0,0:0:0:0:
384,160,79230,6,0,B|488:160|488:160|392:160,1,180,4|0,0:0|0:0,0:0:0:0:
112,168,79699,2,0,L|232:168,1,90,8|0,0:0|0:0,0:0:0:0:
360,168,80012,2,0,L|344:56,1,90,2|2,0:0|0:0,0:0:0:0:
96,80,80324,1,8,0:0:0:0:
352,128,80480,6,0,P|304:176|192:160,1,180,0|2,0:0|0:0,0:0:0:0:
456,160,80949,1,8,0:0:0:0:
352,168,81105,2,0,L|448:160,1,90,0|2,0:0|0:0,0:0:0:0:
288,144,81418,1,2,0:0:0:0:
32,144,81574,1,8,0:0:0:0:
296,168,81730,6,0,P|288:120|168:104,1,180,4|2,0:0|0:0,0:0:0:0:
80,152,82199,2,0,L|184:160,1,90,2|0,0:0|0:0,0:0:0:0:
424,192,82512,2,0,L|296:208,1,90,8|0,0:0|0:0,0:0:0:0:
440,184,82824,1,0,0:0:0:0:
184,224,82980,6,0,P|128:216|192:168,1,180,4|2,0:1|0:0,0:0:0:0:
464,208,83449,2,0,L|352:216,1,90,8|2,0:0|0:0,0:0:0:0:
320,208,83683,1,0,0:0:0:0:
120,176,83762,2,0,L|224:168,1,90,8|8,0:0|0:0,0:0:0:0:
448,136,84074,1,8,0:0:0:0:
176,128,84230,6,0,P|112:112|176:64,1,180,4|0,0:0|0:0,0:0:0:0:
336,80,84699,2,0,L|440:80,1,90,2|0,0:0|0:0,0:0:0:0:
472,176,85012,1,0,0:0:0:0:
304,200,85168,2,0,L|208:200,1,90,2|0,0:0|0:0,0:0:0:0:
496,184,85480,6,0,P|488:128|360:112,1,180,2|0,0:0|0:0,0:0:0:0:
216,168,85949,2,0,L|320:176,1,90,2|0,0:0|0:0,0:0:0:0:
416,192,86262,2,0,L|432:96,1,90,2|0,0:0|0:0,0:0:0:0:
144,120,86574,1,8,0:0:0:0:
424,120,86730,6,0,P|472:112|408:80,1,180,4|0,0:0|0:0,0:0:0:0:
240,128,87199,2,0,L|128:120,1,90,2|0,0:0|0:0,0:0:0:0:
256,120,87512,1,2,0:0:0:0:
408,144,87668,2,0,L|424:240,1,90,0|2,0:0|0:0,0:0:0:0:
112,256,87980,6,0,L|96:152,1,90,0|2,0:0|0:0,0:0:0:0:
208,144,88293,1,0,0:0:0:0:
104,160,88449,1,2,0:0:0:0:
272,176,88605,2,0,L|160:176,1,90,0|2,0:0|0:0,0:0:0:0:
304,168,88918,1,0,0:0:0:0:
40,168,89074,1,8,0:0:0:0:
368,144,89230,1,12,0:0:0:0:
