osu file format v14

[General]
AudioFilename: audio.mp3
AudioLeadIn: 0
PreviewTime: 53354
Countdown: 0
SampleSet: Soft
StackLeniency: 0.7
Mode: 0
LetterboxInBreaks: 0
WidescreenStoryboard: 1

[Editor]
DistanceSpacing: 1
BeatDivisor: 4
GridSize: 4
TimelineZoom: 1

[Metadata]
Title:Blow out
TitleUnicode:Blow out
Artist:Suzuki Konomi
ArtistUnicode:鈴木このみ
Creator:Rizia
Version:Extra
Source:ロクでなし魔術講師と禁忌教典
Tags:akashic records of bastard magic instructor rokudenashi majutsu koushi to kinki kyouten tv size anime opening kawaiwkyik chloe yogurtt vinxis karen rlc anxient xxdeathx nold_1702 nold 1702
BeatmapID:1310150
BeatmapSetID:601417

[Difficulty]
HPDrainRate:6
CircleSize:4
OverallDifficulty:8
ApproachRate:9.3
SliderMultiplier:1.92
SliderTickRate:1

[Events]
//Background and Video events
Video,0,"rokudenashi opening.avi"
0,0,"extra.jpg",0,0
//Break Periods
//Storyboard Layer 0 (Background)
//Storyboard Layer 1 (Fail)
//Storyboard Layer 2 (Pass)
//Storyboard Layer 3 (Foreground)
//Storyboard Sound Samples

[TimingPoints]
-630,312.5,4,1,1,70,1,0
463,-100,4,2,1,10,0,0
5385,-100,4,2,1,5,0,0
5463,-100,4,2,0,20,0,0
5541,-100,4,2,1,10,0,0
7807,-100,4,2,1,60,0,0
9213,-66.6666666666667,4,1,1,70,0,0
9448,-66.6666666666667,4,2,1,5,0,0
9526,-66.6666666666667,4,1,1,70,0,0
9760,-66.6666666666667,4,2,1,5,0,0
9838,-66.6666666666667,4,1,1,70,0,0
10073,-66.6666666666667,4,2,1,5,0,0
10151,-133.333333333333,4,1,1,70,0,0
10385,-133.333333333333,4,2,1,5,0,0
10463,-66.6666666666667,4,1,1,70,0,0
10776,-100,4,2,1,70,0,0
15463,-100,4,2,1,70,0,0
17963,-100,4,2,2,70,0,0
18041,-100,4,2,1,70,0,0
20932,-133.333333333333,4,2,1,70,0,0
22963,-133.333333333333,4,2,2,70,0,0
23041,-133.333333333333,4,2,1,70,0,0
25463,-100,4,2,2,70,0,0
25541,-100,4,2,1,70,0,0
25932,-133.333333333333,4,2,1,70,0,0
28120,-133.333333333333,4,2,2,70,0,0
28198,-133.333333333333,4,2,1,70,0,0
30620,-100,4,2,2,70,0,0
30698,-100,4,2,1,70,0,0
32182,-133.333333333333,4,2,1,70,0,0
32573,-133.333333333333,4,2,1,5,0,0
32651,-66.6666666666667,4,2,1,70,0,0
32963,-83.3333333333333,4,2,1,70,0,0
33432,-111.111111111111,4,2,1,70,0,0
35620,-111.111111111111,4,2,2,70,0,0
35698,-111.111111111111,4,2,1,70,0,0
38120,-111.111111111111,4,2,2,70,0,0
38198,-111.111111111111,4,2,1,70,0,0
40620,-111.111111111111,4,2,2,70,0,0
40698,-111.111111111111,4,2,1,70,0,0
41713,-111.111111111111,4,2,2,70,0,0
41791,-111.111111111111,4,2,1,70,0,0
42963,-111.111111111111,4,2,2,70,0,0
43041,-111.111111111111,4,2,1,70,0,0
44213,-133.333333333333,4,2,1,70,0,0
46713,-133.333333333333,4,2,2,70,0,0
46791,-133.333333333333,4,2,1,70,0,0
49213,-133.333333333333,4,2,2,70,0,0
49291,-133.333333333333,4,2,1,70,0,0
49526,-100,4,2,1,70,0,0
53432,-133.333333333333,4,2,1,50,0,0
53823,-133.333333333333,4,2,1,5,0,0
53901,-66.6666666666667,4,1,2,70,0,0
54135,-66.6666666666667,4,2,0,5,0,0
54213,-83.3333333333333,4,2,1,80,0,1
64213,-166.666666666667,4,2,1,80,0,0
64682,-71.4285714285714,4,2,1,80,0,1
64916,-71.4285714285714,4,2,1,5,0,1
64995,-83.3333333333333,4,2,1,80,0,1
72963,-66.6666666666667,4,2,1,80,0,1
73198,-66.6666666666667,4,2,1,5,0,1
73276,-66.6666666666667,4,2,1,80,0,1
73510,-66.6666666666667,4,2,1,5,0,1
73588,-66.6666666666667,4,2,1,80,0,1
73823,-66.6666666666667,4,2,1,5,0,1
73901,-133.333333333333,4,1,1,80,0,1
74135,-133.333333333333,4,2,1,5,0,1
74213,-133.333333333333,4,1,1,80,0,1
74370,-100,4,2,1,80,0,0
79213,-100,4,2,1,80,0,0
84526,-133.333333333333,4,2,1,80,0,0

[Colours]
Combo1 : 0,128,255
Combo2 : 255,0,0
Combo3 : 170,170,191
Combo4 : 255,247,91

[HitObjects]
60,140,463,6,0,P|88:116|248:124,1,192
296,164,932,1,0,0:0:0:0:
384,176,1088,1,0,0:0:0:0:
456,128,1245,1,0,0:0:0:0:
344,76,1401,1,2,0:0:0:0:
384,176,1557,1,0,0:0:0:0:
364,248,1713,1,2,0:0:0:0:
292,272,1870,5,0,0:0:0:0:
428,292,2026,1,2,0:0:0:0:
280,292,2182,1,0,0:0:0:0:
416,312,2338,1,2,0:0:0:0:
340,360,2495,1,0,0:0:0:0:
328,184,2651,6,0,L|340:364,1,144,2|0,0:0|0:0,0:0:0:0:
340,360,2963,6,0,P|312:336|152:344,1,192
84,364,3432,1,0,0:0:0:0:
48,284,3588,1,2,0:0:0:0:
64,188,3745,1,0,0:0:0:0:
136,124,3901,1,2,0:0:0:0:
168,236,4057,1,0,0:0:0:0:
272,184,4213,1,2,0:0:0:0:
304,296,4369,5,0,0:0:0:0:
480,248,4526,1,2,0:0:0:0:
320,316,4682,1,0,0:0:0:0:
478,272,4839,1,2,0:0:0:0:
404,216,4995,1,0,0:0:0:0:
384,384,5151,6,0,P|368:320|404:224,1,144,2|0,0:0|0:0,0:0:0:0:
404,216,5463,1,4,0:1:0:0:
256,192,5541,12,0,7651,0:0:0:0:
256,192,7807,5,8,0:0:0:0:
256,192,7963,1,4,0:0:0:0:
94,338,9213,6,0,B|44:242|44:242|108:135,1,216.000008239746,2|0,0:3|0:0,0:0:0:0:
156,51,9526,2,0,B|256:88|256:88|372:43,1,216.000008239746,2|0,0:3|0:0,0:0:0:0:
412,149,9838,2,0,B|468:242|468:242|418:338,1,216.000008239746,2|0,0:3|0:0,0:0:0:0:
308,352,10151,6,0,B|256:336|256:336|204:352,1,108.000004119873,8|0,0:3|0:0,0:0:0:0:
176,360,10463,5,4,0:0:0:0:
80,164,10776,5,0,0:0:0:0:
80,164,10932,2,0,L|68:56,1,96
276,168,11245,1,8,0:0:0:0:
224,264,11401,2,0,L|213:359,1,96
368,96,11713,6,0,B|384:168|384:168|376:208|376:208|400:312,1,192,4|0,0:0|0:0,0:0:0:0:
276,168,12182,2,0,L|164:152,1,96,8|0,0:0|0:0,0:0:0:0:
300,264,12495,1,8,0:0:0:0:
300,264,12651,2,0,P|301:311|283:355,1,96,0|8,0:0|0:0,0:0:0:0:
116,280,12963,6,0,P|104:236|208:132,1,192,4|0,0:0|0:0,0:0:0:0:
304,24,13432,1,0,0:0:0:0:
316,120,13588,1,0,0:0:0:0:
412,108,13745,1,8,0:0:0:0:
304,24,13901,1,0,0:0:0:0:
220,136,14057,1,8,0:0:0:0:
332,216,14213,5,0,0:0:0:0:
112,352,14526,1,0,0:0:0:0:
156,64,14838,1,0,0:0:0:0:
368,240,15151,1,12,0:0:0:0:
40,264,15463,6,0,B|16:220|36:164|36:164|72:200|136:192,1,192,4|0,1:0|0:0,0:0:0:0:
280,136,15932,2,0,P|292:204|252:260,1,96,8|0,0:0|0:0,0:0:0:0:
104,104,16245,1,4,0:0:0:0:
208,184,16401,1,0,0:0:0:0:
240,32,16557,1,8,0:0:0:0:
88,148,16713,1,0,0:0:0:0:
44,28,16870,5,4,0:0:0:0:
184,140,17026,1,2,0:0:0:0:
36,256,17182,2,0,B|28:304|28:304|47:347,1,96,8|2,0:0|0:0,0:0:0:0:
216,272,17495,2,0,P|256:256|316:264,1,96,4|2,0:0|0:0,0:0:0:0:
432,328,17807,1,8,0:0:0:0:
416,108,17963,6,0,B|376:144|368:188|368:188|324:156|264:176,1,192,4|0,0:0|0:0,0:0:0:0:
240,188,18354,1,0,0:0:0:0:
240,188,18432,2,0,L|232:88,1,96,8|0,0:0|0:0,0:0:0:0:
116,344,18745,5,8,0:0:0:0:
140,196,18901,1,0,0:0:0:0:
400,284,19057,1,8,0:0:0:0:
372,120,19213,1,0,0:0:0:0:
200,316,19370,5,8,0:0:0:0:
200,316,19448,1,8,0:0:0:0:
200,316,19526,1,0,0:0:0:0:
384,248,19682,1,8,0:0:0:0:
132,176,19838,1,0,0:0:0:0:
340,324,19995,5,8,0:0:0:0:
156,212,20151,1,8,0:0:0:0:
396,152,20307,1,8,0:0:0:0:
212,0,20463,1,4,1:0:0:0:
196,24,20932,6,0,L|212:168,1,144.000005493164,2|0,0:0|0:0,0:0:0:0:
384,128,21401,2,0,L|368:272,1,144.000005493164,2|0,0:0|0:0,0:0:0:0:
368,271,21870,1,0,0:0:0:0:
216,188,22026,5,2,0:0:0:0:
236,300,22182,1,0,0:0:0:0:
120,248,22338,1,0,0:0:0:0:
100,244,22416,1,0,0:0:0:0:
80,240,22495,1,8,0:0:0:0:
240,176,22651,1,8,0:0:0:0:
96,328,22807,1,8,0:0:0:0:
40,132,22963,5,4,0:0:0:0:
288,260,23276,1,0,0:0:0:0:
360,188,23432,2,0,B|368:152|368:152|348:116,1,72.0000027465821,4|0,0:0|0:0,0:0:0:0:
180,56,23745,1,4,0:0:0:0:
240,176,23901,1,0,0:0:0:0:
240,176,23979,1,0,0:0:0:0:
240,176,24057,2,0,L|148:168,1,72.0000027465821,4|0,0:0|0:0,0:0:0:0:
60,328,24370,5,4,0:0:0:0:
196,256,24526,2,0,L|128:272,1,36.0000013732911
56,204,24682,1,4,0:0:0:0:
156,352,24838,6,0,P|200:360|272:328,1,108.000004119873,8|0,0:0|0:0,0:0:0:0:
316,280,25151,2,0,L|408:292,1,72.0000027465821,0|4,0:0|0:0,0:0:0:0:
512,264,25463,6,0,P|464:244|356:324,1,192,4|0,0:0|0:0,0:0:0:0:
280,192,25932,2,0,L|288:100,1,72.0000027465821,4|0,0:0|0:0,0:0:0:0:
286,120,26166,1,0,0:0:0:0:
286,120,26245,1,0,0:0:0:0:
152,248,26401,2,0,L|144:156,1,72.0000027465821,4|0,0:0|0:0,0:0:0:0:
80,80,26713,5,8,0:0:0:0:
60,248,26870,1,0,0:0:0:0:
244,216,27026,1,0,0:0:0:0:
244,216,27104,1,0,0:0:0:0:
244,216,27182,2,0,L|237:287,1,72.0000027465821,12|0,0:0|0:0,0:0:0:0:
392,364,27495,1,4,0:0:0:0:
404,344,27573,1,0,0:0:0:0:
412,324,27651,1,0,0:0:0:0:
416,304,27729,1,0,0:0:0:0:
416,284,27807,2,0,P|408:252|376:212,1,72.0000027465821,8|0,0:0|0:0,0:0:0:0:
260,128,28120,5,4,0:0:0:0:
260,128,28432,1,4,0:0:0:0:
288,212,28588,1,0,0:0:0:0:
312,64,28745,1,4,0:0:0:0:
176,120,28901,1,0,0:0:0:0:
176,120,28979,1,0,0:0:0:0:
176,120,29057,2,0,L|88:108,1,72.0000027465821,4|0,0:0|0:0,0:0:0:0:
52,268,29370,5,4,0:0:0:0:
52,268,29526,2,0,L|92:260,1,36.0000013732911
188,216,29682,1,4,0:0:0:0:
188,216,29838,2,0,L|180:256,1,36.0000013732911
212,356,29995,1,4,0:0:0:0:
212,356,30151,2,0,L|268:336,1,36.0000013732911
368,340,30307,2,0,L|378:281,1,36.0000013732911,4|0,0:0|0:0,0:0:0:0:
328,176,30463,1,8,0:0:0:0:
180,251,30620,6,0,P|130:254|72:223,1,96,4|8,0:0|1:0,0:0:0:0:
56,200,30854,1,8,0:0:0:0:
52,152,30932,1,8,0:0:0:0:
76,112,31010,1,8,0:0:0:0:
120,92,31088,1,8,0:0:0:0:
168,96,31166,1,8,0:0:0:0:
208,124,31245,1,8,0:0:0:0:
240,160,31323,1,8,0:0:0:0:
288,172,31401,1,8,0:0:0:0:
336,160,31479,1,8,0:0:0:0:
368,124,31557,1,8,0:0:0:0:
376,76,31635,1,8,0:0:0:0:
352,36,31713,1,2,0:0:0:0:
352,36,32026,6,0,L|344:100,1,48
336,160,32182,2,0,B|312:52|312:52|280:136,1,180.000006866455,4|0,0:0|0:0,0:0:0:0:
284,256,32651,5,0,0:0:0:0:
284,256,32729,1,0,0:0:0:0:
284,256,32807,2,0,L|384:244,1,72.0000027465821,8|0,0:0|0:0,0:0:0:0:
480,288,32963,6,0,P|424:260|316:364,1,230.39999296875,4|0,1:0|0:0,0:0:0:0:
80,316,33432,2,0,L|204:304,1,86.3999973632813,8|0,0:0|0:0,0:0:0:0:
264,232,33745,1,4,0:0:0:0:
176,176,33901,1,0,0:0:0:0:
236,352,34057,1,8,0:0:0:0:
380,272,34213,1,0,0:0:0:0:
248,224,34370,5,4,0:0:0:0:
424,184,34526,1,0,0:0:0:0:
288,136,34682,1,8,0:0:0:0:
376,28,34838,1,0,0:0:0:0:
344,212,34995,1,4,0:0:0:0:
196,152,35151,2,0,L|96:144,1,86.3999973632813,0|8,0:0|0:0,0:0:0:0:
252,344,35463,5,0,0:0:0:0:
252,344,35541,1,0,0:0:0:0:
252,344,35620,2,0,L|276:164,1,172.799994726563,4|8,0:0|0:0,0:0:0:0:
144,48,36088,1,0,0:0:0:0:
80,176,36245,2,0,P|112:160|184:168,1,86.3999973632813,4|0,0:0|0:0,0:0:0:0:
296,256,36557,1,8,0:0:0:0:
408,204,36713,1,0,0:0:0:0:
328,76,36870,6,0,B|304:112|304:112|316:180,1,86.3999973632813,4|0,0:0|0:0,0:0:0:0:
376,328,37182,2,0,P|320:288|228:304,1,129.599996044922,8|0,0:0|0:0,0:0:0:0:
184,328,37495,2,0,L|192:392,1,43.1999986816407,4|0,0:0|0:0,0:0:0:0:
96,324,37651,2,0,L|101:281,1,43.1999986816407
48,212,37807,1,8,0:0:0:0:
160,72,37963,5,8,0:0:0:0:
160,72,38041,1,8,0:0:0:0:
160,72,38120,2,0,L|172:160,1,86.3999973632813,4|0,0:0|0:0,0:0:0:0:
332,316,38432,1,8,0:0:0:0:
356,200,38588,1,0,0:0:0:0:
204,276,38745,1,4,0:0:0:0:
172,108,38901,1,0,0:0:0:0:
280,240,39057,1,8,0:0:0:0:
120,344,39213,6,0,P|72:344|32:336,2,86.3999973632813,0|4|0,0:0|0:0|0:0,0:0:0:0:
220,300,39682,1,8,0:0:0:0:
68,224,39838,1,0,0:0:0:0:
252,136,39995,1,4,0:0:0:0:
148,240,40151,5,0,0:0:0:0:
140,136,40307,1,8,0:0:0:0:
140,40,40463,1,0,0:0:0:0:
140,40,40541,1,0,0:0:0:0:
140,40,40620,5,4,0:0:0:0:
392,124,40776,1,0,0:0:0:0:
148,240,40932,1,8,0:0:0:0:
252,136,41088,1,0,0:0:0:0:
300,272,41245,1,4,0:0:0:0:
272,112,41401,1,0,0:0:0:0:
212,320,41557,1,8,0:0:0:0:
416,264,41713,5,4,0:0:0:0:
416,264,42026,1,0,0:0:0:0:
172,148,42182,2,0,L|188:256,1,86.3999973632813,8|0,0:0|0:0,0:0:0:0:
380,76,42495,5,8,0:0:0:0:
328,248,42651,1,0,0:0:0:0:
148,136,42807,1,8,0:0:0:0:
420,216,42963,6,0,L|392:32,1,172.799994726563,4|0,0:0|0:0,0:0:0:0:
224,224,43432,2,0,L|216:300,1,43.1999986816407,8|0,0:0|0:0,0:0:0:0:
208,352,43588,1,0,0:0:0:0:
44,140,43745,5,0,0:0:0:0:
48,176,43823,1,0,0:0:0:0:
52,212,43901,1,0,0:0:0:0:
56,248,43979,1,0,0:0:0:0:
60,284,44057,1,8,0:0:0:0:
380,184,44213,6,0,L|220:172,1,144.000005493164,4|4,1:0|0:0,0:0:0:0:
236,173,44682,1,0,0:0:0:0:
460,100,44995,1,8,0:0:0:0:
328,352,45307,5,4,0:0:0:0:
256,300,45463,2,0,P|216:300|172:332,1,72.0000027465821
72,324,45776,1,4,0:0:0:0:
120,212,45932,1,0,0:0:0:0:
124,224,46245,5,8,0:0:0:0:
196,372,46401,1,0,0:0:0:0:
360,348,46557,1,0,0:0:0:0:
380,184,46713,1,4,0:0:0:0:
380,184,47026,5,0,0:0:0:0:
260,320,47182,2,0,L|284:156,1,144.000005493164,2|8,0:0|0:0,0:0:0:0:
152,48,47807,5,4,0:0:0:0:
152,48,47963,1,0,0:0:0:0:
80,120,48120,1,0,0:0:0:0:
192,180,48276,1,4,0:0:0:0:
52,232,48432,1,0,0:0:0:0:
52,232,48745,5,12,0:0:0:0:
324,152,48901,1,0,0:0:0:0:
272,356,49057,1,8,0:0:0:0:
120,136,49213,1,4,0:0:0:0:
120,136,49526,5,0,0:0:0:0:
120,136,49604,1,0,0:0:0:0:
120,135,49682,2,0,P|116:88|115:40,1,96,8|0,0:0|0:0,0:0:0:0:
392,156,49995,2,0,P|391:203|387:251,1,96,8|0,0:0|0:0,0:0:0:0:
96,328,50307,2,0,P|83:281|74:234,1,96,8|0,0:0|0:0,0:0:0:0:
308,80,50620,5,8,0:0:0:0:
304,104,50698,1,8,0:0:0:0:
300,128,50776,2,0,L|288:192,1,48
168,252,50932,5,8,0:0:0:0:
172,276,51010,1,8,0:0:0:0:
176,300,51088,2,0,L|188:364,1,48
420,304,51245,5,8,0:0:0:0:
384,296,51323,1,8,0:0:0:0:
348,288,51401,1,0,0:0:0:0:
80,244,51557,1,8,0:0:0:0:
376,76,51713,5,4,1:0:0:0:
376,76,52026,5,8,0:0:0:0:
264,260,52182,1,8,0:0:0:0:
188,128,52338,1,8,0:0:0:0:
372,208,52495,1,8,0:0:0:0:
128,312,52651,1,8,0:0:0:0:
376,312,52807,1,8,0:0:0:0:
116,156,52963,1,8,0:0:0:0:
416,48,53120,5,2,0:0:0:0:
68,192,53901,6,0,B|116:168|124:104|124:104|156:164|212:168,1,216.000008239746,4|0,0:0|0:0,0:0:0:0:
216,64,54213,6,0,B|212:116|232:148|232:148|216:208|216:208|240:244|236:312,1,230.39999296875,4|0,1:0|0:0,0:0:0:0:
320,380,54682,1,12,0:0:0:0:
92,280,54838,2,0,P|132:268|180:272,1,57.5999982421876
332,284,54995,1,4,0:0:0:0:
136,360,55151,1,0,0:0:0:0:
88,144,55307,1,12,0:0:0:0:
236,285,55463,2,0,P|248:245|244:197,1,57.5999982421876
320,152,55620,6,0,P|344:216|332:284,1,115.199996484375,4|0,0:0|0:0,0:0:0:0:
448,48,55932,2,0,P|440:112|432:180,1,115.199996484375,12|0,0:0|0:0,0:0:0:0:
224,52,56245,2,0,P|281:45|338:38,1,115.199996484375,4|0,0:0|0:0,0:0:0:0:
200,200,56557,2,0,P|152:212|120:196,1,57.5999982421876,12|0,0:0|0:0,0:0:0:0:
68,128,56713,2,0,P|81:80|111:60,1,57.5999982421876
156,128,56870,6,0,L|128:328,1,172.799994726563,4|0,1:0|0:0,0:0:0:0:
128,332,57182,1,12,0:0:0:0:
228,236,57338,1,0,0:0:0:0:
332,376,57495,2,0,L|320:312,1,57.5999982421876,4|0,0:0|0:0,0:0:0:0:
356,200,57651,1,0,0:0:0:0:
196,316,57807,1,12,0:0:0:0:
124,124,57963,1,0,0:0:0:0:
124,124,58041,1,0,0:0:0:0:
124,124,58120,5,4,1:0:0:0:
348,216,58276,1,0,0:0:0:0:
108,280,58432,1,12,0:0:0:0:
324,140,58588,1,0,0:0:0:0:
104,32,58745,5,4,0:0:0:0:
128,260,58901,1,0,0:0:0:0:
376,200,59057,1,12,0:0:0:0:
372,224,59135,1,8,0:0:0:0:
368,248,59213,1,8,0:0:0:0:
364,272,59291,1,8,0:0:0:0:
368,308,59370,6,0,B|312:296|312:296|256:320,1,115.199996484375,4|2,1:0|0:0,0:0:0:0:
64,104,59682,1,12,0:0:0:0:
203,211,59838,1,2,0:0:0:0:
80,227,59995,1,4,0:0:0:0:
187,87,60151,1,2,0:0:0:0:
284,372,60307,1,12,0:0:0:0:
203,211,60463,1,2,0:0:0:0:
164,332,60620,5,4,0:0:0:0:
325,251,60776,2,0,B|380:240|380:240|448:260,1,115.199996484375,2|12,0:0|0:0,0:0:0:0:
328,0,61088,2,0,P|344:28|340:84,1,57.5999982421876,2|0,0:0|0:0,0:0:0:0:
312,144,61245,2,0,L|192:136,1,115.199996484375,4|2,0:0|0:0,0:0:0:0:
88,72,61557,1,12,0:0:0:0:
60,344,61713,6,0,P|108:276|260:300,1,230.39999296875,4|0,1:0|0:0,0:0:0:0:
432,224,62182,2,0,L|452:352,1,115.199996484375,8|0,0:0|0:0,0:0:0:0:
156,160,62495,1,8,0:0:0:0:
152,196,62573,1,0,0:0:0:0:
148,232,62651,1,0,0:0:0:0:
368,76,62807,1,8,0:0:0:0:
372,112,62885,1,8,0:3:0:0:
376,148,62963,1,8,0:3:0:0:
240,24,63120,5,8,0:0:0:0:
272,360,63276,1,2,0:0:0:0:
240,24,63432,1,8,0:0:0:0:
272,360,63588,6,0,B|260:304|260:304|288:204,1,115.199996484375,6|0,0:0|0:0,0:0:0:0:
280,140,63901,2,0,B|334:157|334:157|407:231,1,115.199996484375,6|0,0:0|0:0,0:0:0:0:
468,256,64213,6,0,B|425:294|425:294|324:320,1,115.199996484375,4|0,0:0|0:0,0:0:0:0:
48,348,64682,6,0,B|88:212|88:212|140:296,1,201.599993847656,4|0,1:0|0:0,0:0:0:0:
162,332,64995,2,0,L|48:348,1,115.199996484375,4|2,0:0|0:0,0:0:0:0:
176,88,65307,2,0,L|290:103,1,115.199996484375,12|2,0:0|0:0,0:0:0:0:
368,116,65541,1,0,0:0:0:0:
368,116,65620,5,4,0:0:0:0:
276,352,65776,1,2,0:0:0:0:
216,216,65932,1,12,0:0:0:0:
436,296,66088,1,2,0:0:0:0:
344,40,66245,5,4,0:0:0:0:
328,272,66401,1,2,0:0:0:0:
48,220,66557,1,12,0:0:0:0:
288,128,66713,2,0,L|304:212,1,57.5999982421876,2|0,0:0|0:0,0:0:0:0:
212,360,66870,6,0,L|228:232,1,115.199996484375,4|2,1:0|0:0,0:0:0:0:
116,60,67182,2,0,L|130:174,1,115.199996484375,12|2,0:0|0:0,0:0:0:0:
356,292,67495,1,4,0:0:0:0:
108,328,67651,1,2,0:0:0:0:
372,300,67807,1,12,0:0:0:0:
156,144,67963,1,2,0:0:0:0:
252,380,68120,6,0,P|260:332|248:248,1,115.199996484375,4|2,0:0|0:0,0:0:0:0:
192,152,68432,1,12,1:0:0:0:
40,308,68588,1,0,0:0:0:0:
40,308,68666,1,0,0:0:0:0:
40,308,68745,2,0,B|96:292|96:292|160:324,1,115.199996484375,4|0,0:0|0:0,0:0:0:0:
364,360,69057,2,0,L|376:292,1,57.5999982421876,8|8,0:0|0:0,0:0:0:0:
436,240,69213,6,0,P|412:184|248:208,1,230.39999296875,4|0,1:0|0:0,0:0:0:0:
52,328,69682,1,12,0:0:0:0:
152,156,69838,2,0,P|161:187|168:232,1,57.5999982421876
164,328,69995,1,12,0:0:0:0:
76,200,70151,1,0,0:0:0:0:
272,284,70307,1,12,0:0:0:0:
328,36,70463,5,4,1:0:0:0:
332,48,70776,1,0,0:0:0:0:
104,24,70932,1,12,0:0:0:0:
176,172,71088,1,0,0:0:0:0:
416,120,71245,1,12,0:0:0:0:
168,80,71401,1,0,0:0:0:0:
256,308,71557,1,12,0:0:0:0:
432,112,71713,5,4,1:0:0:0:
68,92,72026,1,0,0:0:0:0:
249,250,72182,2,0,L|256:308,1,57.5999982421876,8|0,0:0|0:0,0:0:0:0:
152,368,72338,1,0,0:0:0:0:
64,140,72495,2,0,L|56:208,1,57.5999982421876,4|4,0:0|0:0,0:0:0:0:
160,280,72651,1,0,0:0:0:0:
276,104,72807,1,8,0:0:0:0:
472,216,72963,6,0,P|448:288|312:268,1,216.000008239746,2|0,0:3|0:0,0:0:0:0:
412,364,73276,6,0,P|344:308|204:320,1,216.000008239746,2|0,0:3|0:0,0:0:0:0:
152,368,73588,6,0,P|208:300|196:160,1,216.000008239746,2|0,0:3|0:0,0:0:0:0:
136,108,73901,5,0,0:0:0:0:
148,12,74213,1,4,0:0:0:0:
324,336,74526,5,0,0:0:0:0:
324,336,74682,2,0,L|432:324,1,96
348,152,74995,1,8,0:0:0:0:
248,208,75151,2,0,L|140:196,1,96
24,100,75463,6,0,P|44:60|180:72,1,192,4|0,0:0|0:0,0:0:0:0:
232,188,75932,2,0,P|228:237|220:292,1,96,8|0,0:0|0:0,0:0:0:0:
96,368,76245,2,0,P|89:320|85:272,1,96,8|0,0:0|0:0,0:0:0:0:
152,112,76557,2,0,B|140:160|140:160|144:216,1,96,8|4,0:0|0:0,0:0:0:0:
436,360,77026,6,0,B|448:312|448:312|444:256,1,96,0|8,0:0|0:0,0:0:0:0:
384,172,77338,1,0,0:0:0:0:
272,296,77495,2,0,L|388:308,1,96,8|0,0:0|0:0,0:0:0:0:
456,152,77807,2,0,L|340:164,1,96,8|0,0:0|0:0,0:0:0:0:
60,88,78276,5,0,0:0:0:0:
160,316,78588,1,0,0:0:0:0:
284,24,78901,1,12,0:0:0:0:
432,260,79213,6,0,B|460:196|460:196|412:76,1,192,4|0,1:0|0:0,0:0:0:0:
248,184,79682,2,0,L|356:192,1,96,8|0,0:0|0:0,0:0:0:0:
152,320,79995,2,0,P|100:292|28:300,1,96,4|0,0:0|0:0,0:0:0:0:
112,88,80307,2,0,P|140:140|132:212,1,96,8|0,0:0|0:0,0:0:0:0:
252,360,80620,5,4,0:0:0:0:
340,272,80776,1,2,0:0:0:0:
228,240,80932,1,8,0:0:0:0:
352,364,81088,1,2,0:0:0:0:
352,364,81166,1,0,0:0:0:0:
352,364,81245,2,0,P|360:312|368:264,1,96,4|0,0:0|0:0,0:0:0:0:
328,76,81557,1,8,0:0:0:0:
448,192,81713,6,0,B|380:176|380:176|328:184|328:184|240:164,1,192,4|0,0:0|0:0,0:0:0:0:
112,198,82182,2,0,L|96:104,1,96,0|2,0:0|0:0,0:0:0:0:
80,292,82495,2,0,L|174:275,1,96,8|0,0:0|0:0,0:0:0:0:
272,256,82807,1,0,0:0:0:0:
308,156,82963,1,2,0:0:0:0:
204,176,83120,5,4,0:0:0:0:
236,352,83276,2,0,P|284:356|344:328,1,96,0|8,0:0|0:0,0:0:0:0:
400,184,83588,1,0,0:0:0:0:
272,256,83745,1,8,0:0:0:0:
464,316,83901,1,8,0:0:0:0:
248,248,84057,1,8,0:0:0:0:
444,120,84213,5,4,1:0:0:0:
444,120,84526,1,0,0:0:0:0:
356,64,84682,2,0,B|300:48|300:48|192:84,1,144.000005493164,2|0,0:0|0:0,0:0:0:0:
172,172,85151,2,0,L|16:160,1,144.000005493164,2|0,0:0|0:0,0:0:0:0:
168,364,85620,6,0,L|192:288,1,72.0000027465821,0|2,0:0|0:0,0:0:0:0:
308,208,85932,1,0,0:0:0:0:
324,304,86088,1,0,0:0:0:0:
308,208,86245,1,0,0:0:0:0:
324,304,86401,1,0,0:0:0:0:
408,240,86557,2,0,P|448:232|496:240,1,72.0000027465821,8|4,0:0|1:0,0:0:0:0:
478,234,87026,5,0,0:0:0:0:
388,72,87182,2,0,L|400:152,1,72.0000027465821,2|0,0:0|0:0,0:0:0:0:
280,332,87495,2,0,L|290:260,1,72.0000027465821,2|0,0:0|0:0,0:0:0:0:
144,140,87807,2,0,L|154:211,1,72.0000027465821,2|0,0:0|0:0,0:0:0:0:
272,352,88120,5,0,0:0:0:0:
256,168,88276,1,0,0:0:0:0:
384,232,88432,1,0,0:0:0:0:
260,312,88588,1,0,0:0:0:0:
344,148,88745,5,0,0:0:0:0:
366,337,88901,1,0,0:0:0:0:
176,359,89057,1,8,0:0:0:0:
154,170,89213,1,0,0:0:0:0:
