osu file format v14

[General]
AudioFilename: audio.mp3
AudioLeadIn: 0
PreviewTime: 53431
Countdown: 0
SampleSet: Soft
StackLeniency: 0.7
Mode: 3
LetterboxInBreaks: 0
SpecialStyle: 0
WidescreenStoryboard: 1

[Editor]
Bookmarks: 72728,89370
DistanceSpacing: 1
BeatDivisor: 8
GridSize: 4
TimelineZoom: 2.1

[Metadata]
Title:Blow out
TitleUnicode:Blow out
Artist:Suzuki Konomi
ArtistUnicode:鈴木このみ
Creator:Remuring
Version:7K Normal
Source:ロクでなし魔術講師と禁忌教典
Tags:akashic records of bastard magic instructor tv size anime opening Fresh Chicken
BeatmapID:2483206
BeatmapSetID:602311

[Difficulty]
HPDrainRate:8
CircleSize:7
OverallDifficulty:8
ApproachRate:5
SliderMultiplier:1.4
SliderTickRate:1

[Events]
//Background and Video events
0,0,"bg2.jpg",0,0
//Break Periods
//Storyboard Layer 0 (Background)
//Storyboard Layer 1 (Fail)
//Storyboard Layer 2 (Pass)
//Storyboard Layer 3 (Foreground)
//Storyboard Layer 4 (Overlay)
//Storyboard Sound Samples
Sample,7807,0,"BaSSs.wav",70
Sample,19447,0,"LR_Drum Hit P.wav",70
Sample,30853,0,"BaSSs.wav",70
Sample,30931,0,"BaSSs.wav",70
Sample,31009,0,"BaSSs.wav",70
Sample,31166,0,"BaSSs.wav",70
Sample,31244,0,"BaSSs.wav",70
Sample,31322,0,"BaSSs.wav",70
Sample,31478,0,"BaSSs.wav",70
Sample,31556,0,"BaSSs.wav",70
Sample,31634,0,"BaSSs.wav",70
Sample,35463,0,"BaSSs.wav",70
Sample,37884,0,"BaSSs.wav",70
Sample,37963,0,"BaSSs.wav",70
Sample,38041,0,"BaSSs.wav",70
Sample,40463,0,"BaSSs.wav",70
Sample,43509,0,"BaSSs.wav",70
Sample,43822,0,"BaSSs.wav",70
Sample,43978,0,"BaSSs.wav",70
Sample,44681,0,"BaSSs.wav",70
Sample,45306,0,"BaSSs.wav",70
Sample,45619,0,"CrashS.wav",70
Sample,45931,0,"BaSSs.wav",70
Sample,46556,0,"CrashS.wav",70
Sample,47181,0,"CrashS.wav",70
Sample,47806,0,"CrashS.wav",70
Sample,48119,0,"CrashS.wav",70
Sample,48431,0,"CrashS.wav",70
Sample,50697,0,"BaSSs.wav",70
Sample,51009,0,"BaSSs.wav",70
Sample,51322,0,"BaSSs.wav",70
Sample,51478,0,"BaSSs.wav",70
Sample,53900,0,"BaSSs.wav",70
Sample,53900,0,"CrashS.wav",70
Sample,59134,0,"BaSSs.wav",70
Sample,59213,0,"BaSSs.wav",70
Sample,59291,0,"BaSSs.wav",70
Sample,62572,0,"BaSSs.wav",70
Sample,62884,0,"BaSSs.wav",70
Sample,63041,0,"BaSSs.wav",70
Sample,69134,0,"LR_Drum Hit P.wav",70
Sample,72259,0,"BaSSs.wav",70
Sample,72572,0,"BaSSs.wav",70
Sample,72728,0,"BaSSs.wav",70
Sample,83666,0,"BaSSs.wav",70

[TimingPoints]
463,312.5,4,2,1,40,1,0

[HitObjects]
182,192,463,128,0,775:0:0:0:0:
329,192,775,1,0,0:0:0:0:
475,192,931,1,0,0:0:0:0:
256,192,1088,1,0,0:0:0:0:
402,192,1244,1,0,0:0:0:0:
182,192,1400,1,0,0:0:0:0:
329,192,1556,1,0,0:0:0:0:
36,192,1713,1,0,0:0:0:0:
182,192,1869,1,0,0:0:0:0:
329,192,2025,1,0,0:0:0:0:
475,192,2181,1,0,0:0:0:0:
182,192,2338,1,0,0:0:0:0:
36,192,2494,1,0,0:0:0:0:
329,192,2650,128,0,2806:0:0:0:0:
256,192,2806,128,0,2963:0:0:0:0:
182,192,2963,128,0,3275:0:0:0:0:
329,192,3275,1,0,0:0:0:0:
475,192,3431,1,0,0:0:0:0:
256,192,3588,1,0,0:0:0:0:
402,192,3744,1,0,0:0:0:0:
182,192,3900,1,0,0:0:0:0:
329,192,4056,1,0,0:0:0:0:
36,192,4213,1,0,0:0:0:0:
182,192,4369,1,0,0:0:0:0:
329,192,4525,1,0,0:0:0:0:
475,192,4681,1,0,0:0:0:0:
182,192,4838,1,0,0:0:0:0:
36,192,4994,1,0,0:0:0:0:
329,192,5150,128,0,5306:0:0:0:0:
256,192,5306,128,0,5463:0:0:0:0:
182,192,5463,128,0,5775:0:0:0:0:
329,192,5775,1,0,0:0:0:0:
475,192,5931,1,0,0:0:0:0:
256,192,6088,1,0,0:0:0:0:
402,192,6244,1,0,0:0:0:0:
182,192,6400,1,0,0:0:0:0:
329,192,6556,1,0,0:0:0:0:
36,192,6713,1,0,0:0:0:0:
109,192,7025,1,0,0:0:0:0:
182,192,7338,1,0,0:0:0:0:
329,192,7494,1,0,0:0:0:0:
109,192,7650,1,0,0:0:0:0:
256,192,7806,1,0,0:0:0:0:
402,192,7806,1,0,0:0:0:0:
182,192,7963,1,0,0:0:0:70:BaSSs.wav
36,192,7963,1,0,0:0:0:70:CrashS.wav
475,192,7963,1,0,0:0:0:0:
182,192,9213,1,0,0:0:0:70:BaSSs.wav
109,192,9213,1,0,0:0:0:70:CrashS.wav
36,192,9213,1,0,0:0:0:0:
36,192,9525,1,0,0:0:0:70:BaSSs.wav
109,192,9525,1,0,0:0:0:70:CrashS.wav
182,192,9525,1,0,0:0:0:0:
109,192,9838,1,0,0:0:0:70:BaSSs.wav
36,192,9838,1,0,0:0:0:70:CrashS.wav
182,192,9838,1,0,0:0:0:0:
329,192,10150,128,0,10463:0:0:0:0:
182,192,10463,1,0,0:0:0:70:BaSSs.wav
36,192,10463,1,0,0:0:0:70:CrashL.wav
475,192,10463,1,0,0:0:0:0:
329,192,10775,1,0,0:0:0:70:BaSSs.wav
109,192,10931,1,0,0:0:0:70:BaSSs.wav
256,192,11088,1,0,0:0:0:70:BaSSs.wav
329,192,11244,1,0,0:0:0:70:LR_Drum Hit P.wav
475,192,11244,1,0,0:0:0:0:
182,192,11556,1,0,0:0:0:70:BaSSs.wav
329,192,11713,1,0,0:0:0:70:BaSSs.wav
329,192,12025,1,0,0:0:0:70:BaSSs.wav
182,192,12181,1,0,0:0:0:70:BaSSs.wav
182,192,12494,1,0,0:0:0:70:LR_Drum Hit P.wav
36,192,12494,1,0,0:0:0:0:
329,192,12650,1,0,0:0:0:70:BaSSs.wav
182,192,12806,1,0,0:0:0:70:LR_Drum Hit P.wav
36,192,12806,1,0,0:0:0:0:
329,192,12963,1,0,0:0:0:70:BaSSs.wav
475,192,12963,1,0,0:0:0:70:CrashL.wav
182,192,13275,1,0,0:0:0:70:BaSSs.wav
402,192,13431,1,0,0:0:0:70:BaSSs.wav
256,192,13588,1,0,0:0:0:70:BaSSs.wav
182,192,13744,1,0,0:0:0:70:LR_Drum Hit P.wav
36,192,13744,1,0,0:0:0:0:
475,192,13900,1,0,0:0:0:70:BaSSs.wav
329,192,14056,1,0,0:0:0:70:BaSSs.wav
256,192,14213,1,0,0:0:0:70:BaSSs.wav
109,192,14213,1,0,0:0:0:70:CrashS.wav
182,192,14525,1,0,0:0:0:70:BaSSs.wav
329,192,14525,1,0,0:0:0:70:CrashS.wav
256,192,14838,1,0,0:0:0:70:BaSSs.wav
402,192,14838,1,0,0:0:0:70:CrashS.wav
36,192,14994,128,0,15150:0:0:0:0:
182,192,15150,128,0,15463:0:0:0:70:LR_Drum Hit P.wav
329,192,15150,1,0,0:0:0:0:
329,192,15463,1,0,0:0:0:70:CrashL.wav
475,192,15463,1,0,0:0:0:70:BaSSs.wav
36,192,15463,1,0,0:0:0:0:
182,192,15775,1,0,0:0:0:70:BaSSs.wav
256,192,15931,1,0,0:0:0:70:LR_Drum Hit P.wav
402,192,15931,1,0,0:0:0:0:
182,192,16244,1,0,0:0:0:70:BaSSs.wav
329,192,16400,1,0,0:0:0:70:BaSSs.wav
256,192,16556,1,0,0:0:0:70:LR_Drum Hit P.wav
109,192,16556,1,0,0:0:0:0:
402,192,16713,1,0,0:0:0:70:BaSSs.wav
402,192,17025,1,0,0:0:0:70:BaSSs.wav
182,192,17181,1,0,0:0:0:70:LR_Drum Hit P.wav
36,192,17181,1,0,0:0:0:0:
329,192,17338,1,0,0:0:0:70:BaSSs.wav
256,192,17494,1,0,0:0:0:70:BaSSs.wav
182,192,17650,1,0,0:0:0:70:BaSSs.wav
329,192,17806,1,0,0:0:0:70:LR_Drum Hit P.wav
475,192,17806,1,0,0:0:0:0:
182,192,17963,1,0,0:0:0:70:BaSSs.wav
36,192,17963,1,0,0:0:0:70:CrashL.wav
329,192,18275,1,0,0:0:0:70:BaSSs.wav
182,192,18431,1,0,0:0:0:70:LR_Drum Hit P.wav
36,192,18431,1,0,0:0:0:0:
402,192,18588,1,0,0:0:0:70:BaSSs.wav
256,192,18744,1,0,0:0:0:70:LR_Drum Hit P.wav
109,192,18744,1,0,0:0:0:0:
475,192,18900,1,0,0:0:0:70:BaSSs.wav
329,192,19056,1,0,0:0:0:70:LR_Drum Hit P.wav
182,192,19056,1,0,0:0:0:0:
36,192,19213,1,0,0:0:0:70:BaSSs.wav
256,192,19369,128,0,19525:0:0:0:70:LR_Drum Hit P.wav
402,192,19369,1,0,0:0:0:0:
36,192,19525,1,0,0:0:0:70:BaSSs.wav
182,192,19681,1,0,0:0:0:70:LR_Drum Hit P.wav
329,192,19681,1,0,0:0:0:0:
475,192,19838,1,0,0:0:0:70:BaSSs.wav
329,192,19994,1,0,0:0:0:70:LR_Drum Hit P.wav
182,192,19994,1,0,0:0:0:0:
182,192,20150,1,0,0:0:0:70:LR_Drum Hit P.wav
329,192,20150,1,0,0:0:0:0:
182,192,20306,1,0,0:0:0:70:LR_Drum Hit P.wav
329,192,20306,1,0,0:0:0:0:
36,192,20463,128,0,22494:0:0:0:70:BaSSs.wav
475,192,20463,1,0,0:0:0:70:CrashL.wav
256,192,20463,1,0,0:0:0:0:
329,192,20931,1,0,0:0:0:70:CrashS.wav
329,192,21400,1,0,0:0:0:70:CrashS.wav
109,192,21713,1,0,0:0:0:70:CrashS.wav
329,192,22025,1,0,0:0:0:0:
256,192,22181,1,0,0:0:0:70:CrashS.wav
182,192,22338,1,0,0:0:0:0:
402,192,22494,1,0,0:0:0:70:LR_Drum Hit P.wav
256,192,22650,1,0,0:0:0:70:LR_Drum Hit P.wav
109,192,22650,1,0,0:0:0:0:
329,192,22806,1,0,0:0:0:70:LR_Drum Hit P.wav
36,192,22806,1,0,0:0:0:0:
182,192,22963,1,0,0:0:0:70:BaSSs.wav
402,192,22963,1,0,0:0:0:70:CrashL.wav
475,192,22963,1,0,0:0:0:0:
329,192,23431,1,0,0:0:0:70:BaSSs.wav
256,192,23744,1,0,0:0:0:70:BaSSs.wav
182,192,24056,1,0,0:0:0:70:BaSSs.wav
109,192,24369,1,0,0:0:0:70:BaSSs.wav
329,192,24681,1,0,0:0:0:70:BaSSs.wav
182,192,24838,1,0,0:0:0:70:LR_Drum Hit P.wav
36,192,24838,1,0,0:0:0:0:
329,192,24994,1,0,0:0:0:70:BaSSs.wav
256,192,25306,1,0,0:0:0:70:BaSSs.wav
475,192,25463,1,0,0:0:0:70:LR_Drum Hit P.wav
329,192,25463,1,0,0:0:0:0:
109,192,25619,1,0,0:0:0:70:BaSSs.wav
182,192,25931,1,0,0:0:0:70:BaSSs.wav
256,192,26244,1,0,0:0:0:70:BaSSs.wav
329,192,26556,1,0,0:0:0:70:BaSSs.wav
182,192,26713,1,0,0:0:0:70:LR_Drum Hit P.wav
36,192,26713,1,0,0:0:0:0:
329,192,26869,1,0,0:0:0:70:BaSSs.wav
329,192,27181,1,0,0:0:0:70:LR_Drum Hit P.wav
475,192,27181,1,0,0:0:0:0:
256,192,27494,1,0,0:0:0:70:BaSSs.wav
182,192,27806,1,0,0:0:0:70:LR_Drum Hit P.wav
36,192,27806,1,0,0:0:0:0:
256,192,28119,1,0,0:0:0:70:BaSSs.wav
109,192,28119,1,0,0:0:0:70:CrashL.wav
402,192,28119,1,0,0:0:0:0:
329,192,28431,1,0,0:0:0:70:BaSSs.wav
182,192,28744,1,0,0:0:0:70:BaSSs.wav
256,192,29056,1,0,0:0:0:70:BaSSs.wav
329,192,29369,1,0,0:0:0:70:BaSSs.wav
109,192,29681,1,0,0:0:0:70:BaSSs.wav
256,192,29994,1,0,0:0:0:70:BaSSs.wav
402,192,30306,1,0,0:0:0:70:BaSSs.wav
182,192,30463,1,0,0:0:0:70:LR_Drum Hit P.wav
36,192,30463,1,0,0:0:0:0:
329,192,30619,1,0,0:0:0:70:CrashL.wav
475,192,30619,1,0,0:0:0:70:BaSSs.wav
36,192,30775,128,0,31088:0:0:0:70:BaSSs.wav
182,192,30775,1,0,0:0:0:0:
182,192,31088,128,0,31400:0:0:0:70:BaSSs.wav
329,192,31400,128,0,31713:0:0:0:70:BaSSs.wav
182,192,31713,1,0,0:0:0:70:CrashS.wav
36,192,31713,1,0,0:0:0:70:BaSSs.wav
256,192,32650,128,0,32806:0:0:0:0:
109,192,32806,1,0,0:0:0:70:LR_Drum Hit P.wav
402,192,32806,1,0,0:0:0:0:
329,192,32963,1,0,0:0:0:70:CrashL.wav
475,192,32963,1,0,0:0:0:70:BaSSs.wav
36,192,32963,1,0,0:0:0:0:
182,192,33275,1,0,0:0:0:70:BaSSs.wav
182,192,33431,1,0,0:0:0:70:LR_Drum Hit P.wav
329,192,33431,1,0,0:0:0:0:
109,192,33744,1,0,0:0:0:70:BaSSs.wav
256,192,33900,1,0,0:0:0:70:BaSSs.wav
256,192,34056,1,0,0:0:0:70:LR_Drum Hit P.wav
109,192,34056,1,0,0:0:0:0:
402,192,34369,1,0,0:0:0:70:BaSSs.wav
256,192,34525,1,0,0:0:0:70:BaSSs.wav
402,192,34681,1,0,0:0:0:70:LR_Drum Hit P.wav
256,192,34681,1,0,0:0:0:0:
36,192,34994,1,0,0:0:0:70:BaSSs.wav
182,192,35150,1,0,0:0:0:70:BaSSs.wav
182,192,35306,1,0,0:0:0:70:LR_Drum Hit P.wav
329,192,35306,1,0,0:0:0:0:
256,192,35619,1,0,0:0:0:70:BaSSs.wav
36,192,35619,1,0,0:0:0:70:CrashL.wav
475,192,35619,1,0,0:0:0:0:
402,192,35775,1,0,0:0:0:70:BaSSs.wav
329,192,35931,1,0,0:0:0:70:LR_Drum Hit P.wav
182,192,35931,1,0,0:0:0:0:
329,192,36244,1,0,0:0:0:70:BaSSs.wav
182,192,36400,1,0,0:0:0:70:BaSSs.wav
329,192,36556,1,0,0:0:0:70:LR_Drum Hit P.wav
182,192,36556,1,0,0:0:0:0:
182,192,36869,1,0,0:0:0:70:BaSSs.wav
329,192,37025,1,0,0:0:0:70:BaSSs.wav
182,192,37181,1,0,0:0:0:70:LR_Drum Hit P.wav
329,192,37181,1,0,0:0:0:0:
109,192,37494,1,0,0:0:0:70:BaSSs.wav
109,192,37650,1,0,0:0:0:70:BaSSs.wav
109,192,37806,1,0,0:0:0:70:LR_Drum Hit P.wav
402,192,37806,128,0,38119:0:0:0:0:
182,192,38119,1,0,0:0:0:70:BaSSs.wav
36,192,38119,1,0,0:0:0:70:CrashL.wav
475,192,38119,1,0,0:0:0:0:
329,192,38275,1,0,0:0:0:70:BaSSs.wav
256,192,38431,1,0,0:0:0:70:LR_Drum Hit P.wav
402,192,38431,1,0,0:0:0:0:
256,192,38744,1,0,0:0:0:70:BaSSs.wav
109,192,38900,1,0,0:0:0:70:BaSSs.wav
182,192,39056,1,0,0:0:0:70:LR_Drum Hit P.wav
402,192,39056,1,0,0:0:0:0:
256,192,39369,1,0,0:0:0:70:BaSSs.wav
402,192,39525,1,0,0:0:0:70:BaSSs.wav
109,192,39681,1,0,0:0:0:70:LR_Drum Hit P.wav
329,192,39681,1,0,0:0:0:0:
182,192,39994,1,0,0:0:0:70:BaSSs.wav
256,192,40150,1,0,0:0:0:70:BaSSs.wav
329,192,40306,1,0,0:0:0:70:LR_Drum Hit P.wav
475,192,40306,1,0,0:0:0:0:
182,192,40619,1,0,0:0:0:70:BaSSs.wav
36,192,40619,1,0,0:0:0:70:CrashL.wav
475,192,40619,1,0,0:0:0:0:
256,192,40775,1,0,0:0:0:0:
329,192,40931,1,0,0:0:0:70:LR_Drum Hit P.wav
475,192,40931,1,0,0:0:0:0:
36,192,40931,1,0,0:0:0:0:
182,192,41088,1,0,0:0:0:70:BaSSs.wav
182,192,41244,1,0,0:0:0:70:BaSSs.wav
329,192,41400,1,0,0:0:0:70:BaSSs.wav
329,192,41556,1,0,0:0:0:70:LR_Drum Hit P.wav
475,192,41556,1,0,0:0:0:0:
182,192,41713,1,0,0:0:0:70:BaSSs.wav
36,192,41713,1,0,0:0:0:70:CrashL.wav
329,192,42025,1,0,0:0:0:70:BaSSs.wav
329,192,42181,1,0,0:0:0:70:LR_Drum Hit P.wav
36,192,42181,1,0,0:0:0:0:
182,192,42338,1,0,0:0:0:70:BaSSs.wav
182,192,42494,1,0,0:0:0:70:LR_Drum Hit P.wav
475,192,42494,1,0,0:0:0:0:
329,192,42650,1,0,0:0:0:70:BaSSs.wav
329,192,42806,1,0,0:0:0:70:LR_Drum Hit P.wav
36,192,42806,1,0,0:0:0:0:
109,192,42963,1,0,0:0:0:70:BaSSs.wav
256,192,42963,1,0,0:0:0:0:
402,192,42963,1,0,0:0:0:0:
329,192,43275,1,0,0:0:0:70:BaSSs.wav
36,192,43431,1,0,0:0:0:70:LR_Drum Hit P.wav
182,192,43431,128,0,43588:0:0:0:0:
402,192,43588,1,0,0:0:0:70:BaSSs.wav
256,192,43744,128,0,43900:0:0:0:70:BaSSs.wav
109,192,43744,1,0,0:0:0:0:
475,192,43900,1,0,0:0:0:70:BaSSs.wav
182,192,44056,1,0,0:0:0:70:LR_Drum Hit P.wav
36,192,44056,1,0,0:0:0:0:
329,192,44213,1,0,0:0:0:70:BaSSs.wav
475,192,44213,1,0,0:0:0:70:CrashL.wav
402,192,44213,1,0,0:0:0:0:
182,192,44525,1,0,0:0:0:70:BaSSs.wav
182,192,44681,1,0,0:0:0:70:CrashS.wav
182,192,44994,1,0,0:0:0:70:CrashS.wav
36,192,44994,1,0,0:0:0:70:LR_Drum Hit P.wav
182,192,45306,1,0,0:0:0:70:CrashS.wav
182,192,45463,1,0,0:0:0:70:BaSSs.wav
182,192,45775,1,0,0:0:0:70:BaSSs.wav
182,192,45931,1,0,0:0:0:70:CrashS.wav
182,192,46244,1,0,0:0:0:70:CrashS.wav
36,192,46244,1,0,0:0:0:70:LR_Drum Hit P.wav
182,192,46400,1,0,0:0:0:70:BaSSs.wav
109,192,46713,1,0,0:0:0:70:BaSSs.wav
36,192,46713,1,0,0:0:0:70:CrashL.wav
182,192,46713,1,0,0:0:0:0:
329,192,47025,1,0,0:0:0:70:BaSSs.wav
329,192,47181,1,0,0:0:0:70:BaSSs.wav
329,192,47494,1,0,0:0:0:70:CrashS.wav
475,192,47494,1,0,0:0:0:70:LR_Drum Hit P.wav
329,192,47806,1,0,0:0:0:70:BaSSs.wav
329,192,47963,1,0,0:0:0:70:BaSSs.wav
329,192,48275,1,0,0:0:0:70:BaSSs.wav
329,192,48431,1,0,0:0:0:70:BaSSs.wav
329,192,48744,1,0,0:0:0:70:CrashS.wav
475,192,48744,1,0,0:0:0:70:LR_Drum Hit P.wav
109,192,48900,1,0,0:0:0:70:BaSSs.wav
182,192,49056,1,0,0:0:0:70:CrashS.wav
329,192,49056,1,0,0:0:0:70:LR_Drum Hit P.wav
256,192,49213,1,0,0:0:0:70:BaSSs.wav
475,192,49213,1,0,0:0:0:70:CrashL.wav
36,192,49213,1,0,0:0:0:0:
182,192,49525,1,0,0:0:0:70:BaSSs.wav
329,192,49681,1,0,0:0:0:70:LR_Drum Hit P.wav
475,192,49681,1,0,0:0:0:0:
109,192,49838,1,0,0:0:0:70:BaSSs.wav
256,192,49994,1,0,0:0:0:70:LR_Drum Hit P.wav
402,192,49994,1,0,0:0:0:0:
36,192,50150,1,0,0:0:0:70:BaSSs.wav
182,192,50306,1,0,0:0:0:70:LR_Drum Hit P.wav
329,192,50306,1,0,0:0:0:0:
475,192,50463,1,0,0:0:0:70:BaSSs.wav
256,192,50619,1,0,0:0:0:70:BaSSs.wav
109,192,50619,128,0,50775:0:0:0:0:
329,192,50775,1,0,0:0:0:70:BaSSs.wav
182,192,50931,128,0,51088:0:0:0:70:BaSSs.wav
36,192,50931,1,0,0:0:0:0:
402,192,51088,1,0,0:0:0:70:BaSSs.wav
256,192,51244,128,0,51400:0:0:0:70:BaSSs.wav
109,192,51244,1,0,0:0:0:0:
475,192,51400,1,0,0:0:0:70:BaSSs.wav
475,192,51556,1,0,0:0:0:70:LR_Drum Hit P.wav
329,192,51556,1,0,0:0:0:0:
36,192,51713,1,0,0:0:0:70:BaSSs.wav
182,192,51713,1,0,0:0:0:70:CrashL.wav
109,192,51713,1,0,0:0:0:0:
329,192,52025,1,0,0:0:0:70:LR_Drum Hit P.wav
402,192,52025,1,0,0:0:0:0:
329,192,52181,1,0,0:0:0:70:LR_Drum Hit P.wav
402,192,52181,1,0,0:0:0:0:
329,192,52338,1,0,0:0:0:70:LR_Drum Hit P.wav
402,192,52338,1,0,0:0:0:0:
109,192,52494,1,0,0:0:0:70:LR_Drum Hit P.wav
402,192,52494,1,0,0:0:0:0:
182,192,52650,1,0,0:0:0:70:LR_Drum Hit P.wav
109,192,52650,1,0,0:0:0:0:
182,192,52806,1,0,0:0:0:70:LR_Drum Hit P.wav
109,192,52806,1,0,0:0:0:0:
109,192,52963,1,0,0:0:0:70:BaSSs.wav
182,192,52963,1,0,0:0:0:70:CrashS.wav
329,192,53119,1,0,0:0:0:0:
475,192,53119,1,0,0:0:0:0:
256,192,53900,1,0,0:0:0:70:LR_Drum Hit P.wav
256,192,54213,1,0,0:0:0:70:BaSSs.wav
36,192,54213,1,0,0:0:0:70:CrashL.wav
475,192,54213,1,0,0:0:0:0:
109,192,54681,1,0,0:0:0:70:LR_Drum Hit P.wav
329,192,54681,1,0,0:0:0:0:
182,192,54994,1,0,0:0:0:70:BaSSs.wav
256,192,55306,1,0,0:0:0:70:LR_Drum Hit P.wav
475,192,55306,1,0,0:0:0:0:
329,192,55619,1,0,0:0:0:70:BaSSs.wav
402,192,55931,1,0,0:0:0:70:LR_Drum Hit P.wav
109,192,55931,1,0,0:0:0:0:
182,192,56244,1,0,0:0:0:70:BaSSs.wav
256,192,56556,1,0,0:0:0:70:LR_Drum Hit P.wav
36,192,56556,1,0,0:0:0:0:
256,192,56869,1,0,0:0:0:70:CrashL.wav
475,192,56869,1,0,0:0:0:70:BaSSs.wav
36,192,56869,1,0,0:0:0:0:
182,192,57181,1,0,0:0:0:70:LR_Drum Hit P.wav
402,192,57181,1,0,0:0:0:0:
329,192,57494,1,0,0:0:0:70:BaSSs.wav
256,192,57806,1,0,0:0:0:70:LR_Drum Hit P.wav
36,192,57806,1,0,0:0:0:0:
109,192,58119,1,0,0:0:0:70:CrashL.wav
329,192,58119,1,0,0:0:0:70:BaSSs.wav
182,192,58431,1,0,0:0:0:70:LR_Drum Hit P.wav
402,192,58431,1,0,0:0:0:0:
36,192,58744,1,0,0:0:0:70:BaSSs.wav
329,192,59056,128,0,59369:0:0:0:70:LR_Drum Hit P.wav
402,192,59056,1,0,0:0:0:0:
182,192,59369,1,0,0:0:0:70:BaSSs.wav
109,192,59369,1,0,0:0:0:70:CrashL.wav
402,192,59369,1,0,0:0:0:0:
256,192,59681,1,0,0:0:0:70:LR_Drum Hit P.wav
475,192,59681,1,0,0:0:0:0:
329,192,59994,1,0,0:0:0:70:BaSSs.wav
402,192,60306,1,0,0:0:0:70:LR_Drum Hit P.wav
109,192,60306,1,0,0:0:0:0:
182,192,60619,1,0,0:0:0:70:BaSSs.wav
329,192,60619,1,0,0:0:0:70:CrashL.wav
36,192,60619,1,0,0:0:0:0:
256,192,60931,1,0,0:0:0:70:LR_Drum Hit P.wav
475,192,60931,1,0,0:0:0:0:
182,192,61244,1,0,0:0:0:70:BaSSs.wav
109,192,61556,1,0,0:0:0:70:LR_Drum Hit P.wav
402,192,61556,1,0,0:0:0:0:
256,192,61713,1,0,0:0:0:70:BaSSs.wav
36,192,61713,1,0,0:0:0:70:CrashL.wav
475,192,61713,1,0,0:0:0:0:
182,192,62025,1,0,0:0:0:70:BaSSs.wav
329,192,62181,1,0,0:0:0:70:LR_Drum Hit P.wav
475,192,62181,1,0,0:0:0:0:
182,192,62338,1,0,0:0:0:70:BaSSs.wav
475,192,62494,1,0,0:0:0:70:BaSSs.wav
329,192,62494,128,0,62650:0:0:0:0:
36,192,62650,1,0,0:0:0:70:BaSSs.wav
256,192,62806,128,0,62963:0:0:0:70:BaSSs.wav
402,192,62806,1,0,0:0:0:0:
109,192,62963,1,0,0:0:0:70:BaSSs.wav
329,192,63119,1,0,0:0:0:70:LR_Drum Hit P.wav
475,192,63119,1,0,0:0:0:0:
36,192,63119,1,0,0:0:0:0:
256,192,63275,1,0,0:0:0:70:BaSSs.wav
182,192,63431,1,0,0:0:0:70:LR_Drum Hit P.wav
36,192,63431,1,0,0:0:0:0:
36,192,63588,1,0,0:0:0:70:LR_Drum Hit P.wav
182,192,63588,1,0,0:0:0:0:
329,192,63900,1,0,0:0:0:70:BaSSs.wav
475,192,63900,1,0,0:0:0:0:
109,192,64213,128,0,64681:0:0:0:70:BaSSs.wav
256,192,64681,1,0,0:0:0:70:LR_Drum Hit P.wav
402,192,64681,1,0,0:0:0:70:CrashL.wav
475,192,64681,1,0,0:0:0:70:BaSSs.wav
109,192,64994,1,0,0:0:0:70:BaSSs.wav
182,192,65306,1,0,0:0:0:70:LR_Drum Hit P.wav
329,192,65306,1,0,0:0:0:0:
36,192,65619,1,0,0:0:0:70:BaSSs.wav
109,192,65931,1,0,0:0:0:70:LR_Drum Hit P.wav
256,192,65931,1,0,0:0:0:0:
329,192,66244,1,0,0:0:0:70:BaSSs.wav
182,192,66556,1,0,0:0:0:70:LR_Drum Hit P.wav
475,192,66556,1,0,0:0:0:0:
402,192,66869,1,0,0:0:0:70:CrashL.wav
256,192,66869,1,0,0:0:0:70:BaSSs.wav
109,192,66869,1,0,0:0:0:0:
329,192,67181,1,0,0:0:0:70:LR_Drum Hit P.wav
36,192,67181,1,0,0:0:0:0:
182,192,67494,1,0,0:0:0:70:BaSSs.wav
256,192,67806,1,0,0:0:0:70:LR_Drum Hit P.wav
402,192,67806,1,0,0:0:0:0:
109,192,68119,1,0,0:0:0:70:BaSSs.wav
182,192,68431,1,0,0:0:0:70:LR_Drum Hit P.wav
329,192,68431,1,0,0:0:0:0:
36,192,68744,1,0,0:0:0:70:BaSSs.wav
182,192,69056,128,0,69213:0:0:0:70:LR_Drum Hit P.wav
36,192,69056,1,0,0:0:0:0:
329,192,69213,1,0,0:0:0:70:BaSSs.wav
475,192,69213,1,0,0:0:0:70:CrashL.wav
182,192,69525,1,0,0:0:0:70:BaSSs.wav
329,192,69681,1,0,0:0:0:70:LR_Drum Hit P.wav
402,192,69681,1,0,0:0:0:0:
109,192,69838,1,0,0:0:0:70:BaSSs.wav
256,192,69994,1,0,0:0:0:70:LR_Drum Hit P.wav
329,192,69994,1,0,0:0:0:0:
36,192,70150,1,0,0:0:0:70:BaSSs.wav
329,192,70306,1,0,0:0:0:70:LR_Drum Hit P.wav
402,192,70306,1,0,0:0:0:0:
182,192,70463,1,0,0:0:0:70:BaSSs.wav
36,192,70463,1,0,0:0:0:70:CrashL.wav
329,192,70775,1,0,0:0:0:70:BaSSs.wav
182,192,70931,1,0,0:0:0:70:LR_Drum Hit P.wav
109,192,70931,1,0,0:0:0:0:
402,192,71088,1,0,0:0:0:70:BaSSs.wav
256,192,71244,1,0,0:0:0:70:LR_Drum Hit P.wav
182,192,71244,1,0,0:0:0:0:
475,192,71400,1,0,0:0:0:70:BaSSs.wav
182,192,71556,1,0,0:0:0:70:LR_Drum Hit P.wav
109,192,71556,1,0,0:0:0:0:
329,192,71713,1,0,0:0:0:70:CrashL.wav
475,192,71713,1,0,0:0:0:70:BaSSs.wav
402,192,72025,1,0,0:0:0:70:BaSSs.wav
36,192,72181,128,0,72338:0:0:0:70:BaSSs.wav
182,192,72338,128,0,72494:0:0:0:70:BaSSs.wav
475,192,72494,128,0,72650:0:0:0:70:BaSSs.wav
329,192,72650,128,0,72806:0:0:0:70:BaSSs.wav
182,192,72806,1,0,0:0:0:70:LR_Drum Hit P.wav
36,192,72806,1,0,0:0:0:0:
329,192,72963,1,0,0:0:0:70:BaSSs.wav
475,192,72963,1,0,0:0:0:70:CrashS.wav
402,192,72963,1,0,0:0:0:0:
402,192,73275,1,0,0:0:0:70:CrashS.wav
475,192,73275,1,0,0:0:0:70:BaSSs.wav
329,192,73275,1,0,0:0:0:0:
329,192,73588,1,0,0:0:0:70:CrashS.wav
402,192,73588,1,0,0:0:0:70:BaSSs.wav
475,192,73588,1,0,0:0:0:0:
182,192,73900,128,0,74213:0:0:0:70:LR_Drum Hit P.wav
329,192,74213,1,0,0:0:0:70:BaSSs.wav
475,192,74213,1,0,0:0:0:70:CrashL.wav
36,192,74213,1,0,0:0:0:0:
182,192,74525,1,0,0:0:0:70:BaSSs.wav
402,192,74681,1,0,0:0:0:70:BaSSs.wav
256,192,74838,1,0,0:0:0:70:BaSSs.wav
182,192,74994,1,0,0:0:0:70:LR_Drum Hit P.wav
36,192,74994,1,0,0:0:0:0:
329,192,75306,1,0,0:0:0:70:BaSSs.wav
182,192,75463,1,0,0:0:0:70:BaSSs.wav
182,192,75775,1,0,0:0:0:70:BaSSs.wav
329,192,75931,1,0,0:0:0:70:BaSSs.wav
329,192,76244,1,0,0:0:0:70:LR_Drum Hit P.wav
475,192,76244,1,0,0:0:0:0:
182,192,76400,1,0,0:0:0:70:BaSSs.wav
329,192,76556,1,0,0:0:0:70:LR_Drum Hit P.wav
475,192,76556,1,0,0:0:0:0:
182,192,76713,1,0,0:0:0:70:BaSSs.wav
36,192,76713,1,0,0:0:0:70:CrashL.wav
329,192,77025,1,0,0:0:0:70:BaSSs.wav
109,192,77181,1,0,0:0:0:70:BaSSs.wav
256,192,77338,1,0,0:0:0:70:BaSSs.wav
329,192,77494,1,0,0:0:0:70:LR_Drum Hit P.wav
475,192,77494,1,0,0:0:0:0:
36,192,77650,1,0,0:0:0:70:BaSSs.wav
182,192,77806,1,0,0:0:0:70:BaSSs.wav
256,192,77963,1,0,0:0:0:70:BaSSs.wav
402,192,77963,1,0,0:0:0:70:CrashS.wav
329,192,78275,1,0,0:0:0:70:BaSSs.wav
182,192,78275,1,0,0:0:0:70:CrashS.wav
256,192,78588,1,0,0:0:0:70:BaSSs.wav
109,192,78588,1,0,0:0:0:70:CrashS.wav
475,192,78744,128,0,78900:0:0:0:0:
329,192,78900,128,0,79213:0:0:0:70:LR_Drum Hit P.wav
182,192,78900,1,0,0:0:0:0:
182,192,79213,1,0,0:0:0:70:CrashL.wav
36,192,79213,1,0,0:0:0:70:BaSSs.wav
475,192,79213,1,0,0:0:0:0:
329,192,79525,1,0,0:0:0:70:BaSSs.wav
256,192,79681,1,0,0:0:0:70:LR_Drum Hit P.wav
109,192,79681,1,0,0:0:0:0:
329,192,79994,1,0,0:0:0:70:BaSSs.wav
182,192,80150,1,0,0:0:0:70:BaSSs.wav
256,192,80306,1,0,0:0:0:70:LR_Drum Hit P.wav
402,192,80306,1,0,0:0:0:0:
109,192,80463,1,0,0:0:0:70:BaSSs.wav
109,192,80775,1,0,0:0:0:70:BaSSs.wav
329,192,80931,1,0,0:0:0:70:LR_Drum Hit P.wav
475,192,80931,1,0,0:0:0:0:
182,192,81088,1,0,0:0:0:70:BaSSs.wav
256,192,81244,1,0,0:0:0:70:BaSSs.wav
329,192,81400,1,0,0:0:0:70:BaSSs.wav
182,192,81556,1,0,0:0:0:70:LR_Drum Hit P.wav
36,192,81556,1,0,0:0:0:0:
329,192,81713,1,0,0:0:0:70:BaSSs.wav
475,192,81713,1,0,0:0:0:70:CrashL.wav
182,192,82025,1,0,0:0:0:70:BaSSs.wav
329,192,82181,1,0,0:0:0:70:BaSSs.wav
475,192,82181,1,0,0:0:0:0:
109,192,82338,1,0,0:0:0:0:
256,192,82494,1,0,0:0:0:70:LR_Drum Hit P.wav
402,192,82494,1,0,0:0:0:0:
36,192,82650,1,0,0:0:0:0:
182,192,82806,1,0,0:0:0:70:BaSSs.wav
329,192,82806,1,0,0:0:0:0:
475,192,82963,1,0,0:0:0:70:LR_Drum Hit P.wav
256,192,83119,128,0,83275:0:0:0:0:
109,192,83119,1,0,0:0:0:0:
475,192,83275,1,0,0:0:0:70:BaSSs.wav
329,192,83431,1,0,0:0:0:70:LR_Drum Hit P.wav
182,192,83431,1,0,0:0:0:0:
36,192,83588,1,0,0:0:0:70:BaSSs.wav
182,192,83744,1,0,0:0:0:70:LR_Drum Hit P.wav
329,192,83744,1,0,0:0:0:0:
329,192,83900,1,0,0:0:0:70:LR_Drum Hit P.wav
182,192,83900,1,0,0:0:0:0:
329,192,84056,1,0,0:0:0:70:LR_Drum Hit P.wav
182,192,84056,1,0,0:0:0:0:
36,192,84213,1,0,0:0:0:70:BaSSs.wav
475,192,84213,1,0,0:0:0:70:CrashL.wav
256,192,84213,1,0,0:0:0:0:
256,192,84681,1,0,0:0:0:70:CrashS.wav
256,192,85150,1,0,0:0:0:70:CrashS.wav
256,192,85463,1,0,0:0:0:70:CrashS.wav
256,192,85931,1,0,0:0:0:70:CrashS.wav
256,192,86244,1,0,0:0:0:70:CrashS.wav
109,192,86556,1,0,0:0:0:70:LR_Drum Hit P.wav
402,192,86556,1,0,0:0:0:0:
256,192,86713,1,0,0:0:0:70:BaSSs.wav
36,192,86713,1,0,0:0:0:70:CrashL.wav
475,192,86713,1,0,0:0:0:0:
256,192,87181,1,0,0:0:0:70:CrashS.wav
256,192,87494,1,0,0:0:0:70:CrashS.wav
256,192,87806,1,0,0:0:0:70:CrashS.wav
256,192,88119,1,0,0:0:0:70:CrashS.wav
256,192,88431,1,0,0:0:0:70:CrashS.wav
256,192,88744,1,0,0:0:0:70:CrashS.wav
36,192,89056,1,0,0:0:0:70:LR_Drum Hit P.wav
475,192,89056,1,0,0:0:0:0:
256,192,89213,1,0,0:0:0:70:BaSSs.wav
475,192,89213,1,0,0:0:0:70:CrashL.wav
36,192,89213,1,0,0:0:0:0:
