osu file format v14

[General]
AudioFilename: blow out.mp3
AudioLeadIn: 0
PreviewTime: 53447
Countdown: 0
SampleSet: Soft
StackLeniency: 0.4
Mode: 0
LetterboxInBreaks: 0
WidescreenStoryboard: 0

[Editor]
DistanceSpacing: 0.9
BeatDivisor: 2
GridSize: 16
TimelineZoom: 1.8

[Metadata]
Title:Blow out
TitleUnicode:Blow out
Artist:Suzuki Konomi
ArtistUnicode:鈴木このみ
Creator:Kalibe
Version:Irohas' Normal
Source:ロクでなし魔術講師と禁忌教典
Tags:of bastard magic instructor Rokudenashi Majutsu Koushi to Akashic Records tv size op opening irohas mugiwarasekai kibbleru
BeatmapID:1261939
BeatmapSetID:596580

[Difficulty]
HPDrainRate:3.5
CircleSize:3.5
OverallDifficulty:4
ApproachRate:5
SliderMultiplier:1.15
SliderTickRate:1

[Events]
//Background and Video events
0,0,"819668.jpg",0,0
Video,0,"rokudenashi opening.avi"
//Break Periods
//Storyboard Layer 0 (Background)
//Storyboard Layer 1 (Fail)
//Storyboard Layer 2 (Pass)
//Storyboard Layer 3 (Foreground)
//Storyboard Sound Samples

[TimingPoints]
-613,312.5,4,2,2,20,1,0
1887,-100,4,1,2,25,0,0
3137,-100,4,2,2,30,0,0
4387,-100,4,1,2,35,0,0
5637,-100,4,2,2,45,0,0
6887,-100,4,1,2,50,0,0
7824,-100,4,2,2,55,0,0
7980,-100,4,2,2,50,0,0
9230,-100,4,2,2,65,0,0
10480,-100,4,2,2,55,0,0
15402,-100,4,2,2,5,0,0
15480,-100,4,2,2,60,0,0
20480,-100,4,2,2,55,0,0
22980,-100,4,2,2,50,0,0
32980,-100,4,2,2,60,0,0
44230,-100,4,2,2,55,0,0
49230,-100,4,2,2,65,0,0
52043,-100,4,2,2,50,0,0
52512,-100,4,2,2,60,0,0
52824,-100,4,2,2,70,0,0
53137,-100,4,2,2,35,0,0
53449,-100,4,2,2,40,0,0
53918,-100,4,2,2,65,0,0
54230,-100,4,2,2,75,0,1
63449,-100,4,2,2,65,0,0
64230,-100,4,2,2,55,0,0
64543,-100,4,2,2,20,0,0
64699,-100,4,2,2,75,0,1
69230,-100,4,2,2,80,0,1
72980,-100,4,2,2,65,0,0
74230,-100,4,2,2,60,0,0
79152,-100,4,2,2,5,0,0
79230,-100,4,2,2,65,0,0
84230,-100,4,2,2,60,0,0

[Colours]
Combo1 : 255,255,0
Combo2 : 128,128,255
Combo3 : 0,84,168
Combo4 : 0,128,255

[HitObjects]
256,192,480,12,4,7980,0:1:0:0:
170,89,9230,6,0,P|216:58|283:75,1,115,0|0,1:2|1:2,0:0:0:0:
333,150,9855,2,0,P|357:178|447:166,1,115,0|2,1:2|0:1,0:0:0:0:
509,112,10480,6,0,B|531:164|531:164|506:241,1,115,4|2,0:1|0:1,0:0:0:0:
487,265,10949,1,2,0:0:0:0:
420,344,11262,2,0,P|362:337|305:333,1,115,8|2,0:0|0:1,0:0:0:0:
277,289,11730,2,0,P|219:293|162:300,1,115,2|2,0:0|0:1,0:0:0:0:
130,341,12199,1,2,0:0:0:0:
54,272,12512,2,0,P|27:261|-1:262,2,57.5,8|2|8,0:0|0:1|0:0,0:0:0:0:
100,250,12980,6,0,B|118:211|118:211|99:129,1,115,4|2,0:0|0:1,0:0:0:0:
65,104,13449,1,2,0:0:0:0:
155,56,13762,2,0,P|159:18|162:-7,2,57.5,8|2|8,0:0|0:1|0:0,0:0:0:0:
178,102,14230,2,0,P|229:124|288:96,1,115,0|0,1:0|1:0,0:0:0:0:
376,61,14855,2,0,P|371:121|366:186,1,115,0|10,1:0|0:0,0:0:0:0:
336,274,15480,6,0,P|289:243|226:260,1,115,4|2,0:1|0:1,0:0:0:0:
193,287,15949,1,8,0:0:0:0:
105,231,16262,2,0,P|78:220|49:221,2,57.5,2|2|8,0:0|0:1|0:0,0:0:0:0:
151,209,16730,2,0,B|169:170|169:170|150:88,1,115,2|2,0:0|0:1,0:0:0:0:
117,61,17199,1,8,0:0:0:0:
214,24,17512,2,0,P|257:29|337:36,1,115,2|8,0:0|0:0,0:0:0:0:
377,50,17980,6,0,P|339:94|360:159,1,115,4|2,0:0|0:1,0:0:0:0:
395,169,18449,2,0,P|433:213|412:278,1,115,8|8,0:0|0:0,0:0:0:0:
350,338,19074,2,0,P|316:334|281:332,1,57.5,8|2,0:0|0:0,0:0:0:0:
251,300,19387,2,0,P|193:306|136:311,1,115,8|8,0:0|0:0,0:0:0:0:
56,245,20012,2,0,P|27:241|-1:239,2,57.5,8|8|8,0:0|0:0|1:2,0:0:0:0:
105,230,20480,6,0,P|159:169|93:111,1,172.5,4|4,0:1|0:3,0:0:0:0:
237,23,21418,2,0,P|265:27|297:35,1,57.5,4|2,0:3|0:3,0:0:0:0:
344,29,21730,2,0,B|305:111|380:107|339:204,1,172.5,4|4,0:3|0:3,0:0:0:0:
388,288,22512,2,0,P|415:283|444:278,2,57.5,2|8|8,0:0|0:0|0:0,0:0:0:0:
347,319,22980,6,0,P|289:313|230:309,1,115,4|2,0:1|0:1,0:0:0:0:
184,329,23449,1,2,0:0:0:0:
93,278,23762,2,0,B|75:239|75:239|97:157,1,115,2|2,0:1|0:1,0:0:0:0:
141,78,24386,2,0,P|198:81|255:87,1,115,2|2,0:1|0:0,0:0:0:0:
304,71,24854,1,8,0:0:0:0:
394,121,25167,2,0,P|398:165|400:193,1,57.5,2|2,0:0|0:1,0:0:0:0:
440,209,25480,6,0,P|433:273|427:333,1,115,8|0,0:0|0:0,0:0:0:0:
389,358,25949,1,2,0:1:0:0:
334,269,26262,2,0,P|283:235|224:259,1,115,2|2,0:1|0:1,0:0:0:0:
209,293,26730,1,8,0:0:0:0:
209,293,26887,2,0,P|151:287|92:283,1,115,2|8,0:0|0:0,0:0:0:0:
0,239,27512,1,2,0:1:0:0:
62,156,27824,1,8,0:0:0:0:
0,79,28137,6,0,P|52:53|110:65,1,115,4|2,0:0|0:0,0:1:0:0:
179,135,28762,2,0,B|219:163|219:163|269:154|293:151,1,115,2|2,0:1|0:1,0:0:0:0:
324,119,29230,1,0,0:0:0:0:
324,119,29387,2,0,P|319:185|315:242,1,115,2|2,0:0|0:1,0:0:0:0:
293,335,30012,1,0,0:0:0:0:
208,274,30324,2,0,P|185:264|131:273,1,57.5,2|8,0:1|0:0,0:0:0:0:
105,284,30637,6,0,B|88:235|88:235|113:160,1,115,4|8,0:0|0:0,0:0:0:0:
196,122,31262,2,0,B|203:88|203:88|189:46,2,57.5,8|8|8,1:2|0:0|0:0,0:0:0:0:
218,168,31730,1,4,0:0:0:0:
218,168,32980,6,0,P|273:163|339:158,1,115,4|2,0:1|0:1,0:0:0:0:
380,177,33449,1,8,0:0:0:0:
459,110,33762,2,0,P|460:86|463:36,2,57.5,2|2|8,0:1|0:1|0:0,0:0:0:0:
380,177,34387,2,0,P|387:241|393:301,1,115,2|8,0:0|0:0,0:0:0:0:
308,353,35012,2,0,P|266:319|202:330,1,115,0|8,0:0|0:0,0:0:0:0:
164,352,35480,1,2,0:0:0:0:
164,352,35637,6,0,P|100:346|29:339,1,115,4|8,0:0|0:0,0:0:0:0:
0,250,36262,1,2,0:1:0:0:
62,167,36574,1,8,0:0:0:0:
0,83,36887,2,0,P|44:56|109:66,1,115,2|8,0:0|0:0,0:1:0:0:
181,133,37512,2,0,P|215:130|252:127,1,57.5,2|2,0:1|0:1,0:0:0:0:
275,92,37824,2,0,P|303:94|332:96,1,57.5,8|8,0:0|0:0,0:0:0:0:
383,84,38137,6,0,P|376:145|369:215,1,115,4|8,0:0|0:0,0:0:0:0:
447,267,38762,2,0,P|452:302|456:343,2,57.5,2|2|8,0:1|0:1|0:0,0:0:0:0:
370,198,39387,2,0,P|319:171|261:190,1,115,2|8,0:1|0:0,0:0:0:0:
186,245,40012,2,0,P|130:261|82:232,1,115,0|8,0:0|0:0,0:0:0:0:
47,197,40480,1,0,0:0:0:0:
47,197,40637,6,0,P|54:258|61:328,1,115,4|8,0:0|0:0,0:0:0:0:
156,348,41262,2,0,B|200:366|200:366|237:359|288:346,1,115,2|8,0:1|0:0,0:0:0:0:
286,304,41730,2,0,P|337:277|395:296,1,115,4|2,0:0|0:1,0:0:0:0:
420,333,42199,1,8,0:0:0:0:
506,275,42512,2,0,P|500:217|493:160,1,115,8|8,0:0|0:0,0:0:0:0:
441,155,42980,2,0,P|446:97|453:40,1,115,4|2,0:0|0:1,0:0:0:0:
407,15,43449,1,8,0:0:0:0:
349,101,43762,2,0,P|344:140|341:170,2,57.5,2|2|8,3:1|0:1|0:0,0:1:0:0:
324,55,44230,6,0,P|273:28|215:47,1,115,4|2,0:1|0:1,0:0:0:0:
184,80,44699,1,2,0:0:0:0:
104,146,45012,2,0,P|110:203|116:260,1,115,12|2,0:0|0:1,0:0:0:0:
196,326,45637,1,2,0:0:0:0:
291,287,45949,1,2,0:1:0:0:
376,345,46262,2,0,B|394:306|394:306|375:224,1,115,12|0,0:0|0:0,0:0:0:0:
341,198,46730,6,0,P|346:146|353:83,1,115,4|2,0:0|0:1,0:0:0:0:
323,41,47199,1,2,0:0:0:0:
241,105,47512,2,0,P|182:97|110:89,1,115,12|2,0:0|0:1,0:0:0:0:
24,106,48137,2,0,P|-8:156|16:213,1,115,2|2,0:0|0:1,0:1:0:0:
102,248,48762,2,0,P|96:273|89:323,2,57.5,12|2|8,0:0|0:1|0:0,0:0:0:0:
143,217,49230,6,0,P|200:223|257:231,1,115,4|2,0:1|0:1,0:0:0:0:
298,262,49699,1,12,0:0:0:0:
389,213,50012,2,0,B|407:174|407:174|388:92,1,115,10|8,0:0|0:0,0:0:0:0:
299,55,50637,2,0,P|241:61|184:69,1,115,10|2,0:0|0:1,0:0:0:0:
82,51,51262,2,0,P|44:95|65:160,1,115,8|8,3:2|0:0,0:0:0:0:
100,170,51731,6,0,P|138:214|117:279,1,115,4|8,0:1|0:0,0:0:0:0:
86,296,52199,1,8,0:0:0:0:
177,344,52512,2,0,P|211:341|248:338,1,57.5,8|8,0:0|0:0,0:0:0:0:
271,303,52824,2,0,P|299:305|328:307,1,57.5,8|10,0:0|0:0,0:0:0:0:
374,330,53137,1,4,0:3:0:0:
439,79,53918,1,12,0:0:0:0:
374,160,54230,6,0,P|316:155|259:151,1,115,4|2,0:1|0:0,0:3:0:0:
210,168,54699,1,8,0:0:0:0:
122,112,55012,2,0,P|124:84|128:42,2,57.5,2|0|8,0:1|0:0|0:0,0:0:0:0:
86,149,55480,2,0,P|93:205|100:273,1,115,2|0,0:0|0:0,0:0:0:0:
77,310,55949,1,8,0:0:0:0:
165,363,56262,2,0,P|226:357|293:352,1,115,2|8,0:1|0:0,0:0:0:0:
322,323,56730,1,0,0:0:0:0:
322,323,56887,6,0,B|340:284|340:284|321:202,1,115,4|8,0:0|0:0,0:0:0:0:
229,170,57512,2,0,B|224:143|224:143|233:110,2,57.5,2|2|8,0:1|0:0|0:0,0:0:0:0:
233,221,57980,2,0,B|188:247|188:247|119:237,1,115,2|2,0:0|0:0,0:0:0:0:
78,255,58449,1,8,0:0:0:0:
0,189,58762,2,0,P|4:152|9:106,1,57.5,2|2,0:1|0:0,0:1:0:0:
48,102,59074,2,0,P|44:65|39:19,1,57.5,8|8,0:0|0:2,0:0:0:0:
86,18,59387,6,0,P|143:22|200:28,1,115,4|8,0:1|0:0,0:0:0:0:
278,96,60012,2,0,P|320:92|358:92,2,57.5,2|2|8,0:1|0:0|0:0,0:0:0:0:
230,116,60480,2,0,P|202:168|223:221,1,115,2|2,0:0|0:0,0:0:0:0:
257,253,60949,1,8,0:0:0:0:
189,331,61262,2,0,P|131:325|74:320,1,115,2|8,0:1|0:0,0:0:0:0:
26,301,61730,6,0,B|8:262|8:262|27:180,1,115,4|2,0:0|0:1,0:0:0:0:
7,142,62199,1,8,0:0:0:0:
100,99,62511,2,0,P|128:101|157:103,1,57.5,8|2,0:0|0:1,0:0:0:0:
197,136,62823,2,0,P|225:134|254:131,1,57.5,2|2,3:1|0:1,0:0:0:0:
294,98,63136,2,0,P|343:101|414:106,1,115,12|10,0:0|0:0,0:0:0:0:
455,126,63604,1,2,0:1:0:0:
441,228,63917,1,2,0:1:0:0:
425,330,64230,6,0,B|366:346|366:346|293:313,1,115,2|0,0:0|0:0,0:0:0:0:
303,273,64699,2,0,P|252:246|194:265,1,115,4|2,1:0|0:1,0:0:0:0:
102,298,65324,1,8,0:0:0:0:
102,298,65480,2,0,P|107:240|115:183,1,115,2|2,0:0|0:0,0:0:0:0:
99,134,65949,1,8,0:0:0:0:
181,71,66262,2,0,B|219:56|219:56|305:68,1,115,2|8,0:1|0:0,0:1:0:0:
337,91,66730,1,2,0:0:0:0:
337,91,66887,6,0,P|329:148|323:205,1,115,4|8,0:0|0:0,0:0:0:0:
383,290,67512,2,0,P|414:286|458:283,2,57.5,2|0|8,0:1|0:0|0:0,0:0:0:0:
342,321,67980,2,0,P|282:315|218:310,1,115,2|0,0:0|0:0,0:1:0:0:
180,287,68449,1,12,0:0:0:0:
84,326,68762,2,0,P|86:354|88:383,2,57.5,2|2|8,0:1|0:0|0:0,0:0:0:0:
36,305,69230,6,0,B|18:266|18:266|37:184,1,115,4|2,0:1|0:1,0:0:0:0:
72,160,69699,1,8,0:0:0:0:
149,228,70012,2,0,P|204:223|278:217,1,115,8|8,0:0|0:0,0:0:0:0:
307,190,70480,2,0,P|364:194|421:199,1,115,4|2,0:1|0:1,0:1:0:0:
464,170,70949,1,8,0:0:0:0:
395,91,71262,2,0,P|400:50|407:12,2,57.5,8|2|8,0:0|0:1|0:0,0:0:0:0:
344,101,71730,6,0,P|286:95|229:91,1,115,4|2,0:1|0:1,0:1:0:0:
190,125,72199,1,8,0:0:0:0:
87,106,72512,2,0,B|84:77|84:77|97:44,2,57.5,8|8|8,0:0|0:0|1:2,0:0:0:0:
112,151,72980,2,0,P|105:203|96:275,1,115,0|0,1:0|1:0,0:0:0:0:
163,345,73605,2,0,P|205:308|260:315,1,115,0|8,1:0|0:0,0:0:0:0:
353,360,74230,6,0,B|375:308|375:308|350:231,1,115,4|2,0:1|0:1,0:0:0:0:
328,208,74699,1,2,0:0:0:0:
229,176,75012,2,0,P|169:182|114:189,1,115,8|2,0:0|0:1,0:0:0:0:
66,208,75480,2,0,P|36:254|63:315,1,115,4|2,0:0|0:1,0:0:0:0:
92,342,75949,1,2,0:0:0:0:
194,329,76262,2,0,P|221:318|249:319,2,57.5,8|2|8,0:0|0:1|0:0,0:0:0:0:
162,288,76730,6,0,B|142:250|142:250|153:167,1,115,4|2,0:0|0:1,0:0:0:0:
119,137,77199,1,2,0:0:0:0:
208,84,77512,2,0,P|204:46|201:21,2,57.5,8|2|8,0:0|0:1|0:0,0:0:0:0:
230,130,77980,2,0,P|281:152|340:124,1,115,0|0,1:0|1:0,0:0:0:0:
425,83,78605,2,0,P|420:143|415:208,1,115,0|10,1:0|0:0,0:0:0:0:
385,296,79230,6,0,P|338:265|275:282,1,115,4|2,0:1|0:1,0:0:0:0:
242,309,79699,1,8,0:0:0:0:
160,245,80012,2,0,P|129:247|98:250,2,57.5,2|2|8,0:0|0:1|0:0,0:0:0:0:
205,220,80480,2,0,B|223:181|223:181|204:99,1,115,2|2,0:0|0:1,0:0:0:0:
171,72,80949,1,8,0:0:0:0:
269,38,81262,2,0,P|312:43|392:50,1,115,2|8,0:0|0:0,0:0:0:0:
432,64,81730,6,0,P|394:108|415:173,1,115,4|2,0:0|0:1,0:0:0:0:
450,183,82199,2,0,P|488:227|467:292,1,115,2|8,0:0|0:0,0:0:0:0:
394,339,82824,1,8,0:0:0:0:
394,339,82980,2,0,P|335:334|263:329,1,115,4|2,0:1|0:1,0:0:0:0:
229,345,83449,1,8,0:0:0:0:
135,300,83762,2,0,P|106:296|78:294,2,57.5,8|8|8,0:0|0:0|0:0,0:0:0:0:
175,267,84230,6,0,B|207:191|207:191|172:109,1,172.5,4|4,0:0|0:3,0:0:0:0:
305,28,85168,2,0,P|347:34|382:38,1,57.5,4|2,0:3|0:3,0:0:0:0:
413,34,85480,2,0,B|378:116|378:116|410:192,1,172.5,4|4,0:3|0:3,0:0:0:0:
495,252,86262,1,2,0:1:0:0:
427,330,86574,1,8,0:0:0:0:
427,330,86730,6,0,B|344:353|344:279|256:318,1,172.5,4|4,0:1|0:3,0:0:0:0:
167,353,87512,2,0,P|104:345|39:339,2,115,4|4|2,0:3|0:3|0:0,0:0:0:0:
261,315,88449,2,0,P|287:263|251:200,1,115,2|2,0:0|0:0,0:0:0:0:
171,182,89074,2,0,P|176:150|181:115,1,57.5,8|4,0:0|0:0,0:0:0:0:
