osu file format v14

[General]
AudioFilename: blow out.mp3
AudioLeadIn: 0
PreviewTime: 53447
Countdown: 0
SampleSet: Soft
StackLeniency: 0.3
Mode: 0
LetterboxInBreaks: 0
WidescreenStoryboard: 0

[Editor]
DistanceSpacing: 1.4
BeatDivisor: 4
GridSize: 4
TimelineZoom: 1.8

[Metadata]
Title:Blow out
TitleUnicode:Blow out
Artist:Suzuki Konomi
ArtistUnicode:鈴木このみ
Creator:Kalibe
Version:Insane
Source:ロクでなし魔術講師と禁忌教典
Tags:of bastard magic instructor Rokudenashi Majutsu Koushi to Akashic Records tv size op opening irohas mugiwarasekai kibbleru
BeatmapID:1261433
BeatmapSetID:596580

[Difficulty]
HPDrainRate:5.5
CircleSize:4
OverallDifficulty:7.5
ApproachRate:9
SliderMultiplier:1.55
SliderTickRate:1

[Events]
//Background and Video events
0,0,"819668.jpg",0,0
Video,0,"rokudenashi opening.avi"
//Break Periods
//Storyboard Layer 0 (Background)
//Storyboard Layer 1 (Fail)
//Storyboard Layer 2 (Pass)
//Storyboard Layer 3 (Foreground)
//Storyboard Sound Samples

[TimingPoints]
-613,312.5,4,2,2,20,1,0
1888,-100,4,1,2,25,0,0
3138,-100,4,2,2,30,0,0
4388,-100,4,1,2,35,0,0
5638,-100,4,2,2,45,0,0
6888,-100,4,1,2,50,0,0
7824,-100,4,2,2,55,0,0
7981,-100,4,2,2,50,0,0
9231,-100,4,2,2,65,0,0
10168,-133.333333333333,4,2,2,65,0,0
10403,-100,4,2,2,5,0,0
10481,-100,4,2,2,55,0,0
15403,-100,4,2,2,5,0,0
15479,-100,4,2,2,60,0,0
20479,-111.111111111111,4,2,2,55,0,0
20481,-111.111111111111,4,2,2,55,0,0
22979,-125,4,2,2,50,0,0
32979,-111.111111111111,4,2,2,60,0,0
44229,-125,4,2,2,55,0,0
49230,-111.111111111111,4,2,2,65,0,0
52044,-111.111111111111,4,2,2,50,0,0
52513,-111.111111111111,4,2,2,60,0,0
52825,-111.111111111111,4,2,2,70,0,0
53138,-111.111111111111,4,2,2,35,0,0
53450,-111.111111111111,4,2,2,40,0,0
53918,-133.333333333333,4,2,2,65,0,0
54153,-111.111111111111,4,2,2,5,0,0
54230,-99.9999999999999,4,2,2,75,0,1
63449,-99.9999999999999,4,2,2,65,0,0
64231,-99.9999999999999,4,2,2,55,0,0
64544,-99.9999999999999,4,2,2,20,0,0
64699,-90.9090909090909,4,2,2,75,0,1
65012,-99.9999999999999,4,2,2,75,0,1
69231,-99.9999999999999,4,2,2,80,0,1
72980,-99.9999999999999,4,2,2,65,0,0
74231,-99.9999999999999,4,2,2,60,0,0
79153,-99.9999999999999,4,2,2,5,0,0
79231,-99.9999999999999,4,2,2,65,0,0
84229,-111.111111111111,4,2,2,60,0,0

[Colours]
Combo1 : 255,255,0
Combo2 : 128,128,255
Combo3 : 0,84,168
Combo4 : 0,128,255

[HitObjects]
256,192,480,12,2,7823,0:1:0:0:
128,312,7980,6,0,P|202:301|292:288,1,155,4|0,0:1|0:0,0:0:0:0:
388,252,8449,2,0,P|425:262|462:272,1,77.5,2|0,0:0|0:0,0:0:0:0:
330,171,8762,2,0,P|292:181|255:191,1,77.5,0|0,0:0|0:0,0:0:0:0:
156,272,9074,1,2,0:0:0:0:
16,164,9230,6,0,P|52:176|88:200,1,77.5,0|0,1:2|2:0,0:0:0:0:
104,360,9543,2,0,P|116:324|140:288,1,77.5,0|0,1:2|0:0,0:0:0:0:
255,191,9855,2,0,P|242:154|221:121,1,77.5,0|0,1:2|0:0,0:0:0:0:
50,56,10168,6,0,P|91:78|134:74,1,87.1875033259393,2|0,0:1|0:0,0:0:0:0:
160,64,10480,6,0,B|220:72|220:72|252:56|252:56|324:64,1,155,4|2,0:1|0:1,0:0:0:0:
444,200,10949,1,2,0:0:0:0:
384,104,11105,1,2,0:1:0:0:
284,216,11262,2,0,P|275:253|264:304,1,77.5,8|0,0:0|0:0,0:0:0:0:
364,252,11574,1,2,0:1:0:0:
188,324,11730,6,0,B|260:300|260:372|340:340,1,155,4|2,0:0|0:1,0:0:0:0:
480,296,12199,2,0,L|396:272,1,77.5,2|0,0:0|0:0,0:0:0:0:
264,176,12512,1,8,0:0:0:0:
384,104,12668,1,2,0:1:0:0:
316,260,12824,1,8,0:0:0:0:
196,128,12980,6,0,P|264:148|352:176,1,155,4|2,0:0|0:1,0:0:0:0:
480,108,13449,2,0,L|392:88,1,77.5,2|2,0:0|0:1,0:0:0:0:
232,232,13762,1,12,0:0:0:0:
196,112,13918,1,2,0:1:0:0:
352,156,14074,1,8,0:0:0:0:
228,260,14230,5,0,1:0:0:0:
333,69,14543,1,0,1:0:0:0:
406,272,14855,1,0,1:0:0:0:
311,226,15012,5,0,0:0:0:0:
311,226,15090,1,0,0:0:0:0:
311,226,15168,2,0,B|245:241|245:241|196:211,1,116.25,10|0,0:0|2:0,0:0:0:0:
203,215,15480,6,0,P|224:300|238:372,1,155,4|2,0:1|0:1,0:0:0:0:
388,280,15949,2,0,P|351:268|313:258,1,77.5,8|0,0:0|0:0,0:0:0:0:
111,154,16262,2,0,P|147:142|185:132,1,77.5,2|2,0:0|0:1,0:0:0:0:
320,48,16574,1,8,0:0:0:0:
260,168,16730,6,0,P|240:208|224:248,1,77.5,2|0,0:0|0:0,0:0:0:0:
316,344,17043,1,2,0:1:0:0:
260,168,17199,1,8,0:0:0:0:
152,264,17355,1,2,0:1:0:0:
152,264,17433,1,0,0:0:0:0:
152,264,17512,1,2,0:0:0:0:
232,328,17668,1,2,0:1:0:0:
124,176,17824,1,8,0:0:0:0:
28,312,17980,6,0,P|98:298|156:356,1,155,4|2,0:0|0:1,0:0:0:0:
344,240,18449,2,0,L|260:256,1,77.5,8|2,0:0|0:1,0:0:0:0:
128,176,18762,2,0,L|216:160,1,77.5,8|2,0:0|0:1,0:0:0:0:
344,104,19074,1,8,0:0:0:0:
240,36,19230,6,0,P|188:25|156:20,1,77.5,2|8,0:0|0:0,0:0:0:0:
124,20,19465,1,8,0:0:0:0:
124,20,19543,2,0,P|134:57|143:95,1,77.5,8|12,0:0|0:0,0:0:0:0:
248,144,19855,1,2,0:1:0:0:
100,208,20012,1,8,0:0:0:0:
248,272,20168,1,10,0:0:0:0:
160,108,20324,1,8,1:2:0:0:
24,232,20480,6,0,P|87:248|168:272,1,139.499995742798,4|0,0:1|0:0,0:0:0:0:
232,356,20949,2,0,L|312:340,1,69.749997871399,4|0,0:3|0:0,0:0:0:0:
372,272,21262,2,0,L|452:292,1,69.749997871399,2|4,0:0|0:3,0:0:0:0:
296,204,21574,1,0,3:0:0:0:
448,140,21730,6,0,P|376:156|326:114,1,139.499995742798,4|0,0:3|0:0,0:0:0:0:
204,40,22199,2,0,L|236:120,1,69.749997871399,4|2,0:3|0:1,0:0:0:0:
284,240,22512,1,2,0:0:0:0:
144,152,22668,1,8,0:0:0:0:
312,88,22824,1,8,0:0:0:0:
192,212,22980,6,0,P|126:192|64:176,1,124,4|0,0:1|0:0,0:0:0:0:
8,288,23449,2,0,L|74:268,1,62,2|0,0:0|0:0,0:0:0:0:
208,192,23762,2,0,L|267:209,1,62,2|0,0:1|0:0,0:0:0:0:
316,308,24074,1,2,0:1:0:0:
224,384,24230,1,2,0:0:0:0:
224,384,24308,1,0,0:0:0:0:
224,384,24387,6,0,P|200:340|224:268,1,124,2|2,0:1|0:0,0:0:0:0:
378,180,24855,2,0,P|322:216|258:204,1,124,8|2,0:0|0:0,0:0:0:0:
192,156,25324,1,2,0:1:0:0:
312,104,25480,1,8,0:0:0:0:
192,48,25637,6,0,P|257:64|320:80,1,124,2|2,0:0|0:1,0:0:0:0:
404,132,26105,2,0,P|418:93|428:68,1,62,2|0,0:0|0:0,0:0:0:0:
296,212,26418,2,0,P|306:241|317:270,1,62,0|2,0:0|0:1,0:0:0:0:
508,244,26730,1,8,0:0:0:0:
508,244,26887,6,0,L|384:216,1,124,2|8,0:0|0:0,0:0:0:0:
304,280,27355,1,2,0:1:0:0:
192,220,27512,2,0,P|147:228|124:236,1,62,0|0,0:0|0:0,0:0:0:0:
20,356,27824,1,8,0:0:0:0:
0,248,27980,1,0,0:0:0:0:
0,248,28058,1,0,0:0:0:0:
0,248,28137,6,0,L|68:272,1,62,4|2,0:0|0:1,0:0:0:0:
160,356,28449,2,0,L|228:336,1,62,2|0,0:0|0:0,0:0:0:0:
320,256,28762,2,0,P|382:270|456:292,1,124,2|2,0:1|0:1,0:0:0:0:
384,184,29230,1,0,0:0:0:0:
279,321,29387,6,0,P|231:334|199:345,1,62,2|0,0:0|0:0,0:0:0:0:
120,232,29699,2,0,P|167:245|200:256,1,62,2|2,0:1|0:0,0:0:0:0:
292,160,30012,1,0,0:0:0:0:
204,136,30168,2,0,L|160:124,2,31,2|0|2,0:0|0:0|0:1,0:0:0:0:
292,160,30480,1,8,0:0:0:0:
187,249,30637,5,4,0:0:0:0:
284,128,30793,1,8,0:0:0:0:
303,112,30871,1,2,0:1:0:0:
325,100,30949,1,8,0:0:0:0:
348,93,31027,1,0,1:0:0:0:
372,89,31105,1,8,0:0:0:0:
396,93,31183,1,8,0:0:0:0:
419,102,31262,6,0,L|430:139,5,31,8|8|8|8|0|0,1:2|0:0|0:0|0:0|0:0|0:0,0:0:0:0:
383,197,31730,6,0,B|448:230|496:175|496:175|461:246|461:246|496:300|459:349,1,310,4|0,0:0|0:0,0:0:0:0:
361,307,32668,2,0,L|397:298,2,31,2|2|8,0:0|0:0|0:0,0:0:0:0:
228,336,32980,6,0,P|136:316|80:304,1,139.499995742798,4|2,0:1|0:1,0:0:0:0:
10,192,33449,2,0,P|53:184|101:176,1,69.749997871399,8|0,0:0|0:0,0:0:0:0:
171,75,33762,2,0,P|127:67|80:59,1,69.749997871399,2|2,0:1|0:1,0:0:0:0:
168,232,34074,1,8,0:0:0:0:
276,184,34230,1,0,0:0:0:0:
91,306,34387,6,0,L|12:288,1,69.749997871399,2|0,0:0|0:0,0:0:0:0:
184,200,34699,1,8,0:0:0:0:
244,312,34855,2,0,P|320:352|376:340,1,139.499995742798,0|2,0:0|0:1,0:0:0:0:
512,288,35324,1,8,0:0:0:0:
380,248,35480,1,2,0:0:0:0:
456,128,35637,6,0,L|472:204,1,69.749997871399,4|0,0:0|0:0,0:0:0:0:
388,332,35949,1,8,0:0:0:0:
292,252,36105,2,0,P|243:265|216:276,1,69.749997871399,2|0,0:0|0:0,0:0:0:0:
92,168,36418,1,2,0:1:0:0:
92,168,36574,2,0,P|124:179|158:188,1,69.749997871399,8|0,0:0|0:0,0:0:0:0:
336,80,36887,5,2,0:0:0:0:
336,80,37043,1,2,0:1:0:0:
208,45,37199,2,0,P|229:116|252:189,1,139.499995742798,10|2,0:0|0:1,0:0:0:0:
248,178,37668,1,2,0:1:0:0:
132,92,37824,1,8,0:0:0:0:
98,83,37902,1,8,0:0:0:0:
63,87,37980,1,8,0:0:0:0:
33,105,38058,1,8,0:0:0:0:
10,131,38137,6,0,P|20:173|32:210,1,69.749997871399,4|0,0:0|0:0,0:0:0:0:
195,245,38449,2,0,P|161:254|128:264,1,69.749997871399,8|2,0:0|0:0,0:0:0:0:
0,328,38762,2,0,P|68:340|152:368,1,139.499995742798,2|8,0:1|0:0,0:0:0:0:
195,245,39230,1,0,0:0:0:0:
316,328,39387,6,0,L|404:352,1,69.749997871399,2|2,0:1|0:1,0:0:0:0:
292,236,39699,1,8,0:0:0:0:
212,328,39855,2,0,P|162:339|124:352,1,69.749997871399,2|0,0:0|0:0,0:0:0:0:
359,252,40168,2,0,P|326:243|292:236,1,69.749997871399,2|8,0:0|0:0,0:0:0:0:
184,172,40480,1,0,0:0:0:0:
184,172,40558,1,0,0:0:0:0:
184,172,40637,6,0,P|152:112|180:44,1,139.499995742798,4|8,0:0|0:0,0:0:0:0:
312,124,41105,2,0,L|232:104,1,69.749997871399,2|2,0:0|0:1,0:0:0:0:
24,184,41418,2,0,L|104:204,1,69.749997871399,2|8,0:0|0:0,0:0:0:0:
288,328,41730,6,0,P|220:288|152:312,1,139.499995742798,4|2,0:0|0:1,0:0:0:0:
48,368,42199,1,12,0:0:0:0:
48,368,42355,1,2,0:1:0:0:
112,220,42512,1,8,0:0:0:0:
112,220,42668,1,2,0:1:0:0:
164,301,42824,5,8,0:0:0:0:
60,136,42980,1,4,0:0:0:0:
60,136,43293,5,2,0:1:0:0:
200,196,43449,1,8,0:0:0:0:
200,196,43527,1,8,0:0:0:0:
200,196,43605,1,2,0:1:0:0:
40,292,43762,2,0,L|0:304,2,34.8749989356995,2|2|2,3:1|3:1|0:1,0:0:0:0:
112,224,44074,1,8,0:0:0:0:
188,340,44230,6,0,B|235:352|267:364|267:364|303:336,1,124,4|2,0:1|0:1,0:0:0:0:
464,272,44699,2,0,B|416:284|384:296|384:296|348:268,1,124,2|12,0:0|0:0,0:0:0:0:
336,248,45324,5,2,0:1:0:0:
408,176,45480,2,0,L|472:192,1,62,2|2,0:1|0:0,0:0:0:0:
268,88,45793,1,2,0:1:0:0:
340,160,45949,2,0,L|404:144,1,62,2|0,0:1|0:0,0:0:0:0:
213,248,46262,2,0,L|149:232,1,62,12|2,0:0|0:1,0:0:0:0:
180,140,46574,1,0,0:0:0:0:
280,296,46730,6,0,P|212:288|168:324,1,124,4|2,0:0|0:1,0:0:0:0:
24,208,47199,2,0,P|73:242|133:231,1,124,2|12,0:0|0:0,0:0:0:0:
157,215,47824,5,2,0:1:0:0:
60,284,47980,2,0,L|76:352,1,62,2|2,0:1|0:0,0:0:0:0:
90,169,48293,1,2,0:1:0:0:
170,319,48449,2,0,L|230:304,1,62,2|0,0:1|0:0,0:0:0:0:
400,216,48762,2,0,L|339:201,1,62,12|2,0:0|0:1,0:0:0:0:
244,104,49074,1,8,0:0:0:0:
420,108,49230,6,0,P|351:92|283:78,1,139.499995742798,4|2,0:1|0:1,0:0:0:0:
188,12,49699,2,0,P|153:18|120:27,1,69.749997871399,8|2,0:0|0:1,0:0:0:0:
12,172,50012,2,0,P|45:163|79:156,1,69.749997871399,10|2,0:0|0:1,0:0:0:0:
300,288,50324,2,0,P|266:279|232:272,1,69.749997871399,8|2,0:0|0:1,0:0:0:0:
84,340,50637,5,10,0:0:0:0:
84,340,50715,1,0,0:0:0:0:
84,340,50793,1,0,0:0:0:0:
136,220,50949,2,0,L|148:256,2,34.8749989356995,2|0|2,0:1|0:0|0:0,0:0:0:0:
104,112,51262,1,8,3:2:0:0:
40,260,51418,1,2,3:1:0:0:
204,176,51574,1,8,0:0:0:0:
44,48,51730,6,0,P|107:80|180:56,1,139.499995742798,4|8,0:1|0:0,0:0:0:0:
296,0,52199,1,8,0:0:0:0:
172,176,52355,1,8,0:0:0:0:
360,100,52512,1,8,0:0:0:0:
180,36,52668,1,8,0:0:0:0:
284,216,52824,1,8,0:0:0:0:
200,107,52980,1,10,0:0:0:0:
96,172,53137,6,0,P|68:240|104:304,1,139.499995742798,4|2,0:3|0:0,0:0:0:0:
228,248,53605,2,0,L|156:232,1,69.749997871399,2|0,0:0|0:0,0:0:0:0:
0,160,53918,6,0,P|41:168|88:148,1,87.1875033259393,12|0,0:0|0:0,0:0:0:0:
108,124,54230,6,0,B|180:80|180:160|260:108,1,155,4|2,0:1|0:0,0:0:0:0:
380,32,54699,2,0,L|288:12,1,77.5,8|0,0:0|0:0,0:0:0:0:
416,160,55012,2,0,L|491:143,1,77.5,2|0,0:1|0:0,0:0:0:0:
328,100,55324,1,8,0:0:0:0:
235,202,55480,6,0,P|205:264|238:341,1,155,2|0,0:0|0:0,0:0:0:0:
389,285,55949,2,0,P|331:274|301:269,1,77.5,8|0,0:0|0:0,0:0:0:0:
124,196,56262,2,0,P|181:185|212:180,1,77.5,2|2,0:1|0:0,0:0:0:0:
312,353,56574,2,0,P|273:345|235:339,1,77.5,8|0,0:0|0:0,0:0:0:0:
16,296,56887,6,0,P|90:282|172:265,1,155,4|8,0:0|0:0,0:0:0:0:
276,168,57355,1,0,0:0:0:0:
152,100,57512,2,0,P|140:136|128:188,1,77.5,2|2,0:1|0:0,0:0:0:0:
240,72,57824,1,8,0:0:0:0:
48,52,57980,6,0,P|85:41|132:28,1,77.5,2|4,0:0|0:0,0:0:0:0:
340,60,58293,2,0,P|302:70|265:81,1,77.5,2|8,0:0|0:0,0:0:0:0:
56,153,58605,2,0,P|108:165|144:181,1,77.5,2|2,0:0|0:1,0:0:0:0:
220,280,58918,1,2,0:0:0:0:
348,144,59074,1,8,0:0:0:0:
344,170,59152,1,0,0:0:0:0:
339,196,59230,1,8,0:2:0:0:
336,220,59308,1,8,0:2:0:0:
331,246,59387,6,0,P|371:233|413:228,1,77.5,4|2,0:1|0:0,0:0:0:0:
308,352,59699,1,8,0:0:0:0:
232,252,59855,1,2,0:0:0:0:
120,356,60012,1,2,0:1:0:0:
120,356,60168,2,0,P|55:342|16:336,1,77.5,2|8,0:0|0:0,0:0:0:0:
0,180,60480,6,0,P|80:200|140:156,1,155,2|2,0:0|0:0,0:0:0:0:
232,30,60949,1,8,0:0:0:0:
84,88,61105,1,0,0:0:0:0:
208,200,61262,2,0,P|247:208|312:224,1,77.5,2|0,0:1|0:0,0:0:0:0:
356,156,61574,1,8,0:0:0:0:
196,284,61730,6,0,P|106:304|12:328,1,155,4|2,0:0|0:1,0:0:0:0:
152,376,62199,1,8,0:0:0:0:
208,200,62355,1,2,0:1:0:0:
104,264,62512,1,8,0:0:0:0:
104,264,62590,1,8,0:0:0:0:
104,264,62668,1,2,0:1:0:0:
244,344,62824,2,0,L|284:356,2,38.75,2|2|2,3:1|3:1|0:1,0:0:0:0:
104,264,63137,5,12,0:0:0:0:
208,200,63293,1,0,0:0:0:0:
80,144,63449,5,10,0:0:0:0:
220,312,63605,1,2,0:1:0:0:
220,312,63918,1,2,0:1:0:0:
220,312,64230,6,0,P|328:260|304:216,1,193.75,2|0,0:0|0:0,0:0:0:0:
313,225,64699,6,0,L|487:258,1,170.500005203247,4|2,1:1|0:1,0:0:0:0:
420,156,65168,1,2,0:0:0:0:
336,320,65324,1,8,0:0:0:0:
280,196,65480,1,2,0:0:0:0:
160,312,65637,5,4,0:0:0:0:
160,312,65793,2,0,P|198:303|236:295,1,77.5,2|8,0:0|0:0,0:0:0:0:
152,220,66105,1,2,0:0:0:0:
40,328,66262,2,0,P|24:288|24:252,1,77.5,2|0,0:1|0:0,0:0:0:0:
103,155,66574,1,8,0:0:0:0:
8,68,66730,6,0,P|76:104|144:72,1,155,2|2,0:0|0:1,0:0:0:0:
248,8,67199,2,0,L|324:24,1,77.5,8|0,0:0|0:0,0:0:0:0:
179,171,67512,2,0,L|103:155,1,77.5,2|0,0:1|0:0,0:0:0:0:
256,88,67824,1,8,0:0:0:0:
340,188,67980,6,0,P|360:284|332:336,1,155,2|0,0:0|0:0,0:0:0:0:
256,256,68449,1,12,0:0:0:0:
376,172,68605,2,0,L|464:196,1,77.5,2|2,0:0|0:1,0:0:0:0:
335,331,68918,1,2,0:0:0:0:
232,240,69074,1,8,0:0:0:0:
232,240,69152,1,0,0:0:0:0:
232,240,69230,6,0,B|156:212|156:284|80:252,1,155,4|2,0:1|0:1,0:0:0:0:
36,152,69699,2,0,L|120:168,1,77.5,8|0,0:0|0:0,0:0:0:0:
284,344,70012,2,0,L|207:329,1,77.5,8|0,0:0|0:0,0:0:0:0:
84,253,70324,1,8,0:0:0:0:
228,200,70480,6,0,P|244:108|216:56,1,155,4|2,0:1|0:1,0:0:0:0:
136,0,70949,1,10,0:0:0:0:
292,84,71105,1,2,0:1:0:0:
112,166,71262,1,8,0:0:0:0:
212,248,71418,1,2,0:1:0:0:
348,152,71574,1,8,0:0:0:0:
468,288,71730,6,0,P|382:272|316:260,1,155,4|2,0:1|0:1,0:0:0:0:
220,160,72199,1,8,0:0:0:0:
220,160,72277,1,8,0:0:0:0:
220,160,72355,1,2,0:1:0:0:
340,124,72512,1,8,0:0:0:0:
340,124,72590,1,0,0:0:0:0:
340,124,72668,1,8,0:0:0:0:
240,48,72824,1,8,1:2:0:0:
300,216,72980,5,0,1:0:0:0:
471,36,73293,1,0,1:0:0:0:
300,216,73605,1,0,1:0:0:0:
38,118,73918,1,8,0:0:0:0:
38,118,74230,6,0,P|102:134|173:86,1,155,4|2,0:1|0:1,0:0:0:0:
300,216,74699,2,0,P|242:201|220:196,1,77.5,2|2,0:0|0:1,0:0:0:0:
24,300,75012,2,0,P|81:285|104:280,1,77.5,8|0,0:0|0:0,0:0:0:0:
218,231,75324,1,2,0:1:0:0:
224,360,75480,6,0,P|260:296|228:224,1,155,4|2,0:0|0:1,0:0:0:0:
132,160,75949,2,0,L|52:144,1,77.5,2|0,0:0|0:0,0:0:0:0:
112,264,76262,1,8,0:0:0:0:
208,200,76418,1,2,0:1:0:0:
124,80,76574,1,8,0:0:0:0:
236,24,76730,6,0,P|164:64|96:40,1,155,4|2,0:0|0:1,0:0:0:0:
0,180,77199,2,0,P|26:172|84:160,1,77.5,2|2,0:0|0:1,0:0:0:0:
174,299,77512,2,0,P|136:290|98:280,1,77.5,8|2,0:0|0:1,0:0:0:0:
173,188,77824,1,8,0:0:0:0:
288,243,77980,5,0,1:0:0:0:
155,71,78293,1,0,1:0:0:0:
98,280,78605,1,0,1:0:0:0:
173,188,78762,5,0,0:0:0:0:
173,188,78840,1,0,0:0:0:0:
173,188,78918,2,0,P|233:212|281:192,1,116.25,10|0,0:0|2:0,0:0:0:0:
278,194,79230,6,0,P|313:128|266:65,1,155,4|2,0:1|0:1,0:0:0:0:
140,0,79699,1,8,0:0:0:0:
272,67,79855,1,0,0:0:0:0:
136,160,80012,1,2,0:0:0:0:
136,160,80168,2,0,P|105:152|60:140,1,77.5,2|8,0:1|0:0,0:0:0:0:
212,248,80480,6,0,P|249:238|287:230,1,77.5,2|2,0:1|0:1,0:0:0:0:
416,128,80793,2,0,P|378:118|340:110,1,77.5,2|8,0:0|0:0,0:0:0:0:
416,280,81105,2,0,P|453:270|491:262,1,77.5,2|2,0:1|0:0,0:0:0:0:
360,200,81418,1,0,0:0:0:0:
268,375,81574,1,8,0:0:0:0:
350,319,81730,6,0,P|278:275|211:297,1,155,4|2,0:0|0:1,0:0:0:0:
120,368,82199,2,0,P|57:353|36:348,1,77.5,2|0,0:0|0:0,0:0:0:0:
0,228,82512,2,0,P|62:213|84:208,1,77.5,8|2,0:0|0:0,0:0:0:0:
172,128,82824,1,2,0:1:0:0:
44,44,82980,6,0,P|24:92|16:120,1,77.5,4|0,0:0|0:0,0:0:0:0:
102,282,83293,2,0,P|82:233|74:206,1,77.5,2|8,0:1|0:0,0:0:0:0:
192,56,83605,1,2,0:1:0:0:
192,56,83683,1,0,0:0:0:0:
192,56,83762,1,8,0:0:0:0:
84,132,83918,1,8,0:0:0:0:
220,232,84074,1,8,0:0:0:0:
44,344,84230,6,0,P|112:320|192:308,1,139.499995742798,4|2,0:0|0:0,0:0:0:0:
236,212,84699,2,0,P|280:231|312:240,1,69.749997871399,4|0,0:3|0:0,0:0:0:0:
392,320,85012,2,0,P|425:309|456:294,1,69.749997871399,2|4,0:0|0:3,0:0:0:0:
392,224,85324,1,2,0:0:0:0:
300,352,85480,1,4,0:3:0:0:
192,300,85637,6,0,P|131:286|104:280,1,69.749997871399,2|0,0:0|0:0,0:0:0:0:
152,168,85949,2,0,P|91:181|64:188,1,69.749997871399,4|0,0:3|0:0,0:0:0:0:
0,80,86262,2,0,P|33:87|68:95,1,69.749997871399,2|0,0:0|0:0,0:0:0:0:
236,212,86574,1,8,0:0:0:0:
180,88,86730,6,0,P|240:128|312:104,1,139.499995742798,4|2,0:1|0:0,0:0:0:0:
400,40,87199,2,0,P|416:82|428:112,1,69.749997871399,4|0,0:3|0:0,0:0:0:0:
336,256,87512,2,0,P|348:223|361:191,1,69.749997871399,4|2,0:3|0:0,0:0:0:0:
301,112,87824,1,4,0:3:0:0:
184,224,87980,1,2,0:0:0:0:
184,224,88137,6,0,P|216:212|272:200,1,69.749997871399,2|0,0:0|0:0,0:0:0:0:
384,332,88449,1,2,0:0:0:0:
296,264,88605,1,0,0:0:0:0:
156,344,88762,2,0,P|108:336|72:324,1,69.749997871399,2|0,0:0|0:0,0:0:0:0:
16,176,89074,1,8,0:0:0:0:
164,236,89230,5,4,0:0:0:0:
