osu file format v14

[General]
AudioFilename: blow out.mp3
AudioLeadIn: 0
PreviewTime: 53447
Countdown: 0
SampleSet: Soft
StackLeniency: 0.5
Mode: 0
LetterboxInBreaks: 0
WidescreenStoryboard: 0

[Editor]
DistanceSpacing: 1.5
BeatDivisor: 4
GridSize: 4
TimelineZoom: 1.8

[Metadata]
Title:Blow out
TitleUnicode:Blow out
Artist:Suzuki Konomi
ArtistUnicode:鈴木このみ
Creator:Kalibe
Version:Hard
Source:ロクでなし魔術講師と禁忌教典
Tags:of bastard magic instructor Rokudenashi Majutsu Koushi to Akashic Records tv size op opening irohas mugiwarasekai kibbleru
BeatmapID:1261432
BeatmapSetID:596580

[Difficulty]
HPDrainRate:5
CircleSize:3.8
OverallDifficulty:6
ApproachRate:8
SliderMultiplier:1.35
SliderTickRate:1

[Events]
//Background and Video events
0,0,"819668.jpg",0,0
Video,0,"rokudenashi opening.avi"
//Break Periods
//Storyboard Layer 0 (Background)
//Storyboard Layer 1 (Fail)
//Storyboard Layer 2 (Pass)
//Storyboard Layer 3 (Foreground)
//Storyboard Sound Samples

[TimingPoints]
-613,312.5,4,2,2,20,1,0
1887,-100,4,1,2,25,0,0
3137,-100,4,2,2,30,0,0
4387,-100,4,1,2,35,0,0
5637,-100,4,2,2,45,0,0
6887,-100,4,1,2,50,0,0
7824,-100,4,2,2,55,0,0
7980,-100,4,2,2,50,0,0
9230,-100,4,2,2,65,0,0
10480,-100,4,2,2,55,0,0
15402,-100,4,2,2,5,0,0
15480,-100,4,2,2,60,0,0
20479,-111.111111111111,4,2,2,55,0,0
22979,-125,4,2,2,50,0,0
32980,-111.111111111111,4,2,2,60,0,0
44229,-125,4,2,2,55,0,0
49230,-111.111111111111,4,2,2,65,0,0
52043,-111.111111111111,4,2,2,50,0,0
52512,-111.111111111111,4,2,2,60,0,0
52824,-111.111111111111,4,2,2,70,0,0
53137,-111.111111111111,4,2,2,35,0,0
53449,-111.111111111111,4,2,2,40,0,0
53918,-111.111111111111,4,2,2,65,0,0
54230,-99.9999999999999,4,2,2,75,0,1
63449,-99.9999999999999,4,2,2,65,0,0
64230,-99.9999999999999,4,2,2,55,0,0
64543,-99.9999999999999,4,2,2,20,0,0
64699,-99.9999999999999,4,2,2,75,0,1
69230,-99.9999999999999,4,2,2,80,0,1
72980,-99.9999999999999,4,2,2,65,0,0
74230,-99.9999999999999,4,2,2,60,0,0
79152,-99.9999999999999,4,2,2,5,0,0
79230,-99.9999999999999,4,2,2,65,0,0
84229,-111.111111111111,4,2,2,60,0,0

[Colours]
Combo1 : 255,255,0
Combo2 : 128,128,255
Combo3 : 0,84,168
Combo4 : 0,128,255

[HitObjects]
256,192,480,12,0,7512,2:1:0:0:
479,192,7824,5,2,0:1:0:0:
479,192,7980,2,0,P|399:206|335:220,1,135,4|0,0:1|0:0,0:0:0:0:
282,287,8449,2,0,P|227:268|206:263,1,67.5,2|0,0:0|0:0,0:0:0:0:
140,211,8762,2,0,P|219:225|258:187,1,135,0|2,0:0|0:0,0:0:0:0:
309,114,9230,6,0,L|290:40,1,67.5,0|0,1:2|2:0,0:0:0:0:
201,43,9543,2,0,L|219:109,1,67.5,0|0,1:2|0:0,0:0:0:0:
128,103,9855,2,0,L|106:15,1,67.5,0|0,1:2|0:0,0:0:0:0:
31,88,10168,1,2,0:1:0:0:
31,88,10480,6,0,P|46:147|67:227,1,135,4|2,0:1|0:1,0:0:0:0:
46,311,10949,2,0,P|72:298|125:282,1,67.5,2|2,0:0|0:1,0:0:0:0:
163,216,11262,2,0,P|207:228|233:239,1,67.5,8|0,0:0|0:0,0:0:0:0:
313,221,11574,1,2,0:1:0:0:
266,308,11730,6,0,B|307:319|341:327|341:327|394:294,1,135,4|2,0:0|0:1,0:0:0:0:
460,232,12199,2,0,P|428:221|383:206,1,67.5,2|0,0:0|0:0,0:0:0:0:
323,148,12512,2,0,P|354:137|386:126,1,67.5,8|2,0:0|0:1,0:0:0:0:
471,83,12824,1,8,0:0:0:0:
392,31,12980,6,0,B|330:10|321:59|259:33,1,135,4|2,0:0|0:1,0:0:0:0:
197,103,13449,2,0,P|171:81|139:72,1,67.5,2|2,0:0|0:1,0:0:0:0:
56,26,13762,2,0,P|34:51|25:83,1,67.5,8|2,0:0|0:1,0:0:0:0:
74,164,14074,1,8,0:0:0:0:
31,248,14230,5,0,1:0:0:0:
185,135,14543,1,0,1:0:0:0:
226,319,14855,1,0,1:0:0:0:
372,199,15168,2,2,P|385:250|400:310,1,101.25,10|0,0:0|2:0,0:1:0:0:
399,333,15480,6,0,P|331:305|263:293,1,135,4|2,0:1|0:1,0:0:0:0:
195,351,15949,2,0,P|179:318|178:277,1,67.5,8|0,0:0|0:0,0:0:0:0:
229,207,16262,2,0,P|245:174|246:133,1,67.5,2|2,0:0|0:1,0:0:0:0:
151,112,16574,1,8,0:0:0:0:
111,213,16730,6,0,P|171:238|229:208,1,135,2|2,0:0|0:1,0:0:0:0:
304,149,17199,2,0,P|332:155|374:164,1,67.5,8|2,0:0|0:1,0:0:0:0:
440,246,17512,2,0,P|478:237|507:229,1,67.5,2|2,0:0|0:1,0:0:0:0:
461,145,17824,1,8,0:0:0:0:
370,203,17980,6,0,P|346:282|369:329,1,135,4|2,0:0|0:1,0:0:0:0:
284,374,18449,2,0,L|202:353,1,67.5,12|2,0:0|0:1,0:0:0:0:
216,262,18762,2,0,L|150:278,1,67.5,8|2,0:0|0:1,0:0:0:0:
72,331,19074,1,8,0:0:0:0:
72,331,19230,1,2,0:0:0:0:
30,245,19387,6,0,L|-3:259,2,33.75,8|8|2,0:0|0:0|0:1,0:0:0:0:
90,172,19699,2,0,P|128:181|160:189,1,67.5,8|2,0:0|0:0,0:0:0:0:
219,258,20012,1,8,0:0:0:0:
290,196,20168,1,8,0:0:0:0:
233,120,20324,1,8,1:2:0:0:
281,36,20480,6,0,L|404:58,1,121.499996292114,4|0,0:1|0:0,0:0:0:0:
432,144,20949,2,0,P|461:136|491:130,1,60.7499981460572,4|0,0:3|0:0,0:0:0:0:
459,44,21262,2,0,P|429:50|399:57,1,60.7499981460572,2|4,0:0|0:3,0:0:0:0:
332,124,21574,1,0,3:0:0:0:
256,68,21730,1,4,0:3:0:0:
256,68,21887,6,0,P|247:98|236:140,1,60.7499981460572,2|0,0:0|0:0,0:0:0:0:
171,187,22199,2,0,P|179:217|191:259,1,60.7499981460572,4|2,0:3|0:1,0:0:0:0:
256,305,22512,1,2,0:0:0:0:
166,331,22668,1,8,0:0:0:0:
92,267,22824,1,8,0:0:0:0:
60,352,22980,6,0,P|121:340|184:328,1,108,4|0,0:1|0:0,0:0:0:0:
256,305,23449,2,0,L|311:318,1,54,2|0,0:0|0:0,0:0:0:0:
388,364,23762,2,0,P|358:320|378:270,1,108,2|2,0:1|0:1,0:0:0:0:
440,208,24230,1,2,0:0:0:0:
440,208,24387,6,0,L|328:179,1,108,2|2,0:1|0:0,0:0:0:0:
335,89,24855,2,0,P|303:97|271:106,1,54,8|2,0:0|0:1,0:0:0:0:
215,165,25168,2,0,P|188:158|162:151,1,54,2|2,0:0|0:1,0:0:0:0:
94,90,25480,1,8,0:0:0:0:
31,158,25637,6,0,P|48:213|64:264,1,108,2|2,0:0|0:1,0:0:0:0:
33,347,26105,2,0,P|79:307|134:314,1,108,2|0,0:0|0:0,0:0:0:0:
188,375,26574,1,2,0:1:0:0:
249,307,26730,1,8,0:0:0:0:
327,367,26887,6,0,L|442:349,1,108,2|8,0:0|0:0,0:0:0:0:
364,281,27355,2,0,L|471:266,1,108,2|0,0:1|0:0,0:0:0:0:
407,191,27824,1,8,0:0:0:0:
407,191,27980,1,0,0:0:0:0:
459,121,28137,6,0,L|514:133,1,54,4|2,0:0|0:1,0:0:0:0:
511,46,28449,2,0,L|450:34,1,54,2|0,0:0|0:0,0:0:0:0:
374,60,28762,2,0,P|319:70|265:42,1,108,2|2,0:1|0:1,0:0:0:0:
193,5,29230,1,0,0:0:0:0:
193,5,29387,6,0,P|169:71|184:114,1,108,2|2,0:0|0:1,0:0:0:0:
231,167,29855,2,0,B|170:151|170:151|116:181,1,108,2|2,0:0|0:0,0:0:0:0:
74,239,30324,2,0,L|6:219,1,54,2|8,0:1|0:0,0:0:0:0:
23,320,30637,5,4,0:0:0:0:
108,353,30793,2,0,L|144:343,5,27,8|2|8|0|8|8,0:0|0:1|0:0|1:0|0:0|0:0,0:0:0:0:
177,328,31262,2,0,L|216:335,5,27,8|8|8|8|8|8,1:2|0:0|0:0|0:0|0:0|1:2,0:0:0:0:
247,345,31730,5,4,0:0:0:0:
280,44,32668,2,0,L|270:7,2,27,2|2|8,0:0|0:0|0:0,0:0:0:0:
244,128,32980,6,0,P|300:88|360:96,1,121.499996292114,4|2,0:1|0:1,0:0:0:0:
416,155,33449,2,0,P|410:181|400:219,1,60.7499981460572,8|0,0:0|0:0,0:0:0:0:
323,261,33762,2,0,P|311:220|307:200,1,60.7499981460572,2|2,0:1|0:1,0:0:0:0:
234,147,34074,2,0,P|188:153|151:161,1,60.7499981460572,8|0,0:0|0:0,0:0:0:0:
96,204,34387,6,0,P|155:199|201:236,1,121.499996292114,2|8,0:0|0:0,0:0:0:0:
178,324,34855,2,0,P|118:328|72:291,1,121.499996292114,0|2,0:0|0:1,0:0:0:0:
96,204,35324,1,8,0:0:0:0:
24,148,35480,1,2,0:0:0:0:
92,68,35637,6,0,L|218:45,1,121.499996292114,4|8,0:0|0:0,0:0:0:0:
281,104,36105,2,0,P|345:130|391:115,1,121.499996292114,2|2,0:0|0:1,0:0:0:0:
468,63,36574,1,8,0:0:0:0:
468,63,36730,1,0,0:0:0:0:
385,23,36887,6,0,L|316:37,1,60.7499981460572,2|2,0:0|0:1,0:0:0:0:
261,99,37199,2,0,B|243:142|233:173|233:173|257:214,1,121.499996292114,8|2,0:0|0:1,0:0:0:0:
311,280,37668,1,2,0:1:0:0:
253,350,37824,2,0,L|259:379,2,30.3749990730286,8|8|8,0:0|0:0|0:0,0:0:0:0:
171,290,38137,6,0,B|117:268|107:318|50:293,1,121.499996292114,4|8,0:0|0:0,0:0:0:0:
4,220,38605,1,2,0:0:0:0:
4,220,38762,2,0,L|68:204,1,60.7499981460572,2|2,0:1|0:1,0:0:0:0:
128,136,39074,2,0,L|69:121,1,60.7499981460572,8|0,0:0|0:0,0:0:0:0:
1,59,39387,6,0,P|23:52|66:42,1,60.7499981460572,2|2,0:1|0:1,0:0:0:0:
138,88,39699,1,8,0:0:0:0:
202,23,39855,2,0,P|233:81|212:141,1,121.499996292114,2|2,0:0|0:0,0:0:0:0:
148,200,40324,1,8,0:0:0:0:
148,200,40480,1,0,0:0:0:0:
218,275,40637,6,0,P|269:263|357:247,1,121.499996292114,4|8,0:0|0:0,0:0:0:0:
407,308,41105,2,0,P|424:264|433:245,1,60.7499981460572,2|2,0:0|0:1,0:0:0:0:
488,181,41418,2,0,P|470:137|462:118,1,60.7499981460572,2|8,0:0|0:0,0:0:0:0:
428,32,41730,6,0,P|373:73|318:61,1,121.499996292114,4|2,0:0|0:1,0:0:0:0:
240,16,42199,2,0,L|218:81,1,60.7499981460572,8|2,0:0|0:1,0:0:0:0:
144,144,42512,2,0,L|124:86,1,60.7499981460572,8|2,0:0|0:1,0:0:0:0:
40,48,42824,1,8,0:0:0:0:
33,155,42980,6,0,P|105:167|153:131,1,121.499996292114,4|2,0:0|0:1,0:0:0:0:
232,172,43449,2,0,L|276:160,2,30.3749990730286,8|8|2,0:0|0:0|0:1,0:0:0:0:
180,248,43762,2,0,L|136:260,2,30.3749990730286,2|2|2,3:1|3:1|0:1,0:0:0:0:
264,284,44074,1,8,0:0:0:0:
352,240,44230,6,0,P|414:257|468:272,1,108,4|2,0:1|0:1,0:0:0:0:
476,358,44698,1,2,0:0:0:0:
476,358,45011,2,0,P|423:343|371:329,1,108,12|2,0:0|0:1,0:0:0:0:
288,360,45480,1,2,0:1:0:0:
211,318,45637,6,0,L|151:338,1,54,2|2,0:0|0:1,0:0:0:0:
78,363,45949,2,0,P|59:314|82:266,1,108,2|12,0:1|0:0,0:0:0:0:
163,238,46418,1,2,0:1:0:0:
163,238,46730,6,0,P|98:224|45:215,1,108,4|2,0:0|0:1,0:0:0:0:
7,139,47199,1,2,0:0:0:0:
7,139,47512,2,0,P|71:125|125:116,1,108,12|2,0:0|0:1,0:0:0:0:
184,64,47980,1,2,0:1:0:0:
266,90,48137,6,0,P|291:97|321:107,1,54,2|2,0:0|0:1,0:0:0:0:
278,183,48449,2,0,P|328:152|374:162,1,108,2|12,0:1|0:0,0:0:0:0:
442,214,48918,1,2,0:1:0:0:
372,265,49074,1,8,0:0:0:0:
422,348,49230,6,0,P|361:313|299:327,1,121.499996292114,4|2,0:1|0:1,0:0:0:0:
230,360,49699,2,0,P|185:351|162:346,1,60.7499981460572,8|2,0:0|0:1,0:0:0:0:
189,258,50012,2,0,P|159:264|129:270,1,60.7499981460572,8|2,0:0|0:1,0:0:0:0:
46,231,50324,2,0,P|39:201|33:171,1,60.7499981460572,8|2,0:0|0:1,0:0:0:0:
54,82,50637,6,0,L|41:48,2,30.3749990730286,10|8|2,0:0|0:0|0:1,0:0:0:0:
125,137,50949,2,0,L|121:167,2,30.3749990730286,2|2|0,0:1|0:1|0:0,0:0:0:0:
194,76,51262,2,0,L|187:43,2,30.3749990730286,8|2|2,0:0|0:1|0:1,0:0:0:0:
215,164,51574,1,8,0:0:0:0:
304,124,51730,6,0,P|321:182|302:243,1,121.499996292114,4|8,0:1|0:0,0:0:0:0:
221,338,52199,1,8,0:0:0:0:
221,338,52355,1,8,0:0:0:0:
310,317,52512,1,8,0:0:0:0:
310,317,52668,1,8,0:0:0:0:
390,359,52824,5,8,0:0:0:0:
436,268,52980,2,0,L|378:247,1,60.7499981460572,10|4,0:0|0:3,0:0:0:0:
270,100,53449,5,2,0:0:0:0:
251,195,53605,2,0,L|374:161,1,121.499996292114,2|12,0:0|0:0,0:0:0:0:
368,162,54230,6,0,P|390:117|354:44,1,135,4|2,0:1|0:0,0:0:0:0:
267,10,54699,2,0,P|221:21|194:28,1,67.5,8|0,0:0|0:0,0:0:0:0:
126,84,55012,2,0,P|93:75|60:67,1,67.5,2|0,0:1|0:0,0:0:0:0:
14,150,55324,1,8,0:0:0:0:
14,150,55480,6,0,P|59:185|139:172,1,135,2|0,0:0|0:0,0:0:0:0:
225,153,55949,2,0,P|209:207|174:294,1,135,8|2,0:0|0:1,0:0:0:0:
92,243,56418,1,2,0:0:0:0:
162,305,56574,2,0,P|175:347|182:381,1,67.5,8|0,0:0|0:0,0:0:0:0:
252,306,56887,6,0,P|284:313|316:324,1,67.5,4|0,0:0|0:0,0:0:0:0:
396,375,57199,2,0,P|364:311|391:258,1,135,8|2,0:0|0:1,0:0:0:0:
464,199,57668,2,0,L|483:282,1,67.5,2|8,0:0|0:0,0:0:0:0:
494,357,57980,6,0,P|423:335|346:314,1,135,2|2,0:0|0:0,0:0:0:0:
305,244,58449,1,8,0:0:0:0:
305,244,58605,2,0,P|262:229|218:218,1,67.5,2|2,0:0|0:1,0:0:0:0:
166,282,58918,2,0,P|123:296|79:308,1,67.5,2|8,0:0|0:0,0:0:0:0:
30,240,59230,1,8,0:2:0:0:
30,240,59308,1,8,0:2:0:0:
30,240,59387,6,0,P|63:229|102:216,1,67.5,4|2,0:1|0:0,0:0:0:0:
165,156,59699,2,0,P|112:178|46:144,1,135,8|2,0:0|0:1,0:0:0:0:
2,60,60168,2,0,P|18:51|90:24,1,67.5,2|8,0:0|0:0,0:0:0:0:
140,86,60480,6,0,P|206:116|267:97,1,135,2|2,0:0|0:0,0:0:0:0:
346,54,60949,2,0,L|414:78,1,67.5,8|0,0:0|0:0,0:0:0:0:
464,156,61262,2,0,L|389:175,1,67.5,2|0,0:1|0:0,0:0:0:0:
315,216,61574,1,8,0:0:0:0:
361,299,61730,6,0,P|297:259|234:276,1,135,4|2,0:0|0:1,0:0:0:0:
179,341,62199,2,0,L|100:355,1,67.5,8|2,0:0|0:1,0:0:0:0:
42,289,62512,2,0,P|11:283|-1:280,2,33.75,8|8|2,0:0|0:0|0:1,0:0:0:0:
121,238,62824,2,0,P|152:232|164:229,2,33.75,2|2|2,3:1|3:1|0:1,0:0:0:0:
37,191,63137,2,0,B|25:159|25:159|35:126,1,67.5,12|0,0:0|0:0,0:0:0:0:
104,40,63449,5,10,0:0:0:0:
174,102,63605,2,0,P|239:114|290:65,1,135,2|2,0:1|0:1,0:0:0:0:
466,11,64230,6,0,B|437:72|486:80|460:143,1,135,2|0,0:0|0:0,0:0:0:0:
491,231,64699,2,0,P|436:181|378:190,1,135,4|2,1:0|0:1,0:0:0:0:
296,233,65168,2,0,P|241:218|218:214,2,67.5,2|8|2,0:0|0:0|0:0,0:0:0:0:
371,290,65637,6,0,P|316:273|242:315,1,135,4|8,0:0|0:0,0:0:0:0:
182,372,66105,1,2,0:0:0:0:
182,372,66262,2,0,P|119:363|92:357,1,67.5,2|0,0:1|0:0,0:0:0:0:
23,338,66574,1,8,0:0:0:0:
85,267,66730,6,0,P|99:202|98:129,1,135,2|2,0:0|0:1,0:0:0:0:
37,60,67199,2,0,P|91:99|154:79,1,135,8|2,0:0|0:1,0:0:0:0:
228,25,67668,1,0,0:0:0:0:
249,116,67824,1,8,0:0:0:0:
334,74,67980,6,0,B|380:64|420:54|420:54|461:86,1,135,2|0,0:0|0:0,0:0:0:0:
509,161,68449,1,8,0:0:0:0:
440,226,68605,2,0,L|285:196,1,135,2|2,0:0|0:1,0:0:0:0:
232,142,69074,1,8,0:0:0:0:
148,200,69230,6,0,P|125:283|154:325,1,135,4|2,0:1|0:1,0:0:0:0:
233,362,69699,2,0,P|270:354|323:341,1,67.5,8|0,0:0|0:0,0:0:0:0:
244,269,70012,2,0,P|311:292|372:309,1,135,8|8,0:0|0:0,0:0:0:0:
442,372,70480,6,0,P|413:328|445:260,1,135,4|2,0:1|0:1,0:0:0:0:
506,186,70949,1,8,0:0:0:0:
506,186,71105,1,2,0:1:0:0:
431,126,71262,2,0,L|352:140,1,67.5,8|2,0:0|0:1,0:0:0:0:
300,207,71574,1,8,0:0:0:0:
224,150,71730,6,0,P|203:107|233:24,1,135,4|2,0:1|0:1,0:0:0:0:
296,94,72199,2,0,L|348:102,2,33.75,8|8|2,0:0|0:0|0:1,0:0:0:0:
224,150,72512,1,8,0:0:0:0:
300,207,72668,1,8,0:0:0:0:
242,282,72824,1,8,1:2:0:0:
275,370,72980,5,0,1:0:0:0:
207,193,73293,1,0,1:0:0:0:
96,345,73605,1,0,1:0:0:0:
33,166,73918,1,8,0:0:0:0:
33,166,74230,6,0,P|98:178|149:132,1,135,4|2,0:1|0:1,0:0:0:0:
128,43,74699,2,0,P|170:58|210:72,1,67.5,2|2,0:0|0:1,0:0:0:0:
243,145,75012,2,0,P|274:133|306:121,1,67.5,8|0,0:0|0:0,0:0:0:0:
371,53,75324,1,2,0:1:0:0:
371,53,75480,6,0,P|390:120|410:192,1,135,4|2,0:0|0:1,0:0:0:0:
463,260,75949,2,0,P|397:234|331:223,1,135,2|8,0:0|0:0,0:0:0:0:
244,254,76418,1,2,0:1:0:0:
292,335,76574,1,8,0:0:0:0:
292,335,76730,6,0,P|235:293|176:308,1,135,4|2,0:0|0:1,0:0:0:0:
100,364,77199,2,0,L|16:341,1,67.5,2|2,0:0|0:1,0:0:0:0:
30,251,77512,2,0,L|95:268,1,67.5,8|2,0:0|0:1,0:0:0:0:
162,202,77824,1,8,0:0:0:0:
101,129,77980,5,0,1:0:0:0:
244,254,78293,1,0,1:0:0:0:
319,81,78605,1,0,1:0:0:0:
466,199,78918,2,2,P|420:169|364:178,1,101.25,10|0,0:0|2:0,0:1:0:0:
352,192,79230,6,0,P|368:268|382:325,1,135,4|2,0:1|0:1,0:0:0:0:
300,372,79699,2,0,P|287:326|280:293,1,67.5,8|0,0:0|0:0,0:0:0:0:
210,245,80012,2,0,P|201:277|193:310,1,67.5,2|2,0:0|0:1,0:0:0:0:
117,366,80324,1,8,0:0:0:0:
117,366,80480,6,0,P|66:352|47:346,1,67.5,2|0,0:0|0:0,0:0:0:0:
32,254,80793,1,2,0:1:0:0:
114,207,80949,2,0,P|146:215|178:225,1,67.5,8|2,0:0|0:1,0:0:0:0:
260,274,81262,2,0,P|300:263|331:252,1,67.5,2|0,0:0|0:0,0:0:0:0:
400,304,81574,1,8,0:0:0:0:
405,205,81730,6,0,P|337:213|283:165,1,135,4|2,0:0|0:1,0:0:0:0:
213,113,82199,2,0,P|189:116|140:131,1,67.5,2|0,0:0|0:0,0:0:0:0:
67,179,82512,2,0,P|43:176|-6:161,2,67.5,8|2|2,0:0|0:0|0:1,0:0:0:0:
148,225,82980,6,0,P|182:302|163:347,1,135,4|2,0:0|0:1,0:0:0:0:
83,295,83449,1,8,0:0:0:0:
139,219,83605,1,2,0:1:0:0:
214,276,83762,2,0,P|243:270|297:258,1,67.5,8|8,0:0|0:0,0:0:0:0:
356,317,84074,1,8,0:0:0:0:
448,280,84230,6,0,P|466:236|449:164,1,121.499996292114,4|2,0:0|0:0,0:0:0:0:
495,86,84699,2,0,B|452:78|452:78|421:88|421:88|376:81,1,121.499996292114,4|2,0:3|0:0,0:0:0:0:
297,34,85168,2,0,P|266:38|227:45,2,60.7499981460572,4|2|4,0:3|0:0|0:3,0:0:0:0:
349,108,85637,6,0,P|318:112|279:119,1,60.7499981460572,2|0,0:0|0:0,0:0:0:0:
223,180,85949,2,0,P|193:174|162:170,1,60.7499981460572,4|0,0:3|0:0,0:0:0:0:
64,136,86262,2,0,P|86:204|103:271,1,121.499996292114,2|8,0:0|0:0,0:0:0:0:
66,337,86730,6,0,P|117:291|185:304,1,121.499996292114,4|2,0:1|0:0,0:0:0:0:
241,348,87199,2,0,P|297:369|363:334,1,121.499996292114,4|4,0:3|0:3,0:0:0:0:
421,287,87668,2,0,P|450:294|480:301,2,60.7499981460572,2|4|2,0:0|0:3|0:0,0:0:0:0:
348,231,88137,6,0,L|277:217,1,60.7499981460572,2|0,0:0|0:0,0:0:0:0:
344,147,88449,2,0,L|403:158,1,60.7499981460572,2|0,0:0|0:0,0:0:0:0:
379,70,88762,2,0,L|319:58,1,60.7499981460572,2|0,0:0|0:0,0:0:0:0:
232,124,89074,5,8,0:0:0:0:
344,147,89230,1,4,0:0:0:0:
