osu file format v14

[General]
AudioFilename: blow out.mp3
AudioLeadIn: 0
PreviewTime: 53447
Countdown: 0
SampleSet: Soft
StackLeniency: 0.3
Mode: 0
LetterboxInBreaks: 0
WidescreenStoryboard: 0

[Editor]
DistanceSpacing: 0.7
BeatDivisor: 4
GridSize: 4
TimelineZoom: 1.8

[Metadata]
Title:Blow out
TitleUnicode:Blow out
Artist:Suzuki Konomi
ArtistUnicode:鈴木このみ
Creator:Kalibe
Version:Extra
Source:ロクでなし魔術講師と禁忌教典
Tags:of bastard magic instructor Rokudenashi Majutsu Koushi to Akashic Records tv size op opening irohas mugiwarasekai kibbleru
BeatmapID:1261881
BeatmapSetID:596580

[Difficulty]
HPDrainRate:5.5
CircleSize:4
OverallDifficulty:8
ApproachRate:9.2
SliderMultiplier:1.78
SliderTickRate:1

[Events]
//Background and Video events
0,0,"819668.jpg",0,0
Video,0,"rokudenashi opening.avi"
//Break Periods
//Storyboard Layer 0 (Background)
//Storyboard Layer 1 (Fail)
//Storyboard Layer 2 (Pass)
//Storyboard Layer 3 (Foreground)
//Storyboard Sound Samples

[TimingPoints]
-613,312.5,4,2,2,20,1,0
1887,-100,4,1,2,25,0,0
3137,-100,4,2,2,30,0,0
4387,-100,4,1,2,35,0,0
5637,-100,4,2,2,45,0,0
6887,-100,4,1,2,50,0,0
7824,-100,4,2,2,55,0,0
7980,-111.111111111111,4,2,2,50,0,0
9230,-100,4,2,2,65,0,0
10168,-133.333333333333,4,2,2,65,0,0
10402,-100,4,2,2,5,0,0
10480,-100,4,2,2,55,0,0
15167,-90.9090909090909,4,2,2,55,0,0
15403,-100,4,2,2,5,0,0
15481,-100,4,2,2,60,0,0
20480,-111.111111111111,4,2,2,55,0,0
22980,-125,4,2,2,50,0,0
31730,-166.666666666667,4,2,2,50,0,0
32512,-125,4,2,2,50,0,0
32980,-111.111111111111,4,2,2,60,0,0
37434,-111.111111111111,4,2,2,5,0,0
37513,-111.111111111111,4,2,2,60,0,0
44230,-125,4,2,2,55,0,0
46653,-125,4,2,2,5,0,0
46731,-125,4,2,2,55,0,0
49230,-111.111111111111,4,2,2,65,0,0
51966,-111.111111111111,4,2,2,5,0,0
52044,-111.111111111111,4,2,2,50,0,0
52513,-111.111111111111,4,2,2,60,0,0
52825,-111.111111111111,4,2,2,70,0,0
53137,-133.333333333333,4,2,2,35,0,0
53450,-111.111111111111,4,2,2,40,0,0
53841,-111.111111111111,4,2,2,5,0,0
53918,-83.3333333333333,4,2,2,65,0,0
54153,-111.111111111111,4,2,2,5,0,0
54230,-99.9999999999999,4,2,2,75,0,1
63449,-99.9999999999999,4,2,2,65,0,0
63841,-99.9999999999999,4,2,2,5,0,0
63919,-99.9999999999999,4,2,2,65,0,0
64153,-99.9999999999999,4,2,2,5,0,0
64231,-99.9999999999999,4,2,2,55,0,0
64466,-99.9999999999999,4,2,2,5,0,0
64699,-90.9090909090909,4,2,2,75,0,1
65013,-99.9999999999999,4,2,2,75,0,1
69231,-99.9999999999999,4,2,2,80,0,1
72980,-99.9999999999999,4,2,2,65,0,0
74231,-99.9999999999999,4,2,2,60,0,0
78918,-90.9090909090909,4,2,2,60,0,0
79152,-99.9999999999999,4,2,2,5,0,0
79231,-99.9999999999999,4,2,2,65,0,0
84230,-111.111111111111,4,2,2,60,0,0

[Colours]
Combo1 : 255,255,0
Combo2 : 128,128,255
Combo3 : 0,84,168
Combo4 : 0,128,255

[HitObjects]
256,192,480,12,2,7823,0:1:0:0:
308,220,7981,6,0,P|232:206|177:261,1,160.199995111084,4|0,0:1|0:0,0:0:0:0:
228,360,8449,2,0,P|251:306|264:272,1,80.0999975555421,2|0,0:0|0:0,0:0:0:0:
336,200,8762,2,0,P|320:163|305:126,1,80.0999975555421,2|0,0:0|0:0,0:0:0:0:
212,64,9074,1,2,0:0:0:0:
36,152,9231,6,0,P|84:166|148:188,1,89,0|0,1:2|2:0,0:0:0:0:
184,364,9543,2,0,P|232:349|296:328,1,89,0|0,1:2|0:0,0:0:0:0:
352,152,9856,2,0,P|400:166|464:188,1,89,0|0,1:2|0:0,0:0:0:0:
390,366,10168,6,0,P|380:313|370:259,1,100.125003819466,2|0,0:1|0:0,0:0:0:0:
372,268,10481,6,0,B|294:229|275:315|200:271,1,178,4|2,0:1|0:1,0:0:0:0:
241,184,10949,1,2,0:0:0:0:
332,340,11106,1,2,0:1:0:0:
233,164,11262,1,8,0:0:0:0:
364,244,11418,1,2,0:0:0:0:
168,312,11574,1,2,0:1:0:0:
360,228,11731,6,0,P|432:244|476:256,1,89,4|0,0:0|0:0,0:0:0:0:
316,124,12043,1,2,0:1:0:0:
200,232,12199,2,0,P|128:248|84:260,1,89,2|0,0:0|0:0,0:0:0:0:
288,336,12512,1,8,0:0:0:0:
113,251,12668,1,2,0:1:0:0:
288,180,12824,1,8,0:0:0:0:
100,92,12980,6,0,P|196:124|280:152,1,178,4|2,0:0|0:1,0:0:0:0:
388,284,13449,1,2,0:0:0:0:
344,128,13605,1,2,0:1:0:0:
228,252,13762,1,8,0:0:0:0:
404,192,13918,1,2,0:1:0:0:
256,56,14074,1,8,0:0:0:0:
456,124,14230,6,0,L|360:104,1,89,0|0,1:0|0:0,0:0:0:0:
172,342,14543,2,0,L|268:322,1,89,0|0,1:0|0:0,0:0:0:0:
458,247,14855,2,0,L|362:223,1,89,0|0,1:0|0:0,0:0:0:0:
348,220,15090,1,0,0:0:0:0:
348,220,15168,6,0,P|272:244|220:196,1,146.850004481506,10|0,0:0|2:0,0:0:0:0:
211,179,15480,6,0,B|179:243|179:243|195:291|195:291|167:351,1,178,4|2,0:1|0:1,0:0:0:0:
72,288,15949,1,8,0:0:0:0:
292,228,16105,1,0,0:0:0:0:
116,156,16262,1,2,0:0:0:0:
256,356,16418,1,2,0:1:0:0:
211,179,16574,1,8,0:0:0:0:
88,244,16730,6,0,P|19:263|-16:276,1,89,2|0,0:0|0:0,0:0:0:0:
144,124,17043,1,2,0:1:0:0:
268,268,17199,2,0,P|336:287|372:300,1,89,8|2,0:0|0:1,0:0:0:0:
353,293,17433,1,0,0:0:0:0:
353,293,17512,1,2,0:0:0:0:
256,356,17668,1,2,0:1:0:0:
336,188,17824,1,8,0:0:0:0:
512,276,17980,6,0,P|448:324|356:296,1,178,4|2,0:0|0:1,0:0:0:0:
216,188,18449,1,8,0:0:0:0:
416,132,18605,1,2,0:1:0:0:
248,64,18762,1,8,0:0:0:0:
340,220,18918,1,2,0:1:0:0:
228,28,19074,1,8,0:0:0:0:
124,260,19230,1,2,0:0:0:0:
52,140,19387,5,8,0:0:0:0:
52,140,19465,1,8,0:0:0:0:
52,140,19543,1,2,0:1:0:0:
235,263,19699,2,0,L|331:239,1,89,8|2,0:0|0:0,0:0:0:0:
136,216,20012,5,8,0:0:0:0:
272,352,20168,1,8,0:0:0:0:
380,144,20324,1,8,1:2:0:0:
476,285,20481,6,0,P|396:257|316:241,1,160.199995111084,4|0,0:0|0:0,0:0:0:0:
192,352,20949,2,0,P|232:344|280:328,1,80.0999975555421,4|0,0:3|0:0,0:0:0:0:
404,180,21262,2,0,P|364:188|316:204,1,80.0999975555421,2|4,0:0|0:3,0:0:0:0:
216,268,21574,1,0,3:0:0:0:
356,360,21731,1,4,0:3:0:0:
324,232,21887,5,0,0:0:0:0:
192,352,22043,1,2,0:3:0:0:
240,192,22199,1,4,0:3:0:0:
408,264,22355,1,2,0:1:0:0:
216,269,22512,5,2,0:0:0:0:
404,180,22668,1,8,0:0:0:0:
256,32,22824,1,8,0:0:0:0:
432,72,22981,6,0,P|372:112|308:92,1,142.4,4|0,0:1|0:0,0:0:0:0:
184,36,23449,2,0,L|256:16,1,71.2,2|0,0:0|0:0,0:0:0:0:
128,168,23762,2,0,L|56:148,1,71.2,2|0,0:1|0:0,0:0:0:0:
120,76,24074,1,2,0:1:0:0:
216,212,24231,1,2,0:0:0:0:
216,212,24309,1,0,0:0:0:0:
216,212,24387,6,0,P|201:258|192:284,1,71.2,2|0,0:1|0:0,0:0:0:0:
96,344,24698,1,2,0:0:0:0:
216,212,24855,1,8,0:0:0:0:
296,272,25012,2,0,P|348:256|372:248,1,71.2,0|2,0:0|0:0,0:0:0:0:
300,172,25324,1,2,0:1:0:0:
360,352,25480,1,8,0:0:0:0:
489,270,25637,6,0,P|420:287|361:246,1,142.4,2|2,0:0|0:1,0:0:0:0:
418,135,26105,2,0,L|434:207,1,71.2,2|0,0:0|0:0,0:0:0:0:
304,356,26418,2,0,L|288:286,1,71.2,0|2,0:0|0:1,0:0:0:0:
175,159,26730,1,8,0:0:0:0:
112,264,26887,6,0,P|143:253|192:240,1,71.2,2|0,0:0|0:0,0:0:0:0:
276,100,27199,2,0,P|241:90|208:78,1,71.2,8|2,0:0|0:1,0:0:0:0:
35,134,27512,2,0,P|100:146|191:162,1,142.4,0|8,0:0|0:0,0:0:0:0:
356,56,27980,1,0,0:0:0:0:
356,56,28058,1,0,0:0:0:0:
356,56,28137,6,0,P|300:68|284:72,1,71.2,4|2,0:0|0:1,0:0:0:0:
284,252,28449,2,0,P|318:243|353:236,1,71.2,2|0,0:0|0:0,0:0:0:0:
512,144,28762,2,0,P|448:152|408:128,1,106.8,2|0,0:1|0:0,0:0:0:0:
412,132,29074,2,0,L|436:216,1,71.2,2|0,0:1|0:0,0:0:0:0:
460,352,29387,6,0,P|428:336|376:324,1,71.2,2|0,0:0|0:0,0:0:0:0:
272,368,29699,1,2,0:1:0:0:
215,232,29855,1,2,0:0:0:0:
215,232,29933,1,0,0:0:0:0:
215,232,30012,2,0,L|287:252,1,71.2,0|2,0:0|0:0,0:0:0:0:
228,128,30324,1,2,0:1:0:0:
124,288,30480,1,8,0:0:0:0:
312,232,30637,5,4,0:0:0:0:
144,144,30793,1,8,0:0:0:0:
110,163,30871,1,2,0:1:0:0:
88,195,30949,1,8,0:0:0:0:
76,232,31027,1,0,1:0:0:0:
90,268,31105,1,8,0:0:0:0:
107,302,31183,1,8,0:0:0:0:
100,341,31262,5,8,1:2:0:0:
67,362,31340,1,8,0:0:0:0:
29,351,31418,1,8,0:0:0:0:
12,315,31496,1,8,0:0:0:0:
32,281,31574,2,0,P|46:275|76:271,1,35.6,8|8,0:0|1:2,0:0:0:0:
170,338,31730,6,0,B|228:370|284:332|299:281|299:281|291:332|317:363|356:368,1,266.999991851807,4|0,0:0|0:0,0:0:0:0:
218,228,32668,2,0,L|210:268,2,35.6,2|2|8,0:0|0:0|0:0,0:0:0:0:
369,233,32980,6,0,P|290:248|201:265,1,160.199995111084,4|2,0:1|0:1,0:0:0:0:
168,144,33449,2,0,P|200:152|252:168,1,80.0999975555421,8|0,0:0|0:0,0:0:0:0:
432,308,33762,1,2,0:1:0:0:
336,204,33918,1,2,0:1:0:0:
200,352,34074,2,0,L|112:328,1,80.0999975555421,8|0,0:0|0:0,0:0:0:0:
0,228,34387,5,2,0:0:0:0:
160,160,34543,1,0,0:0:0:0:
0,88,34699,1,8,0:0:0:0:
124,8,34855,2,0,P|114:53|104:92,1,80.0999975555421,0|2,0:0|0:1,0:0:0:0:
180,248,35168,1,2,0:1:0:0:
292,64,35324,1,8,0:0:0:0:
140,156,35480,1,2,0:0:0:0:
368,176,35637,6,0,L|291:152,1,80.0999975555421,4|0,0:0|0:0,0:0:0:0:
132,264,35949,1,8,0:0:0:0:
244,336,36105,2,0,P|260:300|268:252,1,80.0999975555421,2|0,0:0|0:0,0:0:0:0:
136,84,36418,2,0,P|143:123|159:159,1,80.0999975555421,2|8,0:0|0:0,0:0:0:0:
248,84,36730,1,0,0:0:0:0:
76,196,36887,5,2,0:0:0:0:
296,268,37043,1,2,0:1:0:0:
104,340,37199,2,0,P|76:280|100:224,1,120.149996333313,10|0,0:0|0:0,0:0:0:0:
116,200,37512,5,2,0:1:0:0:
216,276,37668,1,2,0:1:0:0:
24,184,37824,1,8,0:0:0:0:
17,152,37902,1,8,0:0:0:0:
23,120,37980,1,8,0:0:0:0:
36,91,38058,1,8,0:0:0:0:
55,65,38137,6,0,P|99:44|140:37,1,80.0999975555421,4|0,0:0|0:0,0:0:0:0:
308,184,38449,2,0,P|269:174|233:156,1,80.0999975555421,8|2,0:0|0:0,0:0:0:0:
148,72,38762,1,2,0:1:0:0:
308,184,38918,1,0,0:0:0:0:
160,296,39074,1,8,0:0:0:0:
276,380,39230,6,0,P|315:371|354:364,1,80.0999975555421,2|2,0:0|0:1,0:0:0:0:
472,292,39543,1,2,0:1:0:0:
284,216,39699,1,8,0:0:0:0:
412,136,39855,2,0,P|448:152|487:159,1,80.0999975555421,2|0,0:0|0:0,0:0:0:0:
264,100,40168,2,0,P|271:140|287:176,1,80.0999975555421,2|8,0:0|0:0,0:0:0:0:
480,76,40480,1,0,0:0:0:0:
480,76,40558,1,0,0:0:0:0:
480,76,40637,5,4,0:0:0:0:
364,152,40793,1,2,0:1:0:0:
188,73,40949,1,8,0:0:0:0:
188,73,41105,2,0,P|225:87|263:99,1,80.0999975555421,2|2,0:0|0:1,0:0:0:0:
468,172,41418,2,0,P|429:183|392:198,1,80.0999975555421,2|8,0:0|0:0,0:0:0:0:
295,338,41730,6,0,B|267:274|331:254|295:182,1,160.199995111084,4|2,0:1|0:1,0:0:0:0:
190,0,42199,1,8,0:0:0:0:
85,200,42355,1,2,0:1:0:0:
294,96,42512,1,8,0:0:0:0:
63,57,42668,1,2,0:1:0:0:
228,224,42824,1,10,0:0:0:0:
91,340,42980,6,0,P|59:260|91:200,1,160.199995111084,4|2,0:0|0:1,0:0:0:0:
248,120,43449,1,8,0:0:0:0:
256,148,43527,1,8,0:0:0:0:
264,176,43605,1,2,0:1:0:0:
102,322,43762,1,2,3:1:0:0:
111,295,43840,1,2,3:1:0:0:
122,269,43918,1,2,0:1:0:0:
272,204,44074,1,8,0:0:0:0:
380,340,44230,6,0,P|284:316|232:304,1,142.4,4|2,0:1|0:1,0:0:0:0:
91,199,44699,2,0,P|132:208|163:215,1,71.2,2|0,0:0|0:0,0:0:0:0:
317,104,45011,2,0,P|282:111|247:119,1,71.2,12|0,0:0|0:0,0:0:0:0:
40,72,45324,5,2,0:1:0:0:
128,28,45480,2,0,P|152:28|200:48,1,71.2,2|2,0:1|0:0,0:0:0:0:
172,264,45793,1,2,0:1:0:0:
128,176,45949,2,0,P|128:152|148:104,1,71.2,2|0,0:1|0:0,0:0:0:0:
288,8,46262,5,12,0:0:0:0:
288,8,46418,2,0,L|400:28,1,106.8,2|0,0:1|0:0,0:0:0:0:
425,34,46730,6,0,P|448:115|418:161,1,142.4,4|2,0:0|0:1,0:0:0:0:
312,224,47199,2,0,L|228:208,1,71.2,2|0,0:0|0:0,0:0:0:0:
384,328,47512,2,0,L|468:312,1,71.2,12|0,0:0|0:0,0:0:0:0:
396,188,47824,5,2,0:1:0:0:
268,296,47980,2,0,P|278:343|284:368,1,71.2,2|2,0:1|0:0,0:0:0:0:
304,196,48293,1,2,0:1:0:0:
176,348,48449,2,0,P|141:340|106:332,1,71.2,2|0,0:1|0:0,0:0:0:0:
28,160,48762,5,12,0:0:0:0:
160,260,48918,1,2,0:1:0:0:
316,84,49074,1,8,0:0:0:0:
112,192,49230,6,0,P|192:172|272:160,1,160.199995111084,4|2,0:1|0:1,0:0:0:0:
424,104,49698,1,12,0:0:0:0:
240,24,49854,1,2,0:1:0:0:
196,248,50011,5,10,0:0:0:0:
320,100,50167,1,2,0:1:0:0:
376,344,50323,5,12,0:0:0:0:
268,160,50479,1,2,0:1:0:0:
148,360,50636,5,10,0:0:0:0:
148,360,50715,1,8,0:0:0:0:
148,360,50793,1,0,1:0:0:0:
304,304,50949,6,0,P|326:310|348:320,1,40.049998777771,8|8,3:0|3:0,0:0:0:0:
480,252,51105,2,0,P|451:257|428:260,1,40.049998777771,4|4,3:0|3:0,0:0:0:0:
328,208,51262,5,8,0:0:0:0:
328,208,51340,1,2,0:1:0:0:
328,208,51418,2,0,P|321:193|310:153,1,40.049998777771,2|0,0:1|1:0,0:0:0:0:
392,84,51574,2,0,P|398:102|405:121,1,40.049998777771,8|0,0:0|0:0,0:0:0:0:
264,276,51730,6,0,P|243:213|224:148,1,120.149996333313,4|0,0:1|0:0,0:0:0:0:
217,128,52043,1,8,0:0:0:0:
348,220,52199,1,8,0:0:0:0:
200,368,52355,1,8,0:0:0:0:
424,288,52512,5,8,0:0:0:0:
304,140,52668,1,8,0:0:0:0:
172,356,52824,1,8,0:0:0:0:
80,120,52980,1,10,0:0:0:0:
12,288,53137,6,0,P|92:272|152:260,1,133.500005092621,4|2,0:3|0:0,0:0:0:0:
264,368,53605,2,0,P|294:317|280:260,1,120.149996333313,2|0,0:0|0:0,0:0:0:0:
201,197,53918,6,0,P|271:223|327:167,1,160.199995111084,12|0,0:0|0:0,0:0:0:0:
228,116,54230,6,0,B|143:88|136:172|60:141,1,178,4|2,0:1|0:0,0:0:0:0:
0,36,54698,2,0,P|56:24|100:16,1,89,8|0,0:0|0:0,0:0:0:0:
152,264,55012,2,0,P|96:252|52:244,1,89,2|0,0:1|0:0,0:0:0:0:
140,134,55324,1,8,0:0:0:0:
176,360,55480,1,2,0:0:0:0:
316,264,55637,6,0,B|392:224|404:308|492:252,1,178,4|8,0:0|0:0,0:0:0:0:
432,160,56105,1,0,0:0:0:0:
356,344,56262,1,2,0:1:0:0:
486,255,56418,1,2,0:0:0:0:
336,128,56574,2,0,P|324:168|312:220,1,89,8|0,0:0|0:0,0:0:0:0:
156,360,56887,6,0,P|145:316|133:274,1,89,4|0,0:0|0:0,0:0:0:0:
8,108,57199,2,0,P|112:152|168:120,1,178,8|2,0:0|0:1,0:0:0:0:
268,4,57668,1,2,0:0:0:0:
92,64,57824,1,8,0:0:0:0:
268,212,57980,1,2,0:0:0:0:
184,92,58137,5,4,0:0:0:0:
32,192,58293,2,0,P|40:216|60:288,1,89,2|8,0:0|0:0,0:0:0:0:
212,384,58605,2,0,P|223:341|237:298,1,89,2|2,0:0|0:1,0:0:0:0:
352,168,58918,1,2,0:0:0:0:
180,47,59074,1,8,0:0:0:0:
165,85,59152,1,0,0:0:0:0:
162,125,59230,1,8,0:2:0:0:
173,164,59308,1,8,0:2:0:0:
198,196,59387,5,4,0:0:0:0:
252,112,59543,1,2,0:0:0:0:
136,292,59699,2,0,P|186:277|228:268,1,89,8|0,0:0|0:0,0:0:0:0:
368,356,60012,1,2,0:1:0:0:
454,219,60168,2,0,P|410:209|368:196,1,89,2|8,0:0|0:0,0:0:0:0:
440,108,60480,1,2,0:0:0:0:
320,280,60637,6,0,P|277:293|234:302,1,89,4|2,0:0|0:0,0:0:0:0:
48,240,60949,1,8,0:0:0:0:
240,156,61105,1,0,0:0:0:0:
72,80,61262,1,2,0:1:0:0:
192,236,61418,1,2,0:0:0:0:
233,19,61574,1,8,0:0:0:0:
99,171,61730,6,0,P|120:280|144:348,1,178,4|2,0:0|0:1,0:0:0:0:
0,272,62199,1,8,0:0:0:0:
192,168,62355,1,2,0:1:0:0:
40,96,62512,1,8,0:0:0:0:
40,96,62590,1,8,0:0:0:0:
40,96,62668,1,2,0:1:0:0:
148,248,62824,1,2,3:1:0:0:
187,256,62902,1,2,3:1:0:0:
225,245,62980,1,2,0:1:0:0:
255,223,63058,1,2,0:1:0:0:
278,190,63137,6,0,P|291:151|301:90,1,89,12|0,0:0|0:0,0:0:0:0:
216,332,63449,2,0,L|232:396,1,44.5,10|0,0:0|0:0,0:0:0:0:
304,300,63605,6,0,B|358:283|370:343|438:307,1,133.5,2|0,0:1|0:0,0:0:0:0:
434,291,63918,2,0,B|380:308|368:248|300:284,1,133.5,2|0,0:1|0:0,0:0:0:0:
216,332,64230,6,0,P|165:337|224:256,1,222.5,2|0,0:0|0:0,0:0:0:0:
214,248,64699,6,0,P|102:266|22:284,1,195.800005975342,4|2,1:1|0:1,0:0:0:0:
128,172,65167,1,2,0:0:0:0:
306,280,65323,1,8,0:0:0:0:
128,376,65479,1,2,0:0:0:0:
214,248,65636,6,0,P|235:193|254:148,1,89,4|2,0:0|0:0,0:0:0:0:
64,64,65949,2,0,P|80:105|96:146,1,89,8|2,0:0|0:0,0:0:0:0:
308,244,66262,1,2,0:1:0:0:
196,104,66418,1,0,0:0:0:0:
78,316,66574,1,8,0:0:0:0:
233,197,66730,1,2,0:0:0:0:
24,248,66887,6,0,P|118:227|200:208,1,178,4|8,0:0|0:0,0:0:0:0:
372,128,67355,1,0,0:0:0:0:
180,60,67512,2,0,P|224:72|272:92,1,89,2|0,0:1|0:0,0:0:0:0:
456,184,67824,1,8,0:0:0:0:
304,336,67980,6,0,P|284:292|292:240,1,89,2|0,0:0|0:0,0:0:0:0:
392,92,68293,1,0,0:0:0:0:
213,197,68449,1,12,0:0:0:0:
380,280,68605,2,0,P|428:297|480:316,1,89,2|2,0:0|0:1,0:0:0:0:
316,168,68918,1,2,0:0:0:0:
134,349,69074,1,8,0:0:0:0:
134,349,69152,1,8,0:0:0:0:
134,349,69230,6,0,B|206:306|226:390|306:334,1,178,4|2,0:1|0:1,0:0:0:0:
152,148,69699,1,8,0:0:0:0:
252,272,69855,1,0,0:0:0:0:
384,48,70012,1,8,0:0:0:0:
300,196,70168,1,0,0:0:0:0:
188,40,70324,1,8,0:0:0:0:
0,178,70480,6,0,P|86:199|157:140,1,178,4|2,0:1|0:1,0:0:0:0:
65,84,70949,1,12,0:0:0:0:
0,304,71105,1,2,0:1:0:0:
152,148,71262,1,8,0:0:0:0:
196,376,71418,1,2,0:1:0:0:
352,188,71574,1,8,0:0:0:0:
436,352,71730,6,0,P|356:312|264:288,1,178,4|2,0:1|0:1,0:0:0:0:
52,364,72199,1,8,0:0:0:0:
86,355,72277,1,8,0:0:0:0:
116,336,72355,1,2,0:1:0:0:
288,263,72512,1,8,0:0:0:0:
254,253,72590,1,0,0:0:0:0:
227,229,72668,1,8,0:0:0:0:
128,120,72824,1,8,1:2:0:0:
4,232,72980,6,0,P|51:218|108:200,1,89,0|0,1:0|0:0,0:0:0:0:
272,24,73293,2,0,P|229:35|186:49,1,89,0|0,1:0|0:0,0:0:0:0:
288,263,73605,2,0,P|335:249|392:231,1,89,0|0,1:0|0:0,0:0:0:0:
496,84,73918,1,8,0:0:0:0:
496,84,74230,6,0,P|396:60|332:111,1,178,4|2,0:1|0:1,0:0:0:0:
272,228,74699,1,2,0:0:0:0:
216,100,74855,1,2,0:1:0:0:
380,184,75012,1,8,0:0:0:0:
188,264,75168,1,0,0:0:0:0:
312,124,75324,1,2,0:1:0:0:
340,288,75480,6,0,P|349:330|364:384,1,89,4|0,0:0|0:0,0:0:0:0:
256,188,75793,1,2,0:1:0:0:
108,304,75949,2,0,P|149:282|196:260,1,89,2|0,0:0|0:0,0:0:0:0:
384,144,76262,1,8,0:0:0:0:
256,228,76418,1,2,0:1:0:0:
428,320,76574,1,8,0:0:0:0:
504,212,76730,6,0,P|376:240|324:260,1,178,4|2,0:0|0:1,0:0:0:0:
220,356,77199,2,0,P|164:340|116:328,1,89,2|2,0:0|0:1,0:0:0:0:
8,228,77512,2,0,P|64:212|112:200,1,89,8|2,0:0|0:1,0:0:0:0:
252,116,77824,1,8,0:0:0:0:
68,52,77980,6,0,P|104:76|156:80,1,89,0|0,1:0|0:0,0:0:0:0:
219,225,78293,2,0,P|256:200|300:195,1,89,0|0,1:0|0:0,0:0:0:0:
440,120,78605,2,0,P|467:154|475:198,1,89,0|0,1:0|0:0,0:0:0:0:
460,232,78840,1,0,0:0:0:0:
460,232,78918,6,0,B|409:242|372:252|372:252|324:220,1,146.850004481506,10|0,0:0|2:0,0:0:0:0:
300,195,79230,6,0,B|352:275|276:295|316:367,1,178,4|2,0:1|0:1,0:0:0:0:
408,192,79699,1,8,0:0:0:0:
224,252,79855,1,0,0:0:0:0:
392,326,80012,1,2,0:0:0:0:
300,196,80168,1,2,0:1:0:0:
120,272,80324,1,8,0:0:0:0:
223,162,80480,6,0,P|176:148|128:140,1,89,2|0,0:0|0:0,0:0:0:0:
0,264,80793,1,2,0:1:0:0:
0,264,80949,2,0,P|41:248|84:236,1,89,8|2,0:0|0:1,0:0:0:0:
256,360,81262,2,0,P|213:348|171:332,1,89,2|0,0:0|0:0,0:0:0:0:
32,164,81574,1,8,0:0:0:0:
2,355,81730,6,0,B|92:304|82:389|175:329,1,178,4|2,0:1|0:1,0:0:0:0:
356,248,82199,2,0,B|312:264|312:264|272:246,1,89,2|0,0:0|0:0,0:0:0:0:
100,156,82512,2,0,B|144:172|144:172|183:154,1,89,8|2,0:0|0:0,0:0:0:0:
80,248,82824,1,2,0:1:0:0:
248,96,82980,6,0,L|348:120,1,89,4|0,0:0|0:0,0:0:0:0:
456,296,83293,1,2,0:1:0:0:
300,204,83449,1,12,0:0:0:0:
468,144,83605,1,2,0:1:0:0:
468,144,83683,1,0,0:0:0:0:
468,144,83762,5,12,0:0:0:0:
332,328,83918,1,8,0:0:0:0:
182,154,84074,1,8,0:0:0:0:
24,296,84230,6,0,P|112:240|168:256,1,160.199995111084,4|2,0:0|0:0,0:0:0:0:
160,148,84698,2,0,L|64:128,1,80.0999975555421,4|0,0:3|0:0,0:0:0:0:
140,344,85012,1,2,0:0:0:0:
140,344,85168,2,0,L|236:324,1,80.0999975555421,4|2,0:3|0:0,0:0:0:0:
368,268,85480,1,4,0:3:0:0:
224,216,85637,5,2,0:0:0:0:
392,276,85793,1,2,0:3:0:0:
218,327,85949,1,2,0:0:0:0:
332,172,86105,1,0,0:0:0:0:
324,372,86262,1,2,0:0:0:0:
216,240,86418,1,0,0:0:0:0:
408,148,86574,1,8,0:0:0:0:
216,72,86730,6,0,P|184:112|200:220,1,160.199995111084,4|2,0:1|0:0,0:0:0:0:
348,340,87199,2,0,P|304:320|260:312,1,80.0999975555421,4|0,0:3|0:0,0:0:0:0:
88,368,87512,2,0,P|133:351|170:325,1,80.0999975555421,4|2,0:3|0:0,0:0:0:0:
272,232,87824,1,4,0:3:0:0:
140,148,87980,1,2,0:0:0:0:
176,296,88137,5,2,0:0:0:0:
256,148,88293,1,0,0:0:0:0:
88,224,88449,1,2,0:0:0:0:
248,344,88605,1,0,0:0:0:0:
195,214,88762,1,2,0:0:0:0:
88,368,88918,1,0,0:0:0:0:
264,260,89074,1,8,0:0:0:0:
56,192,89230,5,4,0:0:0:0:
