osu file format v14

[General]
AudioFilename: blow out.mp3
AudioLeadIn: 0
PreviewTime: 53447
Countdown: 0
SampleSet: Soft
StackLeniency: 0.5
Mode: 0
LetterboxInBreaks: 0
WidescreenStoryboard: 0

[Editor]
DistanceSpacing: 1.1
BeatDivisor: 2
GridSize: 4
TimelineZoom: 1.8

[Metadata]
Title:Blow out
TitleUnicode:Blow out
Artist:Suzuki Konomi
ArtistUnicode:鈴木このみ
Creator:Kalibe
Version:Easy
Source:ロクでなし魔術講師と禁忌教典
Tags:of bastard magic instructor Rokudenashi Majutsu Koushi to Akashic Records tv size op opening irohas mugiwarasekai kibbleru
BeatmapID:1261431
BeatmapSetID:596580

[Difficulty]
HPDrainRate:2
CircleSize:3
OverallDifficulty:2
ApproachRate:3
SliderMultiplier:0.8
SliderTickRate:1

[Events]
//Background and Video events
0,0,"819668.jpg",0,0
Video,0,"rokudenashi opening.avi"
//Break Periods
//Storyboard Layer 0 (Background)
//Storyboard Layer 1 (Fail)
//Storyboard Layer 2 (Pass)
//Storyboard Layer 3 (Foreground)
//Storyboard Sound Samples

[TimingPoints]
-613,312.5,4,2,2,20,1,0
1887,-100,4,1,2,25,0,0
3137,-100,4,2,2,30,0,0
4387,-100,4,1,2,35,0,0
5637,-100,4,2,2,45,0,0
6887,-100,4,1,2,50,0,0
7824,-100,4,2,2,55,0,0
7980,-100,4,2,2,50,0,0
9230,-100,4,2,2,65,0,0
10480,-100,4,2,2,55,0,0
15402,-100,4,2,2,5,0,0
15480,-100,4,2,2,60,0,0
20480,-100,4,2,2,55,0,0
22980,-100,4,2,2,50,0,0
32980,-100,4,2,2,60,0,0
44230,-100,4,2,2,55,0,0
49230,-100,4,2,2,65,0,0
52043,-100,4,2,2,50,0,0
52512,-100,4,2,2,60,0,0
52824,-100,4,2,2,70,0,0
53137,-100,4,2,2,35,0,0
53449,-100,4,2,2,40,0,0
53918,-100,4,2,2,65,0,0
54230,-100,4,2,2,75,0,1
63449,-100,4,2,2,65,0,0
64230,-100,4,2,2,55,0,0
64543,-100,4,2,2,20,0,0
64699,-100,4,2,2,75,0,1
69230,-100,4,2,2,80,0,1
72980,-100,4,2,2,65,0,0
74230,-100,4,2,2,60,0,0
79152,-100,4,2,2,5,0,0
79230,-100,4,2,2,65,0,0
84230,-100,4,2,2,60,0,0

[Colours]
Combo1 : 255,255,0
Combo2 : 128,128,255
Combo3 : 0,84,168
Combo4 : 0,128,255

[HitObjects]
256,192,5637,12,4,7980,0:1:0:0:
335,355,9231,6,0,P|352:318|351:271,1,80,0|0,1:2|1:2,0:0:0:0:
313,200,9856,2,0,P|296:163|297:116,1,80,0|2,1:2|0:1,0:0:0:0:
346,52,10481,6,0,P|273:78|234:64,1,120,4|2,0:1|0:0,0:0:0:0:
159,20,11262,2,0,P|113:32|33:52,1,120,8|4,0:0|0:0,0:0:0:0:
52,137,12043,2,0,P|98:124|155:110,1,80,2|0,0:1|0:0,0:0:0:0:
202,165,12668,1,2,0:1:0:0:
210,252,12980,6,0,P|162:240|87:223,1,120,4|2,0:0|0:0,0:0:0:0:
46,299,13762,2,0,P|84:308|169:328,1,120,8|0,0:0|1:0,0:0:0:0:
240,369,14543,1,0,1:0:0:0:
319,331,14855,1,0,1:0:0:0:
403,355,15168,1,10,0:0:0:0:
474,304,15480,6,0,P|482:255|446:191,1,120,4|8,0:1|0:0,0:0:0:0:
387,132,16262,2,0,L|289:151,1,80,2|8,0:0|0:0,0:0:0:0:
239,202,16887,2,0,L|138:184,1,80,0|8,0:0|0:0,0:0:0:0:
72,175,17512,1,2,0:0:0:0:
16,294,17980,6,0,P|63:259|122:272,1,120,4|8,0:0|0:0,0:0:0:0:
163,347,18762,2,0,P|212:355|247:360,1,80,8|8,0:0|0:0,0:0:0:0:
302,295,19387,2,0,P|341:301|380:307,1,80,8|8,0:0|0:0,0:0:0:0:
444,246,20012,1,8,0:0:0:0:
327,184,20480,6,0,P|246:169|194:161,2,120,4|4|4,0:1|0:3|0:3,0:0:0:0:
362,103,21730,2,0,P|281:88|229:80,2,120,4|4|8,0:3|0:3|0:0,0:0:0:0:
433,154,22980,6,0,P|458:227|443:270,1,120,4|2,0:1|0:0,0:0:0:0:
378,323,23762,2,0,L|290:309,1,80,2|2,0:1|0:1,0:0:0:0:
220,270,24387,2,0,P|143:290|77:302,2,120,2|8|2,0:1|0:0|0:1,0:0:0:0:
269,196,25637,6,0,P|298:203|358:218,1,80,2|2,0:0|0:1,0:0:0:0:
370,130,26262,2,0,P|331:120|292:110,1,80,0|2,0:0|0:1,0:0:0:0:
233,44,26887,1,2,0:0:0:0:
159,91,27199,2,0,P|164:116|177:176,2,80,8|0|8,0:0|0:0|0:0,0:0:0:0:
87,39,28137,6,0,P|69:79|75:121,1,80,4|2,0:0|0:0,0:0:0:0:
93,199,28762,1,2,0:1:0:0:
47,273,29074,1,2,0:1:0:0:
64,359,29387,2,0,L|153:343,1,80,2|2,0:0|0:1,0:0:0:0:
180,264,30012,2,0,L|268:274,1,80,0|2,0:0|0:1,0:0:0:0:
313,343,30637,6,0,P|388:361|447:306,1,160,4|8,0:0|1:2,0:0:0:0:
404,184,31730,2,0,B|341:156|289:189|289:189|230:226|165:189,1,240,4|2,0:0|0:0,0:0:0:0:
109,253,32980,6,0,P|87:195|110:137,1,120,4|8,0:1|0:0,0:0:0:0:
167,79,33762,2,0,L|250:94,1,80,2|8,0:1|0:0,0:0:0:0:
319,143,34387,2,0,P|373:126|443:120,2,120,2|0|8,0:0|0:0|0:0,0:0:0:0:
260,208,35637,6,0,P|206:191|136:185,2,120,4|2|8,0:0|0:0|0:0,0:0:0:0:
328,263,36887,2,0,L|423:248,1,80,2|8,0:0|0:0,0:0:0:0:
395,337,37512,2,0,L|315:349,1,80,2|8,0:1|0:0,0:0:0:0:
237,307,38137,5,4,0:0:0:0:
158,347,38449,2,0,P|95:333|62:328,2,80,8|2|8,0:0|0:1|0:0,0:0:0:0:
154,258,39387,2,0,P|114:249|75:242,1,80,2|8,0:1|0:0,0:0:0:0:
5,188,40012,1,0,0:0:0:0:
50,113,40324,1,8,0:0:0:0:
126,157,40637,6,0,P|172:170|242:137,1,120,4|2,0:0|0:0,0:0:0:0:
304,86,41418,1,0,0:0:0:0:
355,157,41730,2,0,P|331:234|318:280,2,120,4|8|2,0:0|0:0|0:1,0:0:0:0:
393,77,42980,2,0,P|430:51|506:68,2,120,4|8|0,0:0|0:0|0:0,0:0:0:0:
355,157,44230,6,0,L|474:185,1,120,4|2,0:1|0:0,0:0:0:0:
508,265,45012,2,0,P|438:301|364:276,1,160,12|2,0:0|0:0,0:0:0:0:
297,220,45949,2,0,L|215:239,1,80,2|12,0:1|0:0,0:0:0:0:
199,368,46730,6,0,P|119:353|65:343,1,120,4|2,0:0|0:0,0:0:0:0:
66,258,47512,2,0,P|145:272|247:291,1,160,12|2,0:0|0:0,0:0:0:0:
211,199,48449,2,0,P|168:190|128:183,1,80,2|12,0:1|0:0,0:0:0:0:
24,107,49230,6,0,L|155:90,1,120,4|8,0:1|0:0,0:0:0:0:
227,117,50012,1,10,0:0:0:0:
298,65,50324,1,8,0:0:0:0:
358,128,50637,2,0,P|346:182|340:214,2,80,10|2|8,0:0|0:1|3:2,0:0:0:0:
468,56,51730,6,0,P|453:134|443:184,1,120,4|8,0:1|0:0,0:0:0:0:
497,244,52512,1,8,0:0:0:0:
416,279,52824,1,8,0:0:0:0:
426,366,53137,1,4,0:3:0:0:
366,156,53918,1,12,0:0:0:0:
308,223,54230,6,0,P|233:245|189:225,1,120,4|8,0:1|0:0,0:0:0:0:
125,177,55012,2,0,L|40:197,1,80,2|8,0:1|0:0,0:0:0:0:
38,283,55637,2,0,L|115:264,1,80,0|8,0:0|0:0,0:0:0:0:
196,230,56262,2,0,P|213:195|211:147,1,80,2|8,0:1|0:0,0:0:0:0:
150,92,56887,6,0,P|224:120|304:80,1,160,4|2,0:0|0:1,0:0:0:0:
353,24,57824,1,8,0:0:0:0:
426,73,58137,2,0,P|449:79|515:96,1,80,4|8,0:0|0:0,0:0:0:0:
485,179,58762,2,0,P|446:169|407:158,1,80,2|8,0:1|0:0,0:0:0:0:
328,197,59387,5,4,0:1:0:0:
349,282,59699,2,0,P|361:325|375:379,2,80,8|2|8,0:0|0:1|0:0,0:0:0:0:
264,256,60637,2,0,P|253:294|242:333,1,80,4|8,0:0|0:0,0:0:0:0:
162,371,61262,1,2,0:1:0:0:
52,298,61730,6,0,P|38:223|60:187,1,120,4|8,0:0|0:0,0:0:0:0:
111,117,62512,2,0,L|193:135,1,80,8|2,0:0|3:1,0:0:0:0:
243,203,63137,1,12,0:0:0:0:
328,182,63449,2,0,B|406:170|406:170|450:200,1,120,10|2,0:0|0:1,0:0:0:0:
394,269,64230,6,0,P|320:289|276:263,1,120,2|4,0:0|1:0,0:0:0:0:
234,197,65012,2,0,P|181:210|148:219,1,80,2|8,0:1|0:0,0:0:0:0:
82,264,65637,1,4,0:0:0:0:
152,317,65949,2,0,P|178:324|242:340,2,80,8|2|8,0:0|0:1|0:0,0:0:0:0:
82,264,66887,6,0,P|63:188|110:125,1,160,4|2,0:0|0:1,0:0:0:0:
191,99,67824,1,8,0:0:0:0:
256,157,68137,2,0,L|337:144,1,80,2|8,0:0|0:0,0:0:0:0:
421,129,68761,1,2,0:1:0:0:
482,246,69230,6,0,P|411:215|369:229,1,120,4|8,0:1|0:0,0:0:0:0:
308,286,70012,1,8,0:0:0:0:
192,349,70480,2,0,P|222:278|208:236,1,120,4|8,0:1|0:0,0:0:0:0:
158,168,71262,1,8,0:0:0:0:
53,248,71730,6,0,P|25:202|36:135,1,120,4|8,0:1|0:0,0:0:0:0:
79,63,72512,1,8,0:0:0:0:
158,168,72980,2,0,P|197:160|243:151,1,80,0|0,1:0|1:0,0:0:0:0:
247,64,73605,2,0,P|286:66|326:70,1,80,0|8,1:0|0:0,0:0:0:0:
414,80,74230,6,0,P|439:133|414:199,1,120,4|2,0:1|0:0,0:0:0:0:
355,247,75012,2,0,B|278:267|278:267|237:249,1,120,8|4,0:0|0:0,0:0:0:0:
158,220,75793,2,0,B|76:247,1,80,2|2,0:1|0:0,0:0:0:0:
6,291,76418,1,2,0:1:0:0:
34,374,76730,6,0,L|161:331,1,120,4|2,0:0|0:0,0:0:0:0:
227,298,77512,2,0,P|301:321|345:298,1,120,8|0,0:0|1:0,0:0:0:0:
396,240,78293,1,0,1:0:0:0:
329,182,78605,1,0,1:0:0:0:
245,209,78918,1,10,0:0:0:0:
162,178,79230,6,0,P|136:105|164:52,1,120,4|8,0:1|0:0,0:0:0:0:
225,114,80012,2,0,L|351:89,1,120,2|2,0:0|0:1,0:0:0:0:
420,132,80792,1,2,0:1:0:0:
385,213,81105,2,0,P|346:202|307:194,1,80,2|2,0:0|0:1,0:0:0:0:
237,248,81730,6,0,P|164:271|123:252,1,120,4|2,0:0|0:0,0:0:0:0:
48,215,82512,2,0,P|74:279|92:344,2,120,8|4|8,0:0|0:0|0:0,0:0:0:0:
5,138,83762,1,8,0:0:0:0:
106,53,84230,6,0,P|179:29|223:50,2,120,4|4|4,0:0|0:3|0:3,0:0:0:0:
165,117,85480,2,0,P|92:141|48:120,2,120,4|4|0,0:3|0:3|0:0,0:0:0:0:
225,182,86730,6,0,B|282:202|282:202|345:184,1,120,4|4,0:1|0:3,0:0:0:0:
385,109,87512,2,0,P|430:171|400:251,1,160,4|2,0:3|0:0,0:0:0:0:
347,310,88449,2,0,B|256:279|238:354|153:315,1,200,4|4,0:3|0:0,0:0:0:0:
