osu file format v14

[General]
AudioFilename: audio.mp3
AudioLeadIn: 0
PreviewTime: 53364
Countdown: 0
SampleSet: Normal
StackLeniency: 0.7
Mode: 1
LetterboxInBreaks: 0
WidescreenStoryboard: 0

[Editor]
DistanceSpacing: 6
BeatDivisor: 4
GridSize: 4
TimelineZoom: 1.099999

[Metadata]
Title:Blow out
TitleUnicode:Blow out
Artist:Suzuki Konomi
ArtistUnicode:鈴木このみ
Creator:Dellvangel
Version:Kantan
Source:ロクでなし魔術講師と禁忌教典
Tags:Rokudenashi Majutsu Koushi to Akashic Records of Bastard Magic Instructor tv size opening op
BeatmapID:1286525
BeatmapSetID:602663

[Difficulty]
HPDrainRate:7
CircleSize:2
OverallDifficulty:3
ApproachRate:5
SliderMultiplier:1.2
SliderTickRate:1

[Events]
//Background and Video events
0,0,"BG.jpg",0,90
//Break Periods
//Storyboard Layer 0 (Background)
//Storyboard Layer 1 (Fail)
//Storyboard Layer 2 (Pass)
//Storyboard Layer 3 (Foreground)
//Storyboard Sound Samples

[TimingPoints]
619,314.13612565445,4,1,0,40,1,0
2975,-100,4,1,0,50,0,0
3134,312.4755878447,4,1,0,40,1,8
5477,-100,4,1,0,60,0,0
7821,-100,4,1,0,80,0,0
20476,-100,4,1,0,75,0,0
22976,-100,4,1,0,80,0,0
44224,-100,4,1,0,75,0,0
49536,-100,4,1,0,80,0,0
54223,-100,4,1,0,90,0,1
63441,-100,4,1,0,80,0,0
64691,-100,4,1,0,90,0,1
74222,-100,4,1,0,80,0,0
84221,-100,4,1,0,75,0,0

[HitObjects]
256,192,461,5,0,0:0:0:0:
256,192,1718,1,8,0:0:0:0:
256,192,2346,1,8,0:0:0:0:
256,192,2975,1,0,0:0:0:0:
264,188,4227,1,8,0:0:0:0:
264,188,4852,1,8,0:0:0:0:
264,188,5477,1,0,0:0:0:0:
256,192,6727,1,8,0:0:0:0:
256,192,7352,1,8,0:0:0:0:
256,192,7977,1,4,0:0:0:0:
256,192,9227,1,4,0:0:0:0:
256,192,9852,1,4,0:0:0:0:
256,192,10164,1,12,0:0:0:0:
256,192,10477,1,4,0:0:0:0:
256,192,11258,1,8,0:0:0:0:
256,192,11727,1,0,0:0:0:0:
256,192,12976,1,0,0:0:0:0:
256,192,13758,1,8,0:0:0:0:
256,192,14226,1,4,0:0:0:0:
256,192,14851,1,4,0:0:0:0:
256,192,15164,1,12,0:0:0:0:
256,192,15476,1,4,0:0:0:0:
256,192,16257,1,8,0:0:0:0:
256,192,16726,1,0,0:0:0:0:
256,192,17976,1,0,0:0:0:0:
256,192,18757,1,8,0:0:0:0:
256,192,19226,1,0,0:0:0:0:
256,192,19851,1,8,0:0:0:0:
256,192,20163,1,8,0:0:0:0:
256,192,20476,1,4,0:0:0:0:
256,192,21726,1,8,0:0:0:0:
256,192,22351,1,0,0:0:0:0:
256,192,22663,1,8,0:0:0:0:
256,192,22976,1,4,0:0:0:0:
256,192,23757,1,8,0:0:0:0:
256,192,24382,1,0,0:0:0:0:
256,192,24694,1,8,0:0:0:0:
256,192,25007,1,0,0:0:0:0:
256,192,25632,1,0,0:0:0:0:
256,192,26882,1,8,0:0:0:0:
256,192,27194,1,8,0:0:0:0:
256,192,27507,1,8,0:0:0:0:
256,192,28132,1,0,0:0:0:0:
256,192,28756,1,8,0:0:0:0:
256,192,29381,1,0,0:0:0:0:
256,192,29694,1,0,0:0:0:0:
256,192,30006,1,0,0:0:0:0:
256,192,30631,12,0,31724,0:0:0:0:
256,192,32975,5,4,0:0:0:0:
256,192,33444,1,8,0:0:0:0:
256,192,34069,1,0,0:0:0:0:
256,192,34381,1,0,0:0:0:0:
256,192,34694,1,8,0:0:0:0:
256,192,35631,1,0,0:0:0:0:
256,192,36256,1,0,0:0:0:0:
256,192,36568,1,8,0:0:0:0:
256,192,36881,1,0,0:0:0:0:
256,192,38131,1,0,0:0:0:0:
256,192,38756,1,8,0:0:0:0:
256,192,39381,1,0,0:0:0:0:
256,192,39693,1,8,0:0:0:0:
256,192,40006,1,0,0:0:0:0:
256,192,40631,1,8,0:0:0:0:
256,192,41412,1,8,0:0:0:0:
256,192,41724,1,0,0:0:0:0:
256,192,42505,1,8,0:0:0:0:
256,192,42974,1,0,0:0:0:0:
256,192,43755,1,8,0:0:0:0:
256,192,44224,1,4,0:0:0:0:
256,192,45005,1,8,0:0:0:0:
256,192,45630,1,0,0:0:0:0:
256,192,46255,1,8,0:0:0:0:
256,192,46724,1,4,0:0:0:0:
256,192,47505,1,8,0:0:0:0:
256,192,48130,1,0,0:0:0:0:
256,192,48755,1,8,0:0:0:0:
256,192,49224,1,4,0:0:0:0:
256,192,50005,1,8,0:0:0:0:
256,192,50317,1,8,0:0:0:0:
256,192,50630,1,0,0:0:0:0:
256,192,51255,1,8,0:0:0:0:
256,192,51723,1,4,0:0:0:0:
256,192,52036,12,0,53130,0:0:0:0:
256,192,54223,5,4,0:0:0:0:
256,192,55004,1,0,0:0:0:0:
256,192,55317,1,0,0:0:0:0:
256,192,55629,1,8,0:0:0:0:
256,192,56254,1,8,0:0:0:0:
256,192,56879,1,0,0:0:0:0:
256,192,57192,1,8,0:0:0:0:
256,192,57504,1,0,0:0:0:0:
256,192,58129,1,0,0:0:0:0:
256,192,59379,1,0,0:0:0:0:
256,192,60004,1,8,0:0:0:0:
256,192,60629,1,0,0:0:0:0:
256,192,60941,1,0,0:0:0:0:
256,192,61254,1,8,0:0:0:0:
256,192,61723,1,0,0:0:0:0:
256,192,62504,1,8,0:0:0:0:
256,192,62816,1,0,0:0:0:0:
256,192,63129,1,8,0:0:0:0:
256,192,64691,1,4,0:0:0:0:
256,192,65316,1,8,0:0:0:0:
256,192,65629,1,0,0:0:0:0:
256,192,65941,1,8,0:0:0:0:
256,192,66566,1,0,0:0:0:0:
256,192,67191,1,8,0:0:0:0:
256,192,67503,1,8,0:0:0:0:
256,192,67816,1,0,0:0:0:0:
256,192,68441,1,8,0:0:0:0:
256,192,69222,1,4,0:0:0:0:
256,192,70003,1,8,0:0:0:0:
256,192,70472,1,4,0:0:0:0:
256,192,71253,1,8,0:0:0:0:
256,192,71722,1,4,0:0:0:0:
256,192,72503,1,0,0:0:0:0:
256,192,72972,1,4,0:0:0:0:
256,192,73597,1,4,0:0:0:0:
256,192,73909,1,12,0:0:0:0:
256,192,74222,1,4,0:0:0:0:
256,192,75003,1,8,0:0:0:0:
256,192,75472,1,0,0:0:0:0:
256,192,76722,1,0,0:0:0:0:
256,192,77503,1,8,0:0:0:0:
256,192,77971,1,4,0:0:0:0:
256,192,78596,1,4,0:0:0:0:
256,192,78909,1,12,0:0:0:0:
256,192,79221,1,4,0:0:0:0:
256,192,80002,1,8,0:0:0:0:
256,192,80471,1,0,0:0:0:0:
256,192,81721,1,0,0:0:0:0:
256,192,82502,1,8,0:0:0:0:
256,192,82971,1,0,0:0:0:0:
256,192,83596,1,0,0:0:0:0:
256,192,83908,1,8,0:0:0:0:
256,192,84221,1,4,0:0:0:0:
256,192,85471,1,8,0:0:0:0:
256,192,86096,1,8,0:0:0:0:
256,192,86721,1,4,0:0:0:0:
264,188,87971,1,8,0:0:0:0:
252,192,88596,1,8,0:0:0:0:
252,192,89221,1,12,0:0:0:0:
