osu file format v14

[General]
AudioFilename: audio.mp3
AudioLeadIn: 0
PreviewTime: 53364
Countdown: 0
SampleSet: Normal
StackLeniency: 0.7
Mode: 1
LetterboxInBreaks: 0
WidescreenStoryboard: 0

[Editor]
DistanceSpacing: 6
BeatDivisor: 4
GridSize: 4
TimelineZoom: 1.4

[Metadata]
Title:Blow out
TitleUnicode:Blow out
Artist:Suzuki Konomi
ArtistUnicode:鈴木このみ
Creator:Dellvangel
Version:Muzukashii
Source:ロクでなし魔術講師と禁忌教典
Tags:Rokudenashi Majutsu Koushi to Akashic Records of Bastard Magic Instructor tv size opening op
BeatmapID:1278508
BeatmapSetID:602663

[Difficulty]
HPDrainRate:6
CircleSize:2
OverallDifficulty:5
ApproachRate:5
SliderMultiplier:1.4
SliderTickRate:1

[Events]
//Background and Video events
0,0,"BG.jpg",0,90
//Break Periods
//Storyboard Layer 0 (Background)
//Storyboard Layer 1 (Fail)
//Storyboard Layer 2 (Pass)
//Storyboard Layer 3 (Foreground)
//Storyboard Sound Samples

[TimingPoints]
619,314.13612565445,4,1,0,40,1,0
2975,-100,4,1,0,50,0,0
3134,312.4755878447,4,1,0,40,1,8
5477,-100,4,1,0,60,0,0
7821,-100,4,1,0,80,0,0
20476,-100,4,1,0,75,0,0
22976,-100,4,1,0,80,0,0
44224,-100,4,1,0,75,0,0
49536,-100,4,1,0,80,0,0
54223,-100,4,1,0,90,0,1
63441,-100,4,1,0,80,0,0
64691,-100,4,1,0,90,0,1
74222,-100,4,1,0,80,0,0
84221,-100,4,1,0,75,0,0

[HitObjects]
256,192,461,5,0,0:0:0:0:
256,192,933,1,8,0:0:0:0:
256,192,1247,1,0,0:0:0:0:
256,192,1404,1,8,0:0:0:0:
256,192,1718,1,0,0:0:0:0:
256,192,2032,1,8,0:0:0:0:
256,192,2346,1,0,0:0:0:0:
256,192,2660,1,8,0:0:0:0:
256,192,2975,1,0,0:0:0:0:
264,188,3446,1,8,0:0:0:0:
264,188,3758,1,0,0:0:0:0:
264,188,3915,1,8,0:0:0:0:
264,188,4227,1,0,0:0:0:0:
264,188,4540,1,8,0:0:0:0:
264,188,4852,1,0,0:0:0:0:
264,188,5165,1,8,0:0:0:0:
264,188,5477,1,0,0:0:0:0:
256,192,5946,1,8,0:0:0:0:
256,192,6258,1,0,0:0:0:0:
256,192,6414,1,8,0:0:0:0:
256,192,6727,1,0,0:0:0:0:
256,192,7039,1,8,0:0:0:0:
256,192,7352,1,0,0:0:0:0:
256,192,7664,1,0,0:0:0:0:
256,192,7821,1,8,0:0:0:0:
256,192,7977,1,4,0:0:0:0:
256,192,8758,1,8,0:0:0:0:
256,192,9227,1,4,0:0:0:0:
256,192,9539,1,4,0:0:0:0:
256,192,9852,1,4,0:0:0:0:
256,192,10164,1,12,0:0:0:0:
256,192,10477,1,4,0:0:0:0:
256,192,10789,1,0,0:0:0:0:
256,192,10945,1,8,0:0:0:0:
256,192,11102,1,0,0:0:0:0:
256,192,11258,1,8,0:0:0:0:
256,192,11414,1,8,0:0:0:0:
256,192,11727,1,0,0:0:0:0:
256,192,12039,1,0,0:0:0:0:
256,192,12195,1,0,0:0:0:0:
256,192,12352,1,8,0:0:0:0:
256,192,12664,1,8,0:0:0:0:
256,192,12820,1,8,0:0:0:0:
256,192,12976,1,0,0:0:0:0:
256,192,13289,1,0,0:0:0:0:
256,192,13445,1,8,0:0:0:0:
256,192,13601,1,0,0:0:0:0:
256,192,13758,1,8,0:0:0:0:
256,192,13914,1,8,0:0:0:0:
256,192,14226,1,4,0:0:0:0:
256,192,14539,1,4,0:0:0:0:
256,192,14851,1,4,0:0:0:0:
256,192,15164,1,12,0:0:0:0:
256,192,15476,1,4,0:0:0:0:
256,192,15789,1,8,0:0:0:0:
256,192,15945,1,8,0:0:0:0:
256,192,16101,1,0,0:0:0:0:
256,192,16257,1,8,0:0:0:0:
256,192,16414,1,0,0:0:0:0:
256,192,16726,1,0,0:0:0:0:
256,192,16882,1,8,0:0:0:0:
256,192,17039,1,0,0:0:0:0:
256,192,17351,1,8,0:0:0:0:
256,192,17664,1,8,0:0:0:0:
256,192,17820,1,0,0:0:0:0:
256,192,17976,1,8,0:0:0:0:
256,192,18289,1,8,0:0:0:0:
256,192,18445,1,8,0:0:0:0:
256,192,18601,1,0,0:0:0:0:
256,192,18757,1,8,0:0:0:0:
256,192,18914,1,0,0:0:0:0:
256,192,19226,1,0,0:0:0:0:
256,192,19382,1,8,0:0:0:0:
256,192,19460,1,8,0:0:0:0:
256,192,19538,1,8,0:0:0:0:
256,192,19695,1,0,0:0:0:0:
256,192,20007,1,8,0:0:0:0:
256,192,20163,1,8,0:0:0:0:
256,192,20320,1,8,0:0:0:0:
256,192,20476,1,4,0:0:0:0:
256,192,20945,1,8,0:0:0:0:
256,192,21257,1,0,0:0:0:0:
256,192,21413,1,8,0:0:0:0:
256,192,21726,1,0,0:0:0:0:
256,192,22038,1,8,0:0:0:0:
256,192,22351,1,0,0:0:0:0:
256,192,22429,1,0,0:0:0:0:
256,192,22507,1,0,0:0:0:0:
256,192,22663,1,8,0:0:0:0:
256,192,22819,1,8,0:0:0:0:
256,192,22976,1,4,0:0:0:0:
256,192,23288,1,0,0:0:0:0:
256,192,23444,1,8,0:0:0:0:
256,192,23757,1,0,0:0:0:0:
256,192,24069,1,8,0:0:0:0:
256,192,24226,1,0,0:0:0:0:
256,192,24382,1,0,0:0:0:0:
256,192,24694,1,0,0:0:0:0:
256,192,24851,1,8,0:0:0:0:
256,192,25163,1,8,0:0:0:0:
256,192,25476,1,8,0:0:0:0:
256,192,25632,1,0,0:0:0:0:
256,192,25944,1,8,0:0:0:0:
256,192,26100,1,8,0:0:0:0:
256,192,26413,1,8,0:0:0:0:
256,192,26725,1,8,0:0:0:0:
256,192,26882,1,0,0:0:0:0:
256,192,27194,1,8,0:0:0:0:
256,192,27350,1,0,0:0:0:0:
256,192,27663,1,0,0:0:0:0:
256,192,27819,1,8,0:0:0:0:
256,192,28132,1,0,0:0:0:0:
256,192,28444,1,0,0:0:0:0:
256,192,28600,1,8,0:0:0:0:
256,192,28756,1,0,0:0:0:0:
256,192,29069,1,8,0:0:0:0:
256,192,29225,1,0,0:0:0:0:
256,192,29538,1,8,0:0:0:0:
256,192,29850,1,0,0:0:0:0:
256,192,30163,1,8,0:0:0:0:
256,192,30475,1,8,0:0:0:0:
256,192,30631,1,0,0:0:0:0:
120,80,30788,2,0,L|416:80,1,288.75
256,192,31569,1,0,0:0:0:0:
256,192,31725,1,8,0:0:0:0:
256,192,32506,1,0,0:0:0:0:
256,192,32662,1,8,0:0:0:0:
256,192,32819,1,8,0:0:0:0:
256,192,32975,1,4,0:0:0:0:
256,192,33287,1,0,0:0:0:0:
256,192,33444,1,8,0:0:0:0:
256,192,33756,1,0,0:0:0:0:
256,192,33912,1,0,0:0:0:0:
256,192,34069,1,8,0:0:0:0:
256,192,34381,1,0,0:0:0:0:
256,192,34694,1,8,0:0:0:0:
256,192,34850,1,0,0:0:0:0:
256,192,35162,1,8,0:0:0:0:
256,192,35318,1,8,0:0:0:0:
256,192,35475,1,0,0:0:0:0:
256,192,35631,1,0,0:0:0:0:
256,192,35943,1,8,0:0:0:0:
256,192,36100,1,0,0:0:0:0:
256,192,36412,1,0,0:0:0:0:
256,192,36725,1,8,0:0:0:0:
256,192,36881,1,0,0:0:0:0:
256,192,37037,1,0,0:0:0:0:
256,192,37193,1,8,0:0:0:0:
256,192,37506,1,0,0:0:0:0:
256,192,37662,1,0,0:0:0:0:
256,192,37818,1,8,0:0:0:0:
256,192,37896,1,8,0:0:0:0:
256,192,37975,1,8,0:0:0:0:
256,192,38131,1,0,0:0:0:0:
256,192,38443,1,8,0:0:0:0:
256,192,38756,1,0,0:0:0:0:
256,192,38912,1,0,0:0:0:0:
256,192,39068,1,8,0:0:0:0:
256,192,39224,1,0,0:0:0:0:
256,192,39537,1,8,0:0:0:0:
256,192,39849,1,0,0:0:0:0:
256,192,40162,1,8,0:0:0:0:
256,192,40474,1,8,0:0:0:0:
256,192,40552,1,8,0:0:0:0:
256,192,40631,1,8,0:0:0:0:
256,192,40787,1,0,0:0:0:0:
256,192,40943,1,8,0:0:0:0:
256,192,41099,1,0,0:0:0:0:
256,192,41412,1,8,0:0:0:0:
256,192,41724,1,0,0:0:0:0:
256,192,42037,1,0,0:0:0:0:
256,192,42193,1,8,0:0:0:0:
256,192,42505,1,8,0:0:0:0:
256,192,42818,1,8,0:0:0:0:
256,192,42974,1,0,0:0:0:0:
256,192,43287,1,0,0:0:0:0:
256,192,43443,1,8,0:0:0:0:
256,192,43599,1,8,0:0:0:0:
256,192,43755,1,0,0:0:0:0:
256,192,43833,1,0,0:0:0:0:
256,192,43912,1,0,0:0:0:0:
256,192,44068,1,8,0:0:0:0:
256,192,44224,1,4,0:0:0:0:
256,192,44537,1,0,0:0:0:0:
256,192,44693,1,0,0:0:0:0:
256,192,45005,1,8,0:0:0:0:
256,192,45318,1,0,0:0:0:0:
256,192,45474,1,0,0:0:0:0:
256,192,45786,1,8,0:0:0:0:
256,192,45943,1,0,0:0:0:0:
256,192,46255,1,8,0:0:0:0:
256,192,46568,1,8,0:0:0:0:
256,192,46724,1,4,0:0:0:0:
256,192,47036,1,0,0:0:0:0:
256,192,47193,1,0,0:0:0:0:
256,192,47505,1,8,0:0:0:0:
256,192,47818,1,0,0:0:0:0:
256,192,47974,1,0,0:0:0:0:
256,192,48286,1,8,0:0:0:0:
256,192,48442,1,0,0:0:0:0:
256,192,48755,1,8,0:0:0:0:
256,192,49067,1,8,0:0:0:0:
256,192,49224,1,4,0:0:0:0:
256,192,49536,1,0,0:0:0:0:
256,192,49692,1,8,0:0:0:0:
256,192,50005,1,8,0:0:0:0:
256,192,50161,1,0,0:0:0:0:
256,192,50317,1,8,0:0:0:0:
256,192,50630,1,8,0:0:0:0:
256,192,50708,1,8,0:0:0:0:
256,192,50786,1,8,0:0:0:0:
256,192,50942,1,0,0:0:0:0:
256,192,51255,1,0,0:0:0:0:
256,192,51333,1,0,0:0:0:0:
256,192,51411,1,0,0:0:0:0:
256,192,51567,1,8,0:0:0:0:
256,192,51723,1,4,0:0:0:0:
256,192,52036,1,8,0:0:0:0:
256,192,52192,1,8,0:0:0:0:
256,192,52505,1,8,0:0:0:0:
256,192,52661,1,8,0:0:0:0:
256,192,52817,1,8,0:0:0:0:
256,192,52973,1,8,0:0:0:0:
256,192,53130,1,0,0:0:0:0:
256,192,53911,1,12,0:0:0:0:
256,192,54223,1,4,0:0:0:0:
256,192,54692,1,8,0:0:0:0:
256,192,55004,1,0,0:0:0:0:
256,192,55317,1,8,0:0:0:0:
256,192,55473,1,8,0:0:0:0:
256,192,55629,1,0,0:0:0:0:
256,192,55786,1,0,0:0:0:0:
256,192,55942,1,8,0:0:0:0:
256,192,56254,1,0,0:0:0:0:
256,192,56567,1,8,0:0:0:0:
256,192,56723,1,0,0:0:0:0:
256,192,56879,1,0,0:0:0:0:
256,192,57192,1,8,0:0:0:0:
256,192,57504,1,0,0:0:0:0:
256,192,57660,1,0,0:0:0:0:
256,192,57817,1,8,0:0:0:0:
256,192,57973,1,0,0:0:0:0:
256,192,58285,1,8,0:0:0:0:
256,192,58442,1,8,0:0:0:0:
256,192,58598,1,0,0:0:0:0:
256,192,58910,1,0,0:0:0:0:
256,192,59067,1,8,0:0:0:0:
256,192,59145,1,8,0:0:0:0:
256,192,59223,1,8,0:0:0:0:
256,192,59379,1,0,0:0:0:0:
256,192,59692,1,8,0:0:0:0:
256,192,59848,1,0,0:0:0:0:
256,192,60004,1,0,0:0:0:0:
256,192,60160,1,8,0:0:0:0:
256,192,60473,1,0,0:0:0:0:
256,192,60629,1,0,0:0:0:0:
256,192,60785,1,8,0:0:0:0:
256,192,61098,1,0,0:0:0:0:
256,192,61254,1,8,0:0:0:0:
256,192,61410,1,0,0:0:0:0:
256,192,61566,1,8,0:0:0:0:
256,192,61723,1,0,0:0:0:0:
256,192,62035,1,0,0:0:0:0:
256,192,62191,1,8,0:0:0:0:
256,192,62504,1,8,0:0:0:0:
256,192,62660,1,8,0:0:0:0:
256,192,62816,1,0,0:0:0:0:
256,192,62894,1,0,0:0:0:0:
256,192,62973,1,0,0:0:0:0:
256,192,63129,1,8,0:0:0:0:
256,192,63441,1,8,0:0:0:0:
256,192,63598,1,0,0:0:0:0:
256,192,63910,1,0,0:0:0:0:
256,192,64222,1,8,0:0:0:0:
256,192,64691,1,4,0:0:0:0:
256,192,65004,1,0,0:0:0:0:
256,192,65316,1,8,0:0:0:0:
256,192,65472,1,0,0:0:0:0:
256,192,65629,1,0,0:0:0:0:
256,192,65785,1,8,0:0:0:0:
256,192,65941,1,8,0:0:0:0:
256,192,66254,1,0,0:0:0:0:
256,192,66566,1,8,0:0:0:0:
256,192,66722,1,8,0:0:0:0:
256,192,66879,1,0,0:0:0:0:
256,192,67035,1,0,0:0:0:0:
256,192,67191,1,8,0:0:0:0:
256,192,67503,1,0,0:0:0:0:
256,192,67816,1,8,0:0:0:0:
256,192,67972,1,8,0:0:0:0:
256,192,68128,1,0,0:0:0:0:
256,192,68441,1,8,0:0:0:0:
256,192,68597,1,8,0:0:0:0:
256,192,68753,1,0,0:0:0:0:
256,192,68910,1,0,0:0:0:0:
256,192,69066,1,8,0:0:0:0:
256,192,69144,1,8,0:0:0:0:
256,192,69222,1,8,0:0:0:0:
256,192,69535,1,0,0:0:0:0:
256,192,69691,1,8,0:0:0:0:
256,192,69847,1,8,0:0:0:0:
256,192,70003,1,8,0:0:0:0:
256,192,70160,1,0,0:0:0:0:
256,192,70316,1,8,0:0:0:0:
256,192,70472,1,4,0:0:0:0:
256,192,70784,1,0,0:0:0:0:
256,192,70941,1,8,0:0:0:0:
256,192,71097,1,0,0:0:0:0:
256,192,71253,1,8,0:0:0:0:
256,192,71409,1,8,0:0:0:0:
256,192,71566,1,8,0:0:0:0:
256,192,71722,1,4,0:0:0:0:
256,192,72034,1,0,0:0:0:0:
256,192,72191,1,8,0:0:0:0:
256,192,72347,1,0,0:0:0:0:
256,192,72503,1,0,0:0:0:0:
256,192,72581,1,0,0:0:0:0:
256,192,72659,1,0,0:0:0:0:
256,192,72816,1,8,0:0:0:0:
256,192,72972,1,4,0:0:0:0:
256,192,73284,1,4,0:0:0:0:
256,192,73597,1,4,0:0:0:0:
256,192,73909,1,12,0:0:0:0:
256,192,74222,1,4,0:0:0:0:
256,192,74534,1,0,0:0:0:0:
256,192,74690,1,8,0:0:0:0:
256,192,74847,1,0,0:0:0:0:
256,192,75003,1,8,0:0:0:0:
256,192,75159,1,8,0:0:0:0:
256,192,75472,1,0,0:0:0:0:
256,192,75784,1,0,0:0:0:0:
256,192,75940,1,0,0:0:0:0:
256,192,76097,1,8,0:0:0:0:
256,192,76409,1,8,0:0:0:0:
256,192,76565,1,8,0:0:0:0:
256,192,76722,1,0,0:0:0:0:
256,192,77034,1,0,0:0:0:0:
256,192,77190,1,8,0:0:0:0:
256,192,77346,1,0,0:0:0:0:
256,192,77503,1,8,0:0:0:0:
256,192,77659,1,8,0:0:0:0:
256,192,77971,1,4,0:0:0:0:
256,192,78284,1,4,0:0:0:0:
256,192,78596,1,4,0:0:0:0:
256,192,78909,1,12,0:0:0:0:
256,192,79221,1,4,0:0:0:0:
256,192,79534,1,8,0:0:0:0:
256,192,79690,1,8,0:0:0:0:
256,192,79846,1,0,0:0:0:0:
256,192,80002,1,8,0:0:0:0:
256,192,80159,1,0,0:0:0:0:
256,192,80471,1,0,0:0:0:0:
256,192,80627,1,8,0:0:0:0:
256,192,80784,1,0,0:0:0:0:
256,192,81096,1,8,0:0:0:0:
256,192,81409,1,8,0:0:0:0:
256,192,81565,1,0,0:0:0:0:
256,192,81721,1,8,0:0:0:0:
256,192,82034,1,8,0:0:0:0:
256,192,82190,1,8,0:0:0:0:
256,192,82346,1,0,0:0:0:0:
256,192,82502,1,8,0:0:0:0:
256,192,82659,1,0,0:0:0:0:
256,192,82971,1,0,0:0:0:0:
256,192,83127,1,8,0:0:0:0:
256,192,83283,1,0,0:0:0:0:
256,192,83596,1,0,0:0:0:0:
256,192,83674,1,0,0:0:0:0:
256,192,83752,1,0,0:0:0:0:
256,192,83908,1,8,0:0:0:0:
256,192,84065,1,8,0:0:0:0:
256,192,84221,1,4,0:0:0:0:
256,192,84690,1,8,0:0:0:0:
256,192,85002,1,0,0:0:0:0:
256,192,85158,1,8,0:0:0:0:
256,192,85471,1,0,0:0:0:0:
256,192,85783,1,8,0:0:0:0:
256,192,86096,1,8,0:0:0:0:
256,192,86252,1,0,0:0:0:0:
256,192,86408,1,0,0:0:0:0:
256,192,86721,1,4,0:0:0:0:
264,188,87189,1,8,0:0:0:0:
264,188,87502,1,0,0:0:0:0:
264,188,87658,1,8,0:0:0:0:
264,188,87971,1,0,0:0:0:0:
252,192,88283,1,8,0:0:0:0:
252,192,88596,1,8,0:0:0:0:
248,192,88752,1,0,0:0:0:0:
248,192,88908,1,0,0:0:0:0:
252,192,89221,1,12,0:0:0:0:
