osu file format v14

[General]
AudioFilename: audio.mp3
AudioLeadIn: 0
PreviewTime: 53364
Countdown: 0
SampleSet: Normal
StackLeniency: 0.7
Mode: 1
LetterboxInBreaks: 0
WidescreenStoryboard: 0

[Editor]
DistanceSpacing: 6
BeatDivisor: 2
GridSize: 4
TimelineZoom: 1.599999

[Metadata]
Title:Blow out
TitleUnicode:Blow out
Artist:Suzuki Konomi
ArtistUnicode:鈴木このみ
Creator:Dellvangel
Version:Futsuu
Source:ロクでなし魔術講師と禁忌教典
Tags:Rokudenashi Majutsu Koushi to Akashic Records of Bastard Magic Instructor tv size opening op
BeatmapID:1286441
BeatmapSetID:602663

[Difficulty]
HPDrainRate:7
CircleSize:2
OverallDifficulty:4
ApproachRate:5
SliderMultiplier:1.2
SliderTickRate:1

[Events]
//Background and Video events
0,0,"BG.jpg",0,90
//Break Periods
//Storyboard Layer 0 (Background)
//Storyboard Layer 1 (Fail)
//Storyboard Layer 2 (Pass)
//Storyboard Layer 3 (Foreground)
//Storyboard Sound Samples

[TimingPoints]
619,314.13612565445,4,1,0,40,1,0
2975,-100,4,1,0,50,0,0
3134,312.4755878447,4,1,0,40,1,8
5477,-100,4,1,0,60,0,0
7821,-100,4,1,0,80,0,0
20476,-100,4,1,0,75,0,0
22976,-100,4,1,0,80,0,0
44224,-100,4,1,0,75,0,0
49536,-100,4,1,0,80,0,0
54223,-100,4,1,0,90,0,1
63441,-100,4,1,0,80,0,0
64691,-100,4,1,0,90,0,1
74222,-100,4,1,0,80,0,0
84221,-100,4,1,0,75,0,0

[HitObjects]
256,192,461,5,0,0:0:0:0:
256,192,933,1,0,0:0:0:0:
256,192,1404,1,8,0:0:0:0:
256,192,1718,1,0,0:0:0:0:
256,192,2032,1,8,0:0:0:0:
256,192,2660,1,8,0:0:0:0:
256,192,2975,1,0,0:0:0:0:
264,188,3446,1,0,0:0:0:0:
264,188,3915,1,8,0:0:0:0:
264,188,4227,1,0,0:0:0:0:
264,188,4540,1,8,0:0:0:0:
264,188,5165,1,8,0:0:0:0:
264,188,5477,1,0,0:0:0:0:
256,192,5946,1,0,0:0:0:0:
256,192,6414,1,8,0:0:0:0:
256,192,6727,1,0,0:0:0:0:
256,192,7039,1,8,0:0:0:0:
256,192,7664,1,8,0:0:0:0:
256,192,7977,1,4,0:0:0:0:
256,192,8758,1,8,0:0:0:0:
256,192,9227,1,4,0:0:0:0:
256,192,9539,1,4,0:0:0:0:
256,192,9852,1,4,0:0:0:0:
256,192,10164,1,12,0:0:0:0:
256,192,10477,1,4,0:0:0:0:
256,192,10945,1,8,0:0:0:0:
256,192,11258,1,8,0:0:0:0:
256,192,11414,1,8,0:0:0:0:
256,192,11727,1,0,0:0:0:0:
256,192,12352,1,0,0:0:0:0:
256,192,12664,1,8,0:0:0:0:
256,192,12976,1,0,0:0:0:0:
256,192,13445,1,8,0:0:0:0:
256,192,13758,1,8,0:0:0:0:
256,192,13914,1,8,0:0:0:0:
256,192,14226,1,4,0:0:0:0:
256,192,14539,1,4,0:0:0:0:
256,192,14851,1,4,0:0:0:0:
256,192,15164,1,12,0:0:0:0:
256,192,15476,1,4,0:0:0:0:
256,192,15945,1,8,0:0:0:0:
256,192,16257,1,8,0:0:0:0:
256,192,16414,1,8,0:0:0:0:
256,192,16726,1,0,0:0:0:0:
256,192,17351,1,0,0:0:0:0:
256,192,17664,1,8,0:0:0:0:
256,192,17976,1,0,0:0:0:0:
256,192,18445,1,8,0:0:0:0:
256,192,18757,1,8,0:0:0:0:
256,192,18914,1,8,0:0:0:0:
256,192,19226,1,0,0:0:0:0:
256,192,19538,1,8,0:0:0:0:
256,192,19851,1,0,0:0:0:0:
256,192,20163,1,8,0:0:0:0:
256,192,20320,1,8,0:0:0:0:
256,192,20476,1,4,0:0:0:0:
256,192,20945,1,0,0:0:0:0:
256,192,21413,1,8,0:0:0:0:
256,192,21726,1,0,0:0:0:0:
256,192,22038,1,8,0:0:0:0:
256,192,22351,1,0,0:0:0:0:
256,192,22508,1,0,0:0:0:0:
256,192,22664,1,8,0:0:0:0:
256,192,22976,1,4,0:0:0:0:
256,192,23445,1,8,0:0:0:0:
256,192,23758,1,0,0:0:0:0:
256,192,24070,1,8,0:0:0:0:
256,192,24383,1,8,0:0:0:0:
256,192,24695,1,0,0:0:0:0:
256,192,25320,1,8,0:0:0:0:
256,192,25633,1,0,0:0:0:0:
256,192,25945,1,8,0:0:0:0:
256,192,26570,1,0,0:0:0:0:
256,192,26883,1,0,0:0:0:0:
256,192,27195,1,8,0:0:0:0:
256,192,27508,1,0,0:0:0:0:
256,192,28133,1,0,0:0:0:0:
256,192,28445,1,8,0:0:0:0:
256,192,28756,1,8,0:0:0:0:
256,192,29069,1,8,0:0:0:0:
256,192,29381,1,0,0:0:0:0:
256,192,29850,1,0,0:0:0:0:
256,192,30319,1,8,0:0:0:0:
256,192,30631,12,0,31724,0:0:0:0:
256,192,32506,5,0,0:0:0:0:
256,192,32975,1,4,0:0:0:0:
256,192,33444,1,8,0:0:0:0:
256,192,33756,1,0,0:0:0:0:
256,192,33912,1,0,0:0:0:0:
256,192,34069,1,8,0:0:0:0:
256,192,34381,1,0,0:0:0:0:
256,192,34694,1,8,0:0:0:0:
256,192,35318,1,8,0:0:0:0:
256,192,35631,1,0,0:0:0:0:
256,192,35943,1,8,0:0:0:0:
256,192,36568,1,8,0:0:0:0:
256,192,36881,1,0,0:0:0:0:
256,192,37193,1,8,0:0:0:0:
260,184,37506,1,0,0:0:0:0:
256,192,37818,1,8,0:0:0:0:
256,192,37975,1,8,0:0:0:0:
256,192,38131,1,0,0:0:0:0:
256,192,38443,1,8,0:0:0:0:
256,192,39068,1,8,0:0:0:0:
256,192,39381,1,0,0:0:0:0:
256,192,39693,1,8,0:0:0:0:
256,192,40318,1,8,0:0:0:0:
256,192,40631,1,8,0:0:0:0:
256,192,40943,1,0,0:0:0:0:
256,192,41099,1,0,0:0:0:0:
256,192,41412,1,8,0:0:0:0:
256,192,41724,1,0,0:0:0:0:
256,192,42193,1,8,0:0:0:0:
256,192,42505,1,8,0:0:0:0:
256,192,42818,1,8,0:0:0:0:
256,192,42974,1,0,0:0:0:0:
256,192,43443,1,8,0:0:0:0:
256,192,43755,1,0,0:0:0:0:
256,192,44068,1,8,0:0:0:0:
256,192,44224,1,4,0:0:0:0:
256,192,44693,1,0,0:0:0:0:
256,192,45005,1,8,0:0:0:0:
256,192,45630,1,0,0:0:0:0:
256,192,45943,1,0,0:0:0:0:
256,192,46255,1,8,0:0:0:0:
256,192,46568,1,8,0:0:0:0:
256,192,46724,1,4,0:0:0:0:
256,192,47193,1,0,0:0:0:0:
256,192,47505,1,8,0:0:0:0:
256,192,48130,1,0,0:0:0:0:
256,192,48442,1,0,0:0:0:0:
256,192,48755,1,8,0:0:0:0:
256,192,49067,1,8,0:0:0:0:
256,192,49224,1,4,0:0:0:0:
256,192,49692,1,8,0:0:0:0:
256,192,50005,1,0,0:0:0:0:
256,192,50317,1,8,0:0:0:0:
256,192,50630,1,0,0:0:0:0:
256,192,50942,1,0,0:0:0:0:
256,192,51255,1,8,0:0:0:0:
256,192,51567,1,8,0:0:0:0:
256,192,51723,1,4,0:0:0:0:
256,192,52192,1,8,0:0:0:0:
256,192,52505,1,8,0:0:0:0:
256,192,52661,1,8,0:0:0:0:
256,192,52817,1,8,0:0:0:0:
256,192,53130,1,0,0:0:0:0:
256,192,53911,1,12,0:0:0:0:
256,192,54223,1,4,0:0:0:0:
256,192,54692,1,8,0:0:0:0:
256,192,55004,1,0,0:0:0:0:
256,192,55317,1,8,0:0:0:0:
256,192,55473,1,8,0:0:0:0:
256,192,55629,1,0,0:0:0:0:
256,192,55942,1,8,0:0:0:0:
256,192,56567,1,8,0:0:0:0:
256,192,56879,1,0,0:0:0:0:
256,192,57192,1,8,0:0:0:0:
256,192,57504,1,0,0:0:0:0:
256,192,57660,1,0,0:0:0:0:
256,192,57817,1,8,0:0:0:0:
256,192,58129,1,0,0:0:0:0:
256,192,58442,1,8,0:0:0:0:
256,192,58754,1,0,0:0:0:0:
256,192,59379,1,0,0:0:0:0:
256,192,59692,1,8,0:0:0:0:
256,192,60004,1,0,0:0:0:0:
256,192,60317,1,8,0:0:0:0:
256,192,60629,1,0,0:0:0:0:
256,192,60941,1,0,0:0:0:0:
256,192,61254,1,8,0:0:0:0:
256,192,61566,1,8,0:0:0:0:
256,192,61723,1,0,0:0:0:0:
256,192,62191,1,8,0:0:0:0:
256,192,62504,1,0,0:0:0:0:
256,192,62816,1,0,0:0:0:0:
256,192,62973,1,0,0:0:0:0:
256,192,63129,1,8,0:0:0:0:
256,192,63598,1,0,0:0:0:0:
256,192,64222,1,8,0:0:0:0:
256,192,64691,1,4,0:0:0:0:
256,192,65316,1,8,0:0:0:0:
256,192,65629,1,0,0:0:0:0:
256,192,65785,1,0,0:0:0:0:
256,192,65941,1,8,0:0:0:0:
256,192,66566,1,8,0:0:0:0:
256,192,66879,1,0,0:0:0:0:
256,192,67191,1,8,0:0:0:0:
256,192,67503,1,0,0:0:0:0:
256,192,67816,1,8,0:0:0:0:
256,192,67972,1,8,0:0:0:0:
256,192,68128,1,0,0:0:0:0:
256,192,68441,1,8,0:0:0:0:
256,192,68753,1,0,0:0:0:0:
256,192,69222,1,4,0:0:0:0:
256,192,69691,1,8,0:0:0:0:
256,192,70003,1,8,0:0:0:0:
256,192,70316,1,8,0:0:0:0:
256,192,70472,1,4,0:0:0:0:
256,192,70941,1,8,0:0:0:0:
256,192,71253,1,8,0:0:0:0:
256,192,71566,1,8,0:0:0:0:
256,192,71722,1,4,0:0:0:0:
256,192,72191,1,8,0:0:0:0:
256,192,72503,1,0,0:0:0:0:
256,192,72816,1,8,0:0:0:0:
256,192,72972,1,4,0:0:0:0:
256,192,73284,1,4,0:0:0:0:
256,192,73597,1,4,0:0:0:0:
256,192,73909,1,12,0:0:0:0:
256,192,74222,1,4,0:0:0:0:
256,192,74690,1,8,0:0:0:0:
256,192,75003,1,8,0:0:0:0:
256,192,75159,1,8,0:0:0:0:
256,192,75472,1,0,0:0:0:0:
256,192,76097,1,0,0:0:0:0:
256,192,76409,1,8,0:0:0:0:
256,192,76722,1,0,0:0:0:0:
256,192,77190,1,8,0:0:0:0:
256,192,77503,1,8,0:0:0:0:
256,192,77659,1,8,0:0:0:0:
256,192,77971,1,4,0:0:0:0:
256,192,78284,1,4,0:0:0:0:
256,192,78596,1,4,0:0:0:0:
256,192,78909,1,12,0:0:0:0:
256,192,79221,1,4,0:0:0:0:
256,192,79690,1,8,0:0:0:0:
256,192,80002,1,8,0:0:0:0:
256,192,80159,1,8,0:0:0:0:
256,192,80471,1,0,0:0:0:0:
256,192,81096,1,0,0:0:0:0:
256,192,81409,1,8,0:0:0:0:
256,192,81721,1,0,0:0:0:0:
256,192,82190,1,8,0:0:0:0:
256,192,82502,1,8,0:0:0:0:
256,192,82659,1,8,0:0:0:0:
256,192,82971,1,0,0:0:0:0:
256,192,83440,1,8,0:0:0:0:
256,192,83752,1,0,0:0:0:0:
256,192,83908,1,8,0:0:0:0:
256,192,84221,1,4,0:0:0:0:
256,192,84690,1,0,0:0:0:0:
256,192,85158,1,8,0:0:0:0:
256,192,85471,1,0,0:0:0:0:
256,192,85783,1,8,0:0:0:0:
256,192,86408,1,8,0:0:0:0:
256,192,86721,1,4,0:0:0:0:
264,188,87189,1,0,0:0:0:0:
264,188,87658,1,8,0:0:0:0:
264,188,87971,1,0,0:0:0:0:
264,188,88283,1,8,0:0:0:0:
248,192,88908,1,8,0:0:0:0:
252,192,89221,1,12,0:0:0:0:
