osu file format v14

[General]
AudioFilename: Suzuki Konomi - Blow out.mp3
AudioLeadIn: 0
PreviewTime: 53354
Countdown: 0
SampleSet: Soft
StackLeniency: 0.7
Mode: 3
LetterboxInBreaks: 0
SpecialStyle: 0
WidescreenStoryboard: 0

[Editor]
DistanceSpacing: 1
BeatDivisor: 4
GridSize: 4
TimelineZoom: 1.699999

[Metadata]
Title:Blow out
TitleUnicode:Blow out
Artist:Suzuki Konomi
ArtistUnicode:鈴木このみ
Creator:Amiichii
Version:Sya's Easy
Source:ロクでなし魔術講師と禁忌教典
Tags:rokudenashi majutsu koushi to akashic records of bastard magic instructor tv size anime opening - Ly0572 - Syadow-
BeatmapID:1288704
BeatmapSetID:610067

[Difficulty]
HPDrainRate:7
CircleSize:4
OverallDifficulty:7
ApproachRate:9.3
SliderMultiplier:1.92
SliderTickRate:1

[Events]
//Background and Video events
0,0,"bg-ez.jpg",0,0
Video,0,"opening rokudenashi.avi"
//Break Periods
//Storyboard Layer 0 (Background)
//Storyboard Layer 1 (Fail)
//Storyboard Layer 2 (Pass)
//Storyboard Layer 3 (Foreground)
//Storyboard Sound Samples

[TimingPoints]
463,312.5,4,2,1,15,1,0
7806,-100,4,2,1,75,0,0
54213,-100,4,2,1,75,0,1
64213,-100,4,2,1,75,0,0
64681,-100,4,2,1,75,0,1
74213,-100,4,2,1,75,0,0

[HitObjects]
320,192,463,128,0,1713:0:0:0:0:
64,192,1713,1,0,0:0:0:0:
192,192,2025,1,0,0:0:0:0:
320,192,2338,1,0,0:0:0:0:
448,192,2650,128,0,2963:0:0:0:0:
192,192,2963,128,0,4213:0:0:0:0:
448,192,4213,1,0,0:0:0:0:
320,192,4525,1,0,0:0:0:0:
192,192,4838,1,0,0:0:0:0:
64,192,5150,128,0,5463:0:0:0:0:
320,192,5463,128,0,7806:0:0:0:0:
192,192,7806,1,8,0:0:0:0:
448,192,7963,1,2,0:0:0:0:
64,192,9213,1,2,0:0:0:0:
320,192,9525,1,2,0:0:0:0:
192,192,9838,1,2,0:0:0:0:
448,192,10150,1,2,0:0:0:0:
64,192,10463,1,2,0:0:0:0:
320,192,10463,1,4,0:0:0:0:
192,192,10775,1,2,0:0:0:0:
448,192,10931,1,2,0:0:0:0:
64,192,11088,1,2,0:0:0:0:
192,192,11244,1,8,0:0:0:0:
448,192,11400,1,0,0:0:0:0:
320,192,11556,1,6,0:0:0:0:
64,192,11713,1,6,0:0:0:0:
192,192,12025,1,2,0:0:0:0:
448,192,12338,1,0,0:0:0:0:
320,192,12650,1,2,0:0:0:0:
192,192,12963,1,2,0:0:0:0:
64,192,12963,1,4,0:0:0:0:
448,192,13275,1,2,0:0:0:0:
192,192,13431,1,2,0:0:0:0:
320,192,13588,1,2,0:0:0:0:
64,192,13744,1,8,0:0:0:0:
192,192,13900,1,2,0:0:0:0:
448,192,14056,1,8,0:0:0:0:
320,192,14213,1,2,0:0:0:0:
64,192,14525,1,2,0:0:0:0:
448,192,14838,1,2,0:0:0:0:
192,192,15150,128,8,15463:0:0:0:0:
320,192,15463,1,4,0:0:0:0:
448,192,15463,1,2,0:0:0:0:
64,192,15775,1,2,0:0:0:0:
192,192,15931,1,8,0:0:0:0:
320,192,16088,1,0,0:0:0:0:
448,192,16244,1,2,0:0:0:0:
192,192,16400,1,2,0:0:0:0:
320,192,16556,1,8,0:0:0:0:
64,192,16713,1,2,0:0:0:0:
448,192,17025,1,2,0:0:0:0:
192,192,17338,1,2,0:0:0:0:
320,192,17650,1,2,0:0:0:0:
64,192,17963,1,2,0:0:0:0:
192,192,17963,1,4,0:0:0:0:
448,192,18275,1,2,0:0:0:0:
192,192,18431,1,8,0:0:0:0:
320,192,18588,1,2,0:0:0:0:
64,192,18744,1,8,0:0:0:0:
448,192,18900,1,2,0:0:0:0:
192,192,19056,1,8,0:0:0:0:
320,192,19213,1,2,0:0:0:0:
192,192,19525,1,8,0:0:0:0:
64,192,19838,1,2,0:0:0:0:
320,192,19994,1,8,0:0:0:0:
448,192,20150,1,8,0:0:0:0:
192,192,20306,1,8,0:0:0:0:
64,192,20463,128,2,22338:0:0:0:0:
320,192,20463,1,4,0:0:0:0:
448,192,22338,1,0,0:0:0:0:
192,192,22494,1,2,0:0:0:0:
320,192,22650,1,8,0:0:0:0:
64,192,22806,1,8,0:0:0:0:
448,192,22963,1,4,0:0:0:0:
192,192,22963,1,2,0:0:0:0:
320,192,23431,1,2,0:0:0:0:
192,192,23744,1,2,0:0:0:0:
64,192,24056,1,2,0:0:0:0:
448,192,24369,1,2,0:0:0:0:
192,192,24681,1,2,0:0:0:0:
64,192,24838,1,8,0:0:0:0:
320,192,24994,1,2,0:0:0:0:
448,192,25306,1,2,0:0:0:0:
64,192,25463,1,8,0:0:0:0:
320,192,25619,1,2,0:0:0:0:
192,192,25931,1,2,0:0:0:0:
320,192,26244,1,2,0:0:0:0:
448,192,26556,1,2,0:0:0:0:
192,192,26713,1,8,0:0:0:0:
64,192,26869,1,2,0:0:0:0:
448,192,27181,1,8,0:0:0:0:
320,192,27494,1,2,0:0:0:0:
192,192,27806,1,8,0:0:0:0:
64,192,28119,1,4,0:0:0:0:
448,192,28119,1,2,0:0:0:0:
320,192,28431,1,2,0:0:0:0:
192,192,28744,1,2,0:0:0:0:
448,192,29056,1,2,0:0:0:0:
64,192,29369,1,2,0:0:0:0:
192,192,29681,1,2,0:0:0:0:
320,192,29994,1,2,0:0:0:0:
448,192,30306,1,2,0:0:0:0:
192,192,30463,1,8,0:0:0:0:
64,192,30619,128,4,31713:0:0:0:0:
320,192,30619,1,2,0:0:0:0:
320,192,31713,1,4,0:0:0:0:
448,192,31713,1,2,0:0:0:0:
192,192,32806,1,8,0:0:0:0:
448,192,32963,1,2,0:0:0:0:
320,192,32963,1,4,0:0:0:0:
64,192,33275,1,2,0:0:0:0:
320,192,33431,1,8,0:0:0:0:
192,192,33744,1,2,0:0:0:0:
320,192,33900,1,2,0:0:0:0:
448,192,34056,1,8,0:0:0:0:
64,192,34369,1,2,0:0:0:0:
192,192,34525,1,2,0:0:0:0:
320,192,34681,1,8,0:0:0:0:
448,192,34994,1,2,0:0:0:0:
192,192,35150,1,2,0:0:0:0:
64,192,35306,1,8,0:0:0:0:
320,192,35619,1,2,0:0:0:0:
448,192,35619,1,4,0:0:0:0:
64,192,35775,1,2,0:0:0:0:
192,192,35931,1,8,0:0:0:0:
448,192,36244,1,2,0:0:0:0:
320,192,36400,1,2,0:0:0:0:
64,192,36556,1,8,0:0:0:0:
192,192,36869,1,2,0:0:0:0:
320,192,37025,1,2,0:0:0:0:
448,192,37181,128,8,37494:0:0:0:0:
64,192,37494,1,2,0:0:0:0:
320,192,37650,1,2,0:0:0:0:
192,192,37806,128,8,38119:0:0:0:0:
448,192,38119,1,4,0:0:0:0:
64,192,38119,1,2,0:0:0:0:
320,192,38431,1,8,0:0:0:0:
64,192,38744,1,2,0:0:0:0:
192,192,38900,1,2,0:0:0:0:
448,192,39056,1,8,0:0:0:0:
320,192,39369,1,2,0:0:0:0:
192,192,39525,1,2,0:0:0:0:
64,192,39681,1,8,0:0:0:0:
448,192,39994,1,2,0:0:0:0:
192,192,40150,1,2,0:0:0:0:
320,192,40306,1,8,0:0:0:0:
64,192,40619,1,4,0:0:0:0:
192,192,40619,1,2,0:0:0:0:
448,192,40931,1,8,0:0:0:0:
320,192,41244,1,2,0:0:0:0:
64,192,41400,1,2,0:0:0:0:
192,192,41556,1,8,0:0:0:0:
448,192,41713,1,4,0:0:0:0:
320,192,41713,1,2,0:0:0:0:
64,192,42025,1,2,0:0:0:0:
448,192,42181,1,8,0:0:0:0:
192,192,42494,1,8,0:0:0:0:
448,192,42806,1,8,0:0:0:0:
320,192,42963,1,4,0:0:0:0:
64,192,42963,1,2,0:0:0:0:
448,192,43275,1,2,0:0:0:0:
64,192,43431,1,8,0:0:0:0:
192,192,43744,1,8,3:0:0:0:
448,192,44056,1,8,0:0:0:0:
64,192,44213,1,4,0:0:0:0:
192,192,44213,1,2,0:0:0:0:
448,192,44525,1,2,0:0:0:0:
64,192,44681,1,2,0:0:0:0:
320,192,44994,1,8,0:0:0:0:
320,192,45306,1,2,0:0:0:0:
192,192,45619,1,0,0:0:0:0:
192,192,45931,1,2,0:0:0:0:
448,192,46244,1,8,0:0:0:0:
64,192,46400,1,2,0:0:0:0:
320,192,46713,1,4,0:0:0:0:
448,192,46713,1,2,0:0:0:0:
192,192,47025,1,2,0:0:0:0:
320,192,47181,1,2,0:0:0:0:
64,192,47494,1,8,0:0:0:0:
64,192,47806,1,2,0:0:0:0:
448,192,48119,1,0,0:0:0:0:
448,192,48431,1,2,0:0:0:0:
192,192,48744,1,8,0:0:0:0:
320,192,48900,1,2,0:0:0:0:
64,192,49056,1,8,0:0:0:0:
192,192,49213,1,4,0:0:0:0:
448,192,49213,1,2,0:0:0:0:
320,192,49525,1,2,0:0:0:0:
64,192,49681,1,8,0:0:0:0:
448,192,49994,1,8,0:0:0:0:
64,192,50306,1,8,0:0:0:0:
320,192,50619,1,8,0:0:0:0:
192,192,50931,1,8,3:0:0:0:
320,192,51244,1,8,3:0:0:0:
192,192,51556,1,8,0:0:0:0:
320,192,51713,1,4,0:0:0:0:
448,192,51713,1,2,0:0:0:0:
64,192,52025,1,8,0:0:0:0:
192,192,52181,1,8,0:0:0:0:
320,192,52338,1,8,0:0:0:0:
448,192,52494,1,8,0:0:0:0:
64,192,52650,1,8,0:0:0:0:
192,192,52806,1,8,0:0:0:0:
448,192,52963,1,8,0:0:0:0:
320,192,53119,1,2,0:0:0:0:
64,192,53119,1,4,0:0:0:0:
64,192,53900,128,2,54213:0:0:0:0:
192,192,53900,1,0,0:0:0:75:soft-hitclap99.wav
320,192,54213,1,2,0:0:0:0:
448,192,54213,1,4,0:0:0:0:
448,192,54681,1,8,0:0:0:0:
192,192,54994,1,2,0:0:0:0:
448,192,55306,1,8,0:0:0:0:
64,192,55619,1,6,0:0:0:0:
320,192,55931,1,8,0:0:0:0:
64,192,56244,1,2,0:0:0:0:
320,192,56556,1,8,0:0:0:0:
192,192,56869,1,4,0:0:0:0:
64,192,56869,1,2,0:0:0:0:
448,192,57181,1,8,0:0:0:0:
64,192,57494,1,2,0:0:0:0:
448,192,57806,1,8,0:0:0:0:
192,192,58119,1,6,0:0:0:0:
320,192,58431,1,8,0:0:0:0:
192,192,58744,1,2,0:0:0:0:
320,192,59056,128,8,59369:0:0:0:0:
192,192,59369,1,2,0:0:0:0:
64,192,59369,1,4,0:0:0:0:
448,192,59681,1,8,0:0:0:0:
320,192,59994,1,2,0:0:0:0:
64,192,60306,1,8,0:0:0:0:
192,192,60619,1,6,0:0:0:0:
448,192,60931,1,8,0:0:0:0:
192,192,61244,1,2,0:0:0:0:
320,192,61556,1,8,0:0:0:0:
64,192,61713,1,6,0:0:0:0:
192,192,62025,1,2,0:0:0:0:
448,192,62181,1,8,0:0:0:0:
64,192,62494,1,8,0:0:0:0:
448,192,62806,128,8,63119:3:0:0:0:
192,192,63119,1,8,0:0:0:0:
64,192,63119,1,0,0:0:0:0:
320,192,63431,1,8,0:0:0:0:
64,192,63588,1,2,0:0:0:0:
192,192,63900,1,2,0:0:0:0:
448,192,64213,128,2,64681:0:0:0:0:
64,192,64681,1,8,0:0:0:0:
320,192,64681,1,4,0:0:0:0:
192,192,64994,1,2,0:0:0:0:
448,192,65306,1,8,0:0:0:0:
64,192,65619,1,2,0:0:0:0:
192,192,65931,1,8,0:0:0:0:
320,192,66244,1,2,0:0:0:0:
448,192,66556,1,8,0:0:0:0:
64,192,66869,1,4,0:0:0:0:
192,192,66869,1,2,0:0:0:0:
320,192,67181,1,8,0:0:0:0:
64,192,67494,1,2,0:0:0:0:
448,192,67806,1,8,0:0:0:0:
320,192,68119,1,2,0:0:0:0:
192,192,68431,1,8,0:0:0:0:
64,192,68744,1,2,0:0:0:0:
448,192,69056,1,8,0:0:0:0:
192,192,69213,1,4,0:0:0:0:
320,192,69213,1,2,0:0:0:0:
64,192,69525,1,2,0:0:0:0:
320,192,69681,1,8,0:0:0:0:
192,192,69994,1,8,0:0:0:0:
448,192,70306,1,8,0:0:0:0:
320,192,70463,1,4,0:0:0:0:
64,192,70463,1,2,0:0:0:0:
192,192,70775,1,2,0:0:0:0:
448,192,70931,1,8,0:0:0:0:
320,192,71244,1,8,0:0:0:0:
64,192,71556,1,8,0:0:0:0:
192,192,71713,1,2,0:0:0:0:
320,192,71713,1,4,0:0:0:0:
448,192,72025,1,2,0:0:0:0:
64,192,72181,128,8,72494:0:0:0:0:
448,192,72494,128,8,72806:3:0:0:0:
192,192,72806,1,2,0:0:0:0:
320,192,72963,1,2,0:0:0:0:
192,192,73275,1,2,0:0:0:0:
448,192,73588,1,2,0:0:0:0:
64,192,73900,1,8,0:0:0:0:
192,192,74213,1,4,0:0:0:0:
448,192,74213,1,2,0:0:0:0:
320,192,74525,1,2,0:0:0:0:
64,192,74681,1,2,0:0:0:0:
192,192,74838,1,2,0:0:0:0:
448,192,74994,1,8,0:0:0:0:
64,192,75150,1,0,0:0:0:0:
320,192,75306,1,6,0:0:0:0:
448,192,75463,1,6,0:0:0:0:
192,192,75775,1,2,0:0:0:0:
320,192,76088,1,0,0:0:0:0:
64,192,76400,128,2,76713:0:0:0:0:
448,192,76713,1,4,0:0:0:0:
320,192,76713,1,2,0:0:0:0:
192,192,77025,1,2,0:0:0:0:
448,192,77181,1,2,0:0:0:0:
64,192,77338,1,2,0:0:0:0:
320,192,77494,1,8,0:0:0:0:
192,192,77650,1,2,0:0:0:0:
448,192,77806,1,8,0:0:0:0:
320,192,77963,1,2,0:0:0:0:
64,192,78275,1,2,0:0:0:0:
448,192,78588,1,2,0:0:0:0:
192,192,78900,128,8,79213:0:0:0:0:
320,192,79213,1,4,0:0:0:0:
448,192,79213,1,2,0:0:0:0:
64,192,79525,1,2,0:0:0:0:
192,192,79681,1,8,0:0:0:0:
448,192,79838,1,0,0:0:0:0:
64,192,79994,1,2,0:0:0:0:
448,192,80150,1,2,0:0:0:0:
320,192,80306,1,8,0:0:0:0:
192,192,80463,1,2,0:0:0:0:
320,192,80775,1,2,0:0:0:0:
64,192,81088,1,2,0:0:0:0:
448,192,81400,128,2,81713:0:0:0:0:
320,192,81713,1,2,0:0:0:0:
64,192,81713,1,4,0:0:0:0:
192,192,82025,1,2,0:0:0:0:
448,192,82181,1,2,0:0:0:0:
320,192,82338,1,0,0:0:0:0:
64,192,82494,1,8,0:0:0:0:
448,192,82650,1,0,0:0:0:0:
192,192,82806,1,6,0:0:0:0:
64,192,82963,1,6,0:0:0:0:
320,192,83275,1,2,0:0:0:0:
192,192,83588,1,2,0:0:0:0:
320,192,83900,128,8,84213:0:0:0:0:
448,192,84213,128,6,85463:0:0:0:0:
64,192,85463,1,0,0:0:0:0:
192,192,85775,1,0,0:0:0:0:
448,192,86088,1,0,0:0:0:0:
320,192,86400,1,0,0:0:0:0:
64,192,86556,1,8,0:0:0:0:
192,192,86713,128,2,87963:0:0:0:0:
448,192,86713,1,4,0:0:0:0:
448,192,87963,1,0,0:0:0:0:
320,192,88275,1,0,0:0:0:0:
64,192,88588,1,0,0:0:0:0:
192,192,88900,1,0,0:0:0:0:
448,192,89056,1,8,0:0:0:0:
320,192,89213,1,2,0:0:0:0:
64,192,89213,1,0,0:0:0:0:
