osu file format v14

[General]
AudioFilename: Suzuki Konomi - Blow out.mp3
AudioLeadIn: 0
PreviewTime: 53354
Countdown: 0
SampleSet: Soft
StackLeniency: 0.7
Mode: 3
LetterboxInBreaks: 0
SpecialStyle: 0
WidescreenStoryboard: 0

[Editor]
Bookmarks: 35697
DistanceSpacing: 1
BeatDivisor: 4
GridSize: 4
TimelineZoom: 2.2

[Metadata]
Title:Blow out
TitleUnicode:Blow out
Artist:Suzuki Konomi
ArtistUnicode:鈴木このみ
Creator:Amiichii
Version:Hard
Source:ロクでなし魔術講師と禁忌教典
Tags:rokudenashi majutsu koushi to akashic records of bastard magic instructor tv size anime opening - Ly0572 - Syadow-
BeatmapID:1288185
BeatmapSetID:610067

[Difficulty]
HPDrainRate:8
CircleSize:4
OverallDifficulty:8
ApproachRate:9.3
SliderMultiplier:1.92
SliderTickRate:1

[Events]
//Background and Video events
0,0,"bg-hd.jpg",0,0
Video,0,"opening rokudenashi.avi"
//Break Periods
//Storyboard Layer 0 (Background)
//Storyboard Layer 1 (Fail)
//Storyboard Layer 2 (Pass)
//Storyboard Layer 3 (Foreground)
//Storyboard Sound Samples

[TimingPoints]
463,312.5,4,2,1,15,1,0
7806,-100,4,2,1,75,0,0
54213,-100,4,2,1,75,0,1
64213,-100,4,2,1,75,0,0
64681,-100,4,2,1,75,0,1
74213,-100,4,2,1,75,0,0

[HitObjects]
192,192,463,128,0,775:0:0:0:0:
448,192,775,128,0,931:0:0:0:0:
64,192,931,128,0,1088:0:0:0:0:
320,192,1088,128,0,1244:0:0:0:0:
192,192,1244,128,0,1400:0:0:0:0:
448,192,1400,128,0,1556:0:0:0:0:
320,192,1556,1,0,0:0:0:0:
64,192,1713,128,0,1869:0:0:0:0:
448,192,1869,1,0,0:0:0:0:
192,192,2025,128,0,2181:0:0:0:0:
64,192,2181,1,0,0:0:0:0:
320,192,2338,128,0,2494:0:0:0:0:
448,192,2494,1,0,0:0:0:0:
64,192,2650,128,0,2963:0:0:0:0:
448,192,2963,128,0,3275:0:0:0:0:
64,192,3275,128,0,3431:0:0:0:0:
320,192,3431,128,0,3588:0:0:0:0:
192,192,3588,128,0,3744:0:0:0:0:
448,192,3744,128,0,3900:0:0:0:0:
64,192,3900,128,0,4056:0:0:0:0:
192,192,4056,1,0,0:0:0:0:
448,192,4213,128,0,4369:0:0:0:0:
320,192,4369,1,0,0:0:0:0:
192,192,4525,128,0,4681:0:0:0:0:
64,192,4681,1,0,0:0:0:0:
320,192,4838,128,0,4994:0:0:0:0:
448,192,4994,1,0,0:0:0:0:
64,192,5150,128,0,5463:0:0:0:0:
448,192,5463,128,0,5775:0:0:0:0:
192,192,5775,128,0,5931:0:0:0:0:
448,192,5931,128,0,6088:0:0:0:0:
64,192,6088,128,0,6244:0:0:0:0:
320,192,6244,128,0,6400:0:0:0:0:
192,192,6400,128,0,6556:0:0:0:0:
64,192,6556,1,0,0:0:0:0:
448,192,6713,128,0,6869:0:0:0:0:
320,192,6869,1,0,0:0:0:0:
192,192,7025,128,0,7181:0:0:0:0:
64,192,7181,1,0,0:0:0:0:
320,192,7338,128,0,7494:0:0:0:0:
448,192,7494,1,0,0:0:0:0:
64,192,7650,128,0,7806:0:0:0:0:
448,192,7806,1,8,0:0:0:0:
320,192,7806,1,0,0:0:0:0:
192,192,7963,1,2,0:0:0:0:
64,192,7963,1,0,0:0:0:0:
64,192,9213,1,2,0:0:0:0:
448,192,9213,1,0,0:0:0:0:
192,192,9525,1,2,0:0:0:0:
448,192,9525,1,0,0:0:0:0:
448,192,9838,1,2,0:0:0:0:
320,192,9838,1,0,0:0:0:0:
192,192,10150,1,2,0:0:0:0:
64,192,10150,1,0,0:0:0:0:
64,192,10463,1,2,0:0:0:0:
448,192,10463,128,4,10775:0:0:0:0:
320,192,10463,1,0,0:0:0:0:
192,192,10775,128,2,10931:0:0:0:0:
64,192,10775,1,0,0:0:0:0:
320,192,10931,128,2,11088:0:0:0:0:
448,192,10931,1,0,0:0:0:0:
64,192,11088,128,2,11244:0:0:0:0:
192,192,11088,1,0,0:0:0:0:
448,192,11244,128,8,11400:0:0:0:0:
320,192,11244,1,0,0:0:0:0:
192,192,11400,128,0,11556:0:0:0:0:
320,192,11556,1,2,0:0:0:0:
448,192,11556,1,4,0:0:0:0:
192,192,11713,1,4,0:0:0:0:
64,192,11713,128,2,11869:0:0:0:0:
448,192,11869,1,0,0:0:0:0:
320,192,12025,128,2,12181:0:0:0:0:
64,192,12025,1,0,0:0:0:0:
192,192,12181,1,2,0:0:0:0:
448,192,12181,1,0,0:0:0:0:
192,192,12338,128,0,12494:0:0:0:0:
320,192,12494,1,8,0:0:0:0:
64,192,12494,1,0,0:0:0:0:
448,192,12650,128,2,12806:0:0:0:0:
192,192,12650,1,0,0:0:0:0:
64,192,12806,1,8,0:0:0:0:
320,192,12806,1,0,0:0:0:0:
192,192,12963,128,2,13275:0:0:0:0:
448,192,12963,1,4,0:0:0:0:
64,192,12963,1,0,0:0:0:0:
448,192,13275,128,2,13431:0:0:0:0:
320,192,13275,1,0,0:0:0:0:
64,192,13431,128,2,13588:0:0:0:0:
192,192,13431,1,0,0:0:0:0:
320,192,13588,128,2,13744:0:0:0:0:
448,192,13588,1,0,0:0:0:0:
192,192,13744,128,8,13900:0:0:0:0:
64,192,13744,1,0,0:0:0:0:
448,192,13900,128,2,14056:0:0:0:0:
320,192,13900,1,0,0:0:0:0:
64,192,14056,1,8,0:0:0:0:
192,192,14056,1,0,0:0:0:0:
448,192,14213,1,2,0:0:0:0:
320,192,14213,1,0,0:0:0:0:
192,192,14525,1,2,0:0:0:0:
448,192,14525,1,0,0:0:0:0:
64,192,14838,1,2,0:0:0:0:
448,192,14838,1,0,0:0:0:0:
320,192,15150,1,8,0:0:0:0:
192,192,15150,128,0,15463:0:0:0:0:
64,192,15463,1,4,0:0:0:0:
448,192,15463,128,2,15775:0:0:0:0:
320,192,15463,1,0,0:0:0:0:
64,192,15775,128,2,15931:0:0:0:0:
192,192,15775,1,0,0:0:0:0:
448,192,15931,1,8,0:0:0:0:
320,192,15931,128,0,16088:0:0:0:0:
192,192,16088,128,0,16244:0:0:0:0:
448,192,16244,128,2,16400:0:0:0:0:
320,192,16244,1,0,0:0:0:0:
64,192,16400,128,2,16556:0:0:0:0:
192,192,16400,1,0,0:0:0:0:
320,192,16556,1,8,0:0:0:0:
448,192,16556,1,0,0:0:0:0:
192,192,16713,128,2,16869:0:0:0:0:
320,192,16713,1,0,0:0:0:0:
64,192,16869,1,0,0:0:0:0:
320,192,17025,128,2,17181:0:0:0:0:
448,192,17025,1,0,0:0:0:0:
192,192,17181,1,8,0:0:0:0:
64,192,17181,1,0,0:0:0:0:
320,192,17338,1,2,0:0:0:0:
448,192,17338,128,0,17494:0:0:0:0:
192,192,17494,1,2,0:0:0:0:
64,192,17650,128,2,17806:0:0:0:0:
320,192,17650,1,0,0:0:0:0:
448,192,17806,1,8,0:0:0:0:
192,192,17806,1,0,0:0:0:0:
64,192,17963,1,2,0:0:0:0:
320,192,17963,1,4,0:0:0:0:
448,192,17963,1,0,0:0:0:0:
320,192,18275,1,2,0:0:0:0:
192,192,18275,1,0,0:0:0:0:
448,192,18431,1,8,0:0:0:0:
64,192,18431,1,0,0:0:0:0:
192,192,18588,1,2,0:0:0:0:
448,192,18588,1,0,0:0:0:0:
64,192,18744,1,8,0:0:0:0:
320,192,18744,1,0,0:0:0:0:
64,192,18900,1,2,0:0:0:0:
448,192,18900,1,0,0:0:0:0:
192,192,19056,1,8,0:0:0:0:
320,192,19056,1,0,0:0:0:0:
64,192,19213,1,2,0:0:0:0:
320,192,19213,1,0,0:0:0:0:
448,192,19369,1,8,0:0:0:0:
64,192,19369,1,0,0:0:0:0:
192,192,19447,1,8,0:0:0:0:
320,192,19525,1,8,0:0:0:0:
448,192,19681,1,8,0:0:0:0:
64,192,19681,1,0,0:0:0:0:
192,192,19838,1,2,0:0:0:0:
320,192,19838,1,0,0:0:0:0:
448,192,19994,1,8,0:0:0:0:
320,192,19994,1,0,0:0:0:0:
64,192,20150,1,8,0:0:0:0:
192,192,20150,1,0,0:0:0:0:
448,192,20306,1,8,0:0:0:0:
320,192,20306,1,0,0:0:0:0:
192,192,20463,1,2,0:0:0:0:
64,192,20463,128,4,20775:0:0:0:0:
448,192,20775,128,0,20931:0:0:0:0:
64,192,20931,128,0,21088:0:0:0:0:
320,192,21088,128,0,21244:0:0:0:0:
192,192,21244,128,0,21400:0:0:0:0:
448,192,21400,128,0,21556:0:0:0:0:
64,192,21556,1,0,0:0:0:0:
320,192,21713,128,0,21869:0:0:0:0:
192,192,21869,1,0,0:0:0:0:
64,192,22025,128,0,22181:0:0:0:0:
448,192,22181,1,0,0:0:0:0:
192,192,22338,128,0,22494:0:0:0:0:
64,192,22494,1,2,0:0:0:0:
320,192,22650,1,8,0:0:0:0:
448,192,22650,1,0,0:0:0:0:
192,192,22806,1,8,0:0:0:0:
64,192,22806,1,0,0:0:0:0:
320,192,22963,1,4,0:0:0:0:
448,192,22963,1,2,0:0:0:0:
64,192,22963,1,0,0:0:0:0:
192,192,23275,1,0,0:0:0:0:
64,192,23431,1,2,0:0:0:0:
448,192,23431,1,0,0:0:0:0:
320,192,23588,1,0,0:0:0:0:
192,192,23744,1,2,0:0:0:0:
448,192,23744,1,0,0:0:0:0:
64,192,23900,1,0,0:0:0:0:
192,192,24056,1,2,0:0:0:0:
320,192,24056,1,0,0:0:0:0:
448,192,24213,1,0,0:0:0:0:
64,192,24369,1,2,0:0:0:0:
192,192,24369,1,0,0:0:0:0:
320,192,24525,1,0,0:0:0:0:
192,192,24681,1,2,0:0:0:0:
448,192,24681,1,0,0:0:0:0:
320,192,24838,1,8,0:0:0:0:
64,192,24838,1,0,0:0:0:0:
448,192,24994,1,2,0:0:0:0:
192,192,24994,1,0,0:0:0:0:
320,192,25150,1,0,0:0:0:0:
64,192,25306,1,2,0:0:0:0:
448,192,25306,1,0,0:0:0:0:
192,192,25463,1,8,0:0:0:0:
320,192,25463,1,0,0:0:0:0:
64,192,25619,1,2,0:0:0:0:
448,192,25619,1,0,0:0:0:0:
192,192,25775,1,0,0:0:0:0:
320,192,25931,1,2,0:0:0:0:
64,192,25931,1,0,0:0:0:0:
448,192,26088,1,0,0:0:0:0:
320,192,26244,1,2,0:0:0:0:
192,192,26244,1,0,0:0:0:0:
64,192,26400,1,0,0:0:0:0:
192,192,26556,1,2,0:0:0:0:
448,192,26556,1,0,0:0:0:0:
320,192,26713,1,8,0:0:0:0:
64,192,26713,1,0,0:0:0:0:
192,192,26869,1,2,0:0:0:0:
448,192,26869,1,0,0:0:0:0:
320,192,27025,1,0,0:0:0:0:
64,192,27181,1,8,0:0:0:0:
448,192,27181,1,0,0:0:0:0:
192,192,27338,1,0,0:0:0:0:
448,192,27494,1,2,0:0:0:0:
320,192,27494,1,0,0:0:0:0:
192,192,27650,1,0,0:0:0:0:
64,192,27806,1,8,0:0:0:0:
320,192,27806,1,0,0:0:0:0:
448,192,27963,1,0,0:0:0:0:
320,192,28119,1,4,0:0:0:0:
64,192,28119,1,2,0:0:0:0:
192,192,28119,1,0,0:0:0:0:
448,192,28275,1,0,0:0:0:0:
64,192,28431,1,2,0:0:0:0:
320,192,28431,1,0,0:0:0:0:
192,192,28588,1,0,0:0:0:0:
64,192,28744,1,2,0:0:0:0:
448,192,28744,1,0,0:0:0:0:
320,192,28900,1,0,0:0:0:0:
64,192,29056,1,2,0:0:0:0:
192,192,29056,1,0,0:0:0:0:
320,192,29213,1,0,0:0:0:0:
192,192,29369,1,2,0:0:0:0:
448,192,29369,1,0,0:0:0:0:
64,192,29525,1,0,0:0:0:0:
320,192,29681,1,2,0:0:0:0:
192,192,29681,1,0,0:0:0:0:
448,192,29838,1,0,0:0:0:0:
320,192,29994,1,2,0:0:0:0:
64,192,29994,1,0,0:0:0:0:
192,192,30150,1,0,0:0:0:0:
64,192,30306,1,2,0:0:0:0:
448,192,30306,1,0,0:0:0:0:
192,192,30463,1,8,0:0:0:0:
320,192,30463,1,0,0:0:0:0:
64,192,30619,1,4,0:0:0:0:
448,192,30619,1,0,0:0:0:0:
320,192,30619,1,2,0:0:0:0:
192,192,30775,1,8,0:0:0:0:
320,192,30853,1,8,0:0:0:0:
64,192,30931,1,8,0:0:0:0:
448,192,31009,1,8,0:0:0:0:
192,192,31088,1,8,0:0:0:0:
320,192,31166,1,8,0:0:0:0:
64,192,31244,1,8,0:0:0:0:
192,192,31322,1,8,0:0:0:0:
448,192,31400,1,8,0:0:0:0:
320,192,31478,5,8,0:0:0:0:
64,192,31556,1,8,0:0:0:0:
192,192,31634,1,8,0:0:0:0:
320,192,31713,1,4,0:0:0:0:
448,192,31713,1,2,0:0:0:0:
64,192,32025,128,0,32181:0:0:0:0:
320,192,32181,128,0,32338:0:0:0:0:
192,192,32338,128,0,32494:0:0:0:0:
448,192,32494,128,0,32806:0:0:0:0:
64,192,32650,1,0,0:0:0:0:
320,192,32728,1,0,0:0:0:0:
64,192,32806,1,8,0:0:0:0:
192,192,32806,1,0,0:0:0:0:
320,192,32963,1,2,0:0:0:0:
448,192,32963,1,4,0:0:0:0:
192,192,32963,1,0,0:0:0:0:
192,192,33275,1,2,0:0:0:0:
320,192,33275,1,0,0:0:0:0:
448,192,33431,1,8,0:0:0:0:
64,192,33431,128,0,33744:0:0:0:0:
320,192,33744,1,2,0:0:0:0:
448,192,33744,1,0,0:0:0:0:
192,192,33900,1,2,0:0:0:0:
64,192,33900,1,0,0:0:0:0:
448,192,34056,1,8,0:0:0:0:
64,192,34056,128,0,34369:0:0:0:0:
192,192,34369,1,2,0:0:0:0:
320,192,34369,1,0,0:0:0:0:
64,192,34525,1,2,0:0:0:0:
448,192,34525,1,0,0:0:0:0:
448,192,34681,128,8,34994:0:0:0:0:
192,192,34681,1,0,0:0:0:0:
64,192,34994,1,2,0:0:0:0:
320,192,34994,1,0,0:0:0:0:
192,192,35150,1,2,0:0:0:0:
448,192,35150,1,0,0:0:0:0:
448,192,35306,128,8,35619:0:0:0:0:
64,192,35306,1,0,0:0:0:0:
320,192,35619,1,2,0:0:0:0:
64,192,35619,1,4,0:0:0:0:
192,192,35619,1,0,0:0:0:0:
192,192,35775,1,2,0:0:0:0:
448,192,35775,1,0,0:0:0:0:
320,192,35931,1,8,0:0:0:0:
192,192,35931,128,0,36244:0:0:0:0:
448,192,36244,1,2,0:0:0:0:
64,192,36244,1,0,0:0:0:0:
192,192,36400,1,2,0:0:0:0:
320,192,36400,1,0,0:0:0:0:
192,192,36556,128,8,36869:0:0:0:0:
448,192,36556,1,0,0:0:0:0:
64,192,36869,1,2,0:0:0:0:
320,192,36869,1,0,0:0:0:0:
192,192,37025,1,2,0:0:0:0:
448,192,37025,1,0,0:0:0:0:
64,192,37181,1,8,0:0:0:0:
448,192,37181,128,0,37494:0:0:0:0:
192,192,37494,1,2,0:0:0:0:
64,192,37494,1,0,0:0:0:0:
320,192,37650,1,2,0:0:0:0:
448,192,37650,1,0,0:0:0:0:
64,192,37806,1,8,0:0:0:0:
448,192,37806,128,0,38119:0:0:0:0:
192,192,37884,1,8,0:0:0:0:
320,192,37963,1,8,0:0:0:0:
64,192,38041,1,8,0:0:0:0:
192,192,38119,1,4,0:0:0:0:
320,192,38119,1,2,0:0:0:0:
64,192,38275,1,0,0:0:0:0:
448,192,38431,1,8,0:0:0:0:
192,192,38431,1,0,0:0:0:0:
320,192,38588,1,0,0:0:0:0:
64,192,38744,1,2,0:0:0:0:
192,192,38744,1,0,0:0:0:0:
320,192,38900,1,2,0:0:0:0:
448,192,38900,1,0,0:0:0:0:
192,192,39056,1,8,0:0:0:0:
448,192,39056,1,0,0:0:0:0:
64,192,39213,1,0,0:0:0:0:
192,192,39369,1,2,0:0:0:0:
320,192,39369,1,0,0:0:0:0:
448,192,39525,1,2,0:0:0:0:
64,192,39525,1,0,0:0:0:0:
192,192,39681,1,8,0:0:0:0:
448,192,39681,1,0,0:0:0:0:
320,192,39838,1,0,0:0:0:0:
192,192,39994,1,2,0:0:0:0:
64,192,39994,1,0,0:0:0:0:
320,192,40150,1,2,0:0:0:0:
448,192,40150,1,0,0:0:0:0:
64,192,40306,1,8,0:0:0:0:
448,192,40306,1,0,0:0:0:0:
192,192,40463,1,0,0:0:0:0:
320,192,40619,1,4,0:0:0:0:
64,192,40619,1,2,0:0:0:0:
448,192,40619,1,0,0:0:0:0:
192,192,40775,1,2,0:0:0:0:
448,192,40775,1,0,0:0:0:0:
320,192,40931,1,8,0:0:0:0:
64,192,40931,1,0,0:0:0:0:
192,192,41088,1,2,0:0:0:0:
320,192,41088,1,0,0:0:0:0:
448,192,41244,1,2,0:0:0:0:
64,192,41244,1,0,0:0:0:0:
192,192,41400,1,2,0:0:0:0:
320,192,41400,1,0,0:0:0:0:
192,192,41556,1,8,0:0:0:0:
448,192,41556,1,0,0:0:0:0:
320,192,41713,1,4,0:0:0:0:
64,192,41713,1,2,0:0:0:0:
192,192,42025,1,2,0:0:0:0:
320,192,42025,1,0,0:0:0:0:
64,192,42181,1,8,0:0:0:0:
448,192,42181,1,0,0:0:0:0:
192,192,42338,1,2,0:0:0:0:
320,192,42338,1,0,0:0:0:0:
64,192,42494,1,8,0:0:0:0:
448,192,42494,1,0,0:0:0:0:
320,192,42650,1,2,0:0:0:0:
192,192,42650,1,0,0:0:0:0:
64,192,42806,1,8,0:0:0:0:
448,192,42806,1,0,0:0:0:0:
320,192,42963,1,4,0:0:0:0:
192,192,42963,1,2,0:0:0:0:
448,192,42963,1,0,0:0:0:0:
192,192,43275,1,2,0:0:0:0:
64,192,43275,1,0,0:0:0:0:
320,192,43431,1,8,0:0:0:0:
448,192,43431,1,0,0:0:0:0:
192,192,43509,1,8,0:0:0:0:
64,192,43588,1,8,0:0:0:0:
192,192,43744,1,8,3:0:0:0:
320,192,43822,1,8,3:0:0:0:
448,192,43900,1,8,3:0:0:0:
64,192,44056,1,8,0:0:0:0:
320,192,44056,1,0,0:0:0:0:
192,192,44213,1,4,0:0:0:0:
448,192,44213,1,2,0:0:0:0:
64,192,44213,1,0,0:0:0:0:
320,192,44525,1,2,0:0:0:0:
192,192,44525,1,0,0:0:0:0:
320,192,44681,1,2,0:0:0:0:
192,192,44681,1,0,0:0:0:0:
448,192,44994,1,8,0:0:0:0:
64,192,44994,1,0,0:0:0:0:
192,192,45306,1,2,0:0:0:0:
448,192,45306,1,0,0:0:0:0:
192,192,45463,1,2,0:0:0:0:
448,192,45463,1,0,0:0:0:0:
320,192,45619,1,0,0:0:0:0:
192,192,45775,1,2,0:0:0:0:
64,192,45775,1,0,0:0:0:0:
192,192,45931,1,2,0:0:0:0:
64,192,45931,1,0,0:0:0:0:
448,192,46244,1,8,0:0:0:0:
64,192,46244,1,0,0:0:0:0:
192,192,46400,1,2,0:0:0:0:
448,192,46400,1,0,0:0:0:0:
320,192,46556,1,0,0:0:0:0:
192,192,46713,1,4,0:0:0:0:
64,192,46713,1,2,0:0:0:0:
448,192,46713,1,0,0:0:0:0:
320,192,47025,1,2,0:0:0:0:
448,192,47025,1,0,0:0:0:0:
448,192,47181,1,2,0:0:0:0:
320,192,47181,1,0,0:0:0:0:
192,192,47494,1,8,0:0:0:0:
448,192,47494,1,0,0:0:0:0:
320,192,47806,1,2,0:0:0:0:
192,192,47806,1,0,0:0:0:0:
192,192,47963,1,2,0:0:0:0:
320,192,47963,1,0,0:0:0:0:
448,192,48119,1,0,0:0:0:0:
192,192,48275,1,2,0:0:0:0:
64,192,48275,1,0,0:0:0:0:
64,192,48431,1,2,0:0:0:0:
192,192,48431,1,0,0:0:0:0:
64,192,48744,1,8,0:0:0:0:
448,192,48744,1,0,0:0:0:0:
320,192,48900,1,2,0:0:0:0:
192,192,48900,1,0,0:0:0:0:
64,192,49056,1,8,0:0:0:0:
320,192,49056,1,0,0:0:0:0:
192,192,49213,1,4,0:0:0:0:
448,192,49213,1,2,0:0:0:0:
64,192,49213,1,0,0:0:0:0:
320,192,49525,1,2,0:0:0:0:
448,192,49525,1,0,0:0:0:0:
64,192,49681,1,8,0:0:0:0:
448,192,49681,1,0,0:0:0:0:
64,192,49838,1,2,0:0:0:0:
320,192,49838,1,0,0:0:0:0:
192,192,49994,1,8,0:0:0:0:
448,192,49994,1,0,0:0:0:0:
448,192,50150,1,2,0:0:0:0:
320,192,50150,1,0,0:0:0:0:
192,192,50306,1,8,0:0:0:0:
64,192,50306,1,0,0:0:0:0:
448,192,50463,1,2,0:0:0:0:
320,192,50463,1,0,0:0:0:0:
64,192,50619,1,8,0:0:0:0:
448,192,50619,1,0,0:0:0:0:
192,192,50697,1,8,0:0:0:0:
320,192,50775,1,8,0:0:0:0:
448,192,50931,1,8,3:0:0:0:
320,192,51009,1,8,3:0:0:0:
192,192,51088,1,8,3:0:0:0:
64,192,51244,1,8,3:0:0:0:
192,192,51322,1,8,3:0:0:0:
320,192,51400,1,8,3:0:0:0:
192,192,51556,1,8,0:0:0:0:
448,192,51556,1,0,0:0:0:0:
320,192,51713,1,4,0:0:0:0:
64,192,51713,1,2,0:0:0:0:
192,192,51713,1,0,0:0:0:0:
320,192,52025,1,8,0:0:0:0:
448,192,52025,1,0,0:0:0:0:
448,192,52181,1,8,0:0:0:0:
64,192,52181,1,0,0:0:0:0:
320,192,52338,1,8,0:0:0:0:
192,192,52338,1,0,0:0:0:0:
192,192,52494,1,8,0:0:0:0:
448,192,52494,1,0,0:0:0:0:
448,192,52650,1,8,0:0:0:0:
64,192,52650,1,0,0:0:0:0:
192,192,52806,1,8,0:0:0:0:
64,192,52806,1,0,0:0:0:0:
320,192,52963,1,8,0:0:0:0:
448,192,52963,1,0,0:0:0:0:
448,192,53119,1,2,0:0:0:0:
64,192,53119,1,4,0:0:0:0:
64,192,53900,1,2,0:0:0:0:
448,192,53900,1,0,0:0:0:75:soft-hitclap99.wav
320,192,53900,1,0,0:0:0:0:
192,192,54213,128,2,55619:0:0:0:0:
320,192,54213,1,4,0:0:0:0:
64,192,54213,1,0,0:0:0:0:
64,192,54681,1,8,0:0:0:0:
448,192,54681,1,0,0:0:0:0:
320,192,54994,1,2,0:0:0:0:
64,192,54994,1,0,0:0:0:0:
320,192,55306,1,8,0:0:0:0:
448,192,55306,1,0,0:0:0:0:
64,192,55619,128,2,56869:0:0:0:0:
448,192,55619,1,4,0:0:0:0:
320,192,55931,1,8,0:0:0:0:
192,192,55931,1,0,0:0:0:0:
320,192,56244,1,2,0:0:0:0:
448,192,56244,1,0,0:0:0:0:
192,192,56556,1,8,0:0:0:0:
448,192,56556,1,0,0:0:0:0:
192,192,56869,1,4,0:0:0:0:
448,192,56869,1,2,0:0:0:0:
320,192,56869,128,0,57963:0:0:0:0:
64,192,57181,1,8,0:0:0:0:
192,192,57181,1,0,0:0:0:0:
192,192,57494,1,2,0:0:0:0:
448,192,57494,1,0,0:0:0:0:
64,192,57806,1,8,0:0:0:0:
448,192,57806,1,0,0:0:0:0:
192,192,57963,128,0,59369:0:0:0:0:
448,192,58119,1,2,0:0:0:0:
64,192,58119,1,4,0:0:0:0:
320,192,58119,1,0,0:0:0:0:
320,192,58431,1,8,0:0:0:0:
64,192,58431,1,0,0:0:0:0:
64,192,58744,1,2,0:0:0:0:
448,192,58744,1,0,0:0:0:0:
448,192,59056,1,8,0:0:0:0:
64,192,59134,1,8,0:0:0:0:
320,192,59213,1,8,0:0:0:0:
64,192,59291,1,8,0:0:0:0:
320,192,59369,1,2,0:0:0:0:
448,192,59369,128,4,60463:0:0:0:0:
64,192,59681,1,8,0:0:0:0:
192,192,59681,1,0,0:0:0:0:
320,192,59994,1,2,0:0:0:0:
192,192,59994,1,0,0:0:0:0:
64,192,60306,1,8,0:0:0:0:
320,192,60306,1,0,0:0:0:0:
192,192,60463,128,0,61556:0:0:0:0:
64,192,60619,1,2,0:0:0:0:
320,192,60619,1,4,0:0:0:0:
448,192,60619,1,0,0:0:0:0:
320,192,60931,1,8,0:0:0:0:
448,192,60931,1,0,0:0:0:0:
64,192,61244,1,2,0:0:0:0:
320,192,61244,1,0,0:0:0:0:
320,192,61556,1,8,0:0:0:0:
448,192,61556,1,0,0:0:0:0:
192,192,61713,1,2,0:0:0:0:
64,192,61713,1,4,0:0:0:0:
192,192,62025,1,2,0:0:0:0:
320,192,62025,1,0,0:0:0:0:
64,192,62181,1,8,0:0:0:0:
320,192,62181,1,0,0:0:0:0:
448,192,62338,1,2,0:0:0:0:
192,192,62338,1,0,0:0:0:0:
448,192,62494,1,8,0:0:0:0:
64,192,62494,1,0,0:0:0:0:
320,192,62572,1,8,0:0:0:0:
192,192,62650,1,8,0:0:0:0:
64,192,62806,1,8,3:0:0:0:
192,192,62884,1,8,3:0:0:0:
320,192,62963,1,8,3:0:0:0:
448,192,63119,1,8,0:0:0:0:
64,192,63119,1,0,0:0:0:0:
320,192,63275,1,2,0:0:0:0:
192,192,63275,1,0,0:0:0:0:
64,192,63431,1,8,0:0:0:0:
448,192,63431,1,0,0:0:0:0:
448,192,63588,1,2,0:0:0:0:
192,192,63588,1,0,0:0:0:0:
192,192,63900,1,2,0:0:0:0:
64,192,63900,1,0,0:0:0:0:
320,192,64213,1,2,0:0:0:0:
448,192,64213,128,0,64681:0:0:0:0:
64,192,64681,1,8,0:0:0:0:
320,192,64681,1,4,0:0:0:0:
192,192,64681,128,0,65619:0:0:0:0:
448,192,64838,1,0,0:0:0:0:
64,192,64994,1,2,0:0:0:0:
448,192,65150,1,0,0:0:0:0:
64,192,65306,1,8,0:0:0:0:
320,192,65306,1,0,0:0:0:0:
448,192,65463,1,0,0:0:0:0:
320,192,65619,128,2,66869:0:0:0:0:
64,192,65775,1,0,0:0:0:0:
192,192,65931,1,8,0:0:0:0:
448,192,65931,1,0,0:0:0:0:
64,192,66088,1,0,0:0:0:0:
448,192,66244,1,2,0:0:0:0:
192,192,66400,1,0,0:0:0:0:
64,192,66556,1,8,0:0:0:0:
448,192,66556,1,0,0:0:0:0:
192,192,66713,1,0,0:0:0:0:
64,192,66869,128,4,67963:0:0:0:0:
448,192,66869,1,2,0:0:0:0:
192,192,66869,1,0,0:0:0:0:
320,192,67025,1,0,0:0:0:0:
192,192,67181,1,8,0:0:0:0:
448,192,67181,1,0,0:0:0:0:
320,192,67338,1,0,0:0:0:0:
192,192,67494,1,2,0:0:0:0:
448,192,67650,1,0,0:0:0:0:
320,192,67806,1,8,0:0:0:0:
192,192,67806,1,0,0:0:0:0:
448,192,67963,128,0,69056:0:0:0:0:
192,192,68119,1,2,0:0:0:0:
64,192,68275,1,0,0:0:0:0:
320,192,68431,1,8,0:0:0:0:
192,192,68431,1,0,0:0:0:0:
64,192,68588,1,0,0:0:0:0:
320,192,68744,1,2,0:0:0:0:
192,192,68900,1,0,0:0:0:0:
64,192,69056,1,8,0:0:0:0:
320,192,69056,1,0,0:0:0:0:
192,192,69134,1,8,0:0:0:0:
448,192,69213,1,2,0:0:0:0:
320,192,69213,1,4,0:0:0:0:
64,192,69213,1,0,0:0:0:0:
320,192,69525,1,2,0:0:0:0:
64,192,69525,1,0,0:0:0:0:
64,192,69681,1,8,0:0:0:0:
448,192,69681,1,0,0:0:0:0:
320,192,69838,1,2,0:0:0:0:
192,192,69838,1,0,0:0:0:0:
192,192,69994,1,8,0:0:0:0:
448,192,69994,1,0,0:0:0:0:
320,192,70150,1,2,0:0:0:0:
64,192,70150,1,0,0:0:0:0:
192,192,70306,1,8,0:0:0:0:
320,192,70306,1,0,0:0:0:0:
64,192,70463,1,4,0:0:0:0:
448,192,70463,1,2,0:0:0:0:
320,192,70775,1,2,0:0:0:0:
192,192,70775,1,0,0:0:0:0:
192,192,70931,1,8,0:0:0:0:
448,192,70931,1,0,0:0:0:0:
64,192,71088,1,2,0:0:0:0:
320,192,71088,1,0,0:0:0:0:
64,192,71244,1,8,0:0:0:0:
448,192,71244,1,0,0:0:0:0:
192,192,71400,1,2,0:0:0:0:
320,192,71400,1,0,0:0:0:0:
192,192,71556,1,8,0:0:0:0:
448,192,71556,1,0,0:0:0:0:
320,192,71713,1,2,0:0:0:0:
64,192,71713,1,4,0:0:0:0:
320,192,72025,1,2,0:0:0:0:
192,192,72025,1,0,0:0:0:0:
64,192,72181,1,8,0:0:0:0:
448,192,72181,1,0,0:0:0:0:
320,192,72259,1,8,0:0:0:0:
192,192,72338,1,8,0:0:0:0:
64,192,72494,1,8,3:0:0:0:
192,192,72572,1,8,3:0:0:0:
320,192,72650,1,8,3:0:0:0:
448,192,72806,1,2,0:0:0:0:
192,192,72806,1,0,0:0:0:0:
64,192,72963,1,2,0:0:0:0:
448,192,72963,1,0,0:0:0:0:
320,192,73275,1,2,0:0:0:0:
64,192,73275,1,0,0:0:0:0:
192,192,73588,1,2,0:0:0:0:
64,192,73588,1,0,0:0:0:0:
320,192,73900,1,8,0:0:0:0:
448,192,73900,1,0,0:0:0:0:
448,192,74213,128,4,74525:0:0:0:0:
64,192,74213,1,2,0:0:0:0:
192,192,74213,1,0,0:0:0:0:
64,192,74525,1,2,0:0:0:0:
192,192,74525,128,0,74681:0:0:0:0:
448,192,74681,1,2,0:0:0:0:
320,192,74681,128,0,74838:0:0:0:0:
192,192,74838,1,2,0:0:0:0:
64,192,74838,128,0,74994:0:0:0:0:
320,192,74994,1,8,0:0:0:0:
448,192,74994,128,0,75150:0:0:0:0:
192,192,75150,128,0,75306:0:0:0:0:
448,192,75306,1,4,0:0:0:0:
320,192,75306,1,2,0:0:0:0:
192,192,75463,1,2,0:0:0:0:
64,192,75463,128,4,75619:0:0:0:0:
448,192,75619,1,0,0:0:0:0:
192,192,75775,1,2,0:0:0:0:
320,192,75775,128,0,75931:0:0:0:0:
448,192,75931,1,2,0:0:0:0:
64,192,75931,1,0,0:0:0:0:
192,192,76088,128,0,76244:0:0:0:0:
64,192,76244,1,8,0:0:0:0:
320,192,76244,1,0,0:0:0:0:
192,192,76400,1,2,0:0:0:0:
448,192,76400,128,0,76556:0:0:0:0:
320,192,76556,1,8,0:0:0:0:
64,192,76556,1,0,0:0:0:0:
192,192,76713,128,4,77025:0:0:0:0:
448,192,76713,1,2,0:0:0:0:
64,192,76713,1,0,0:0:0:0:
320,192,77025,1,2,0:0:0:0:
448,192,77025,128,0,77181:0:0:0:0:
192,192,77181,1,2,0:0:0:0:
64,192,77181,128,0,77338:0:0:0:0:
448,192,77338,1,2,0:0:0:0:
320,192,77338,128,0,77494:0:0:0:0:
64,192,77494,1,8,0:0:0:0:
192,192,77494,128,0,77650:0:0:0:0:
320,192,77650,1,2,0:0:0:0:
448,192,77650,128,0,77806:0:0:0:0:
192,192,77806,1,8,0:0:0:0:
64,192,77806,1,0,0:0:0:0:
320,192,77963,1,2,0:0:0:0:
448,192,77963,1,0,0:0:0:0:
448,192,78275,1,2,0:0:0:0:
192,192,78275,1,0,0:0:0:0:
448,192,78588,1,2,0:0:0:0:
64,192,78588,1,0,0:0:0:0:
320,192,78900,1,8,0:0:0:0:
192,192,78900,128,0,79213:0:0:0:0:
448,192,79213,128,4,79525:0:0:0:0:
64,192,79213,1,2,0:0:0:0:
320,192,79213,1,0,0:0:0:0:
192,192,79525,1,2,0:0:0:0:
64,192,79525,128,0,79681:0:0:0:0:
320,192,79681,128,8,79838:0:0:0:0:
448,192,79681,1,0,0:0:0:0:
192,192,79838,128,0,79994:0:0:0:0:
320,192,79994,1,2,0:0:0:0:
448,192,79994,128,0,80150:0:0:0:0:
192,192,80150,1,2,0:0:0:0:
64,192,80150,128,0,80306:0:0:0:0:
448,192,80306,1,8,0:0:0:0:
320,192,80306,1,0,0:0:0:0:
320,192,80463,1,2,0:0:0:0:
192,192,80463,128,0,80619:0:0:0:0:
64,192,80619,1,0,0:0:0:0:
448,192,80775,1,2,0:0:0:0:
320,192,80775,128,0,80931:0:0:0:0:
64,192,80931,1,8,0:0:0:0:
192,192,80931,1,0,0:0:0:0:
448,192,81088,128,2,81244:0:0:0:0:
320,192,81088,1,0,0:0:0:0:
192,192,81244,1,0,0:0:0:0:
64,192,81400,128,2,81556:0:0:0:0:
320,192,81400,1,0,0:0:0:0:
192,192,81556,1,8,0:0:0:0:
448,192,81556,1,0,0:0:0:0:
448,192,81713,1,2,0:0:0:0:
320,192,81713,1,4,0:0:0:0:
64,192,81713,1,0,0:0:0:0:
192,192,82025,128,2,82181:0:0:0:0:
64,192,82025,1,0,0:0:0:0:
320,192,82181,128,2,82338:0:0:0:0:
448,192,82181,1,0,0:0:0:0:
64,192,82338,128,0,82494:0:0:0:0:
448,192,82494,128,8,82650:0:0:0:0:
192,192,82494,1,0,0:0:0:0:
320,192,82650,128,0,82806:0:0:0:0:
64,192,82806,1,2,0:0:0:0:
192,192,82806,1,4,0:0:0:0:
448,192,82963,128,2,83119:0:0:0:0:
320,192,82963,1,4,0:0:0:0:
192,192,82963,1,0,0:0:0:0:
64,192,83119,1,0,0:0:0:0:
192,192,83275,128,2,83431:0:0:0:0:
320,192,83275,1,0,0:0:0:0:
448,192,83431,1,8,0:0:0:0:
64,192,83431,1,0,0:0:0:0:
320,192,83588,128,2,83744:0:0:0:0:
192,192,83666,1,2,0:0:0:0:
448,192,83744,1,8,0:0:0:0:
64,192,83744,1,0,0:0:0:0:
192,192,83900,1,8,0:0:0:0:
320,192,83900,1,0,0:0:0:0:
192,192,84056,1,8,0:0:0:0:
64,192,84056,1,0,0:0:0:0:
320,192,84213,1,2,0:0:0:0:
448,192,84213,1,4,0:0:0:0:
64,192,84213,1,0,0:0:0:0:
64,192,84525,128,0,84681:0:0:0:0:
448,192,84681,128,0,84838:0:0:0:0:
192,192,84838,128,0,84994:0:0:0:0:
320,192,84994,128,0,85150:0:0:0:0:
64,192,85150,128,0,85306:0:0:0:0:
448,192,85306,1,0,0:0:0:0:
320,192,85463,128,0,85619:0:0:0:0:
192,192,85619,1,0,0:0:0:0:
64,192,85775,128,0,85931:0:0:0:0:
448,192,85931,1,0,0:0:0:0:
192,192,86088,128,0,86244:0:0:0:0:
64,192,86244,1,0,0:0:0:0:
448,192,86400,128,0,86556:0:0:0:0:
64,192,86556,1,8,0:0:0:0:
192,192,86556,1,0,0:0:0:0:
448,192,86713,1,2,0:0:0:0:
320,192,86713,1,4,0:0:0:0:
192,192,86713,1,0,0:0:0:0:
64,192,87025,128,0,87181:0:0:0:0:
448,192,87181,128,0,87338:0:0:0:0:
192,192,87338,128,0,87494:0:0:0:0:
320,192,87494,128,0,87650:0:0:0:0:
448,192,87650,128,0,87806:0:0:0:0:
64,192,87806,1,0,0:0:0:0:
192,192,87963,128,0,88119:0:0:0:0:
448,192,88119,1,0,0:0:0:0:
320,192,88275,128,0,88431:0:0:0:0:
64,192,88431,1,0,0:0:0:0:
448,192,88588,128,0,88744:0:0:0:0:
320,192,88744,1,0,0:0:0:0:
64,192,88900,128,0,89056:0:0:0:0:
320,192,89056,1,8,0:0:0:0:
448,192,89056,1,0,0:0:0:0:
192,192,89213,1,2,0:0:0:0:
64,192,89213,1,0,0:0:0:0:
448,192,89213,1,0,0:0:0:0:
