osu file format v14

[General]
AudioFilename: audio.mp3
AudioLeadIn: 0
PreviewTime: -1
Countdown: 1
SampleSet: Normal
StackLeniency: 0.7
Mode: 3
LetterboxInBreaks: 0
SpecialStyle: 0
WidescreenStoryboard: 0

[Editor]
DistanceSpacing: 1.9
BeatDivisor: 16
GridSize: 8
TimelineZoom: 1.9

[Metadata]
Title:Blow Out
TitleUnicode:Blow Out
Artist:Suzuki Konomi
ArtistUnicode:Suzuki Konomi
Creator:Ryoushin
Version:musti_123
Source:
Tags:Saki Desu dantess aka ahlayan karı ss officer ben bugune yoruldum advanceddead omar annesinisevenbeyen
BeatmapID:1373515
BeatmapSetID:648330

[Difficulty]
HPDrainRate:8
CircleSize:4
OverallDifficulty:5
ApproachRate:5
SliderMultiplier:1.4
SliderTickRate:1

[Events]
//Background and Video events
0,0,"819668.jpg",0,0
//Break Periods
//Storyboard Layer 0 (Background)
//Storyboard Layer 1 (Fail)
//Storyboard Layer 2 (Pass)
//Storyboard Layer 3 (Foreground)
//Storyboard Sound Samples

[TimingPoints]
9902,312.5,4,1,0,100,1,0
14179,-50,4,1,0,100,0,0
14530,-100,4,1,0,100,0,0
14569,-50,4,1,0,100,0,0
14843,-100,4,1,0,100,0,0
14882,-50,4,1,0,100,0,0
15155,-100,4,1,0,100,0,0
31366,-66.6666666666667,4,1,0,100,0,0
31503,-66.6666666666667,4,1,0,100,0,0
31640,-100,4,1,0,100,0,0
53085,-55.5555555555556,4,1,0,100,0,0
53105,-10000,4,1,0,100,0,0
53359,-55.5555555555556,4,1,0,100,0,0
53437,-111.111111111111,4,1,0,100,0,0
53456,-100,4,1,0,100,0,0
53593,-55.5555555555556,4,1,0,100,0,0
54101,-100,4,1,0,100,0,0
56308,-10000,4,1,0,100,0,0
56523,-100,4,1,0,100,0,0
59296,-10000,4,1,0,100,0,0
59530,-100,4,1,0,100,0,0
63280,-10000,4,1,0,100,0,0
63378,-100,4,1,0,100,0,0
63437,-10000,4,1,0,100,0,0
63612,-100,4,1,0,100,0,0
63671,-10000,4,1,0,100,0,0
63925,-100,4,1,0,100,0,0
63984,-10000,4,1,0,100,0,0
64159,-100,4,1,0,100,0,0
65194,-10000,4,1,0,100,0,0
65234,-100,4,1,0,100,0,0
72812,-10000,4,1,0,100,0,0
72987,-66.6666666666667,4,1,0,100,0,0
73046,-10000,4,1,0,100,0,0
73300,-66.6666666666667,4,1,0,100,0,0
73359,-10000,4,1,0,100,0,0
73593,-66.6666666666667,4,1,0,100,0,0
73671,-10000,4,1,0,100,0,0
73905,-66.6666666666667,4,1,0,100,0,0
73964,-10000,4,1,0,100,0,0
74159,-100,4,1,0,100,0,0
77909,-10000,4,1,0,100,0,0
77987,-100,4,1,0,100,0,0
78046,-10000,4,1,0,100,0,0
78280,-100,4,1,0,100,0,0
78359,-10000,4,1,0,100,0,0
78593,-100,4,1,0,100,0,0
78652,-52.6315789473684,4,1,0,100,0,0
78905,-100,4,1,0,100,0,0
81698,-100,4,1,0,100,0,0
84237,-111.111111111111,4,1,0,100,0,0
89016,-10000,4,1,0,100,0,0
89068,-100,4,1,0,100,0,0
89101,-10000,4,1,0,100,0,0
89218,-100,4,1,0,100,0,0

[HitObjects]
64,192,394,5,0,0:0:0:0:
192,192,629,1,0,0:0:0:0:
320,192,863,1,0,0:0:0:0:
320,192,1019,1,0,0:0:0:0:
448,192,1175,1,0,0:0:0:0:
448,192,1332,1,0,0:0:0:0:
64,192,1644,1,0,0:0:0:0:
192,192,1644,1,0,0:0:0:0:
192,192,1957,1,0,0:0:0:0:
64,192,1957,1,0,0:0:0:0:
320,192,2269,1,0,0:0:0:0:
192,192,2269,1,0,0:0:0:0:
320,192,2582,1,0,0:0:0:0:
64,192,2582,1,0,0:0:0:0:
448,192,2894,1,0,0:0:0:0:
192,192,2894,1,0,0:0:0:0:
320,192,2894,128,0,3988:0:0:0:0:
448,192,3207,1,0,0:0:0:0:
192,192,3363,1,0,0:0:0:0:
64,192,3519,1,0,0:0:0:0:
192,192,3519,1,0,0:0:0:0:
192,192,3675,1,0,0:0:0:0:
448,192,3832,1,0,0:0:0:0:
64,192,3832,1,0,0:0:0:0:
448,192,3988,1,0,0:0:0:0:
192,192,3988,1,0,0:0:0:0:
64,192,3988,1,0,0:0:0:0:
448,192,4222,1,0,0:0:0:0:
320,192,4222,1,0,0:0:0:0:
320,192,4535,1,0,0:0:0:0:
192,192,4535,1,0,0:0:0:0:
192,192,4847,1,0,0:0:0:0:
64,192,4847,1,0,0:0:0:0:
448,192,5160,1,0,0:0:0:0:
192,192,5160,1,0,0:0:0:0:
64,192,5160,1,0,0:0:0:0:
320,192,5160,128,0,6488:0:0:0:0:
320,192,6800,1,0,0:0:0:0:
64,192,6800,1,0,0:0:0:0:
192,192,6800,1,0,0:0:0:0:
448,192,7113,1,0,0:0:0:0:
320,192,7113,1,0,0:0:0:0:
192,192,7113,1,0,0:0:0:0:
448,192,7425,1,0,0:0:0:0:
320,192,7425,1,0,0:0:0:0:
64,192,7425,1,0,0:0:0:0:
320,192,7738,1,0,0:0:0:0:
192,192,7738,1,0,0:0:0:0:
448,192,7894,1,0,0:0:0:0:
64,192,8050,1,0,0:0:0:0:
192,192,8129,1,0,0:0:0:0:
320,192,8207,1,0,0:0:0:0:
192,192,8285,1,0,0:0:0:0:
64,192,8363,1,0,0:0:0:0:
448,192,8363,1,0,0:0:0:0:
192,192,8519,1,0,0:0:0:0:
320,192,8597,1,0,0:0:0:0:
448,192,8754,1,0,0:0:0:0:
320,192,8754,1,0,0:0:0:0:
192,192,8754,1,0,0:0:0:0:
64,192,8754,1,0,0:0:0:0:
448,192,9066,1,0,0:0:0:0:
320,192,9066,1,0,0:0:0:0:
192,192,9066,1,0,0:0:0:0:
64,192,9066,1,0,0:0:0:0:
192,192,9300,1,0,0:0:0:0:
320,192,9300,1,0,0:0:0:0:
320,192,9613,1,0,0:0:0:0:
192,192,9613,1,0,0:0:0:0:
448,192,9847,1,0,0:0:0:0:
64,192,9847,1,0,0:0:0:0:
448,192,10160,1,0,0:0:0:0:
192,192,10160,1,0,0:0:0:0:
64,192,10160,1,0,0:0:0:0:
448,192,10394,1,0,0:0:0:0:
320,192,10394,1,0,0:0:0:0:
64,192,10394,1,0,0:0:0:0:
192,192,10394,128,0,11488:0:0:0:0:
320,192,11722,1,0,0:0:0:0:
192,192,11722,1,0,0:0:0:0:
64,192,11722,1,0,0:0:0:0:
448,192,12035,1,0,0:0:0:0:
320,192,12035,1,0,0:0:0:0:
192,192,12347,1,0,0:0:0:0:
64,192,12347,1,0,0:0:0:0:
448,192,12660,1,0,0:0:0:0:
320,192,12660,1,0,0:0:0:0:
192,192,12660,1,0,0:0:0:0:
192,192,12972,1,0,0:0:0:0:
320,192,12972,1,0,0:0:0:0:
64,192,13129,1,0,0:0:0:0:
192,192,13285,1,0,0:0:0:0:
320,192,13441,1,0,0:0:0:0:
448,192,13597,1,0,0:0:0:0:
192,192,13675,1,0,0:0:0:0:
64,192,13832,1,0,0:0:0:0:
192,192,13988,1,0,0:0:0:0:
192,192,14144,1,0,0:0:0:0:
320,192,14144,1,0,0:0:0:0:
448,192,14144,1,0,0:0:0:0:
64,192,14144,1,0,0:0:0:0:
448,192,14535,1,0,0:0:0:0:
320,192,14535,1,0,0:0:0:0:
192,192,14535,1,0,0:0:0:0:
64,192,14535,1,0,0:0:0:0:
448,192,14847,1,0,0:0:0:0:
320,192,14847,1,0,0:0:0:0:
192,192,14847,1,0,0:0:0:0:
64,192,14847,1,0,0:0:0:0:
64,192,15160,128,0,15472:0:0:0:0:
320,192,15160,128,0,15472:0:0:0:0:
192,192,15550,1,0,0:0:0:0:
448,192,15550,1,0,0:0:0:0:
64,192,15707,1,0,0:0:0:0:
448,192,15707,1,0,0:0:0:0:
320,192,15863,1,0,0:0:0:0:
448,192,15863,1,0,0:0:0:0:
192,192,16019,1,0,0:0:0:0:
320,192,16019,1,0,0:0:0:0:
64,192,16175,1,0,0:0:0:0:
192,192,16254,1,0,0:0:0:0:
320,192,16332,1,0,0:0:0:0:
64,192,16488,1,0,0:0:0:0:
448,192,16488,1,0,0:0:0:0:
320,192,16722,1,0,0:0:0:0:
448,192,16722,1,0,0:0:0:0:
192,192,17035,1,0,0:0:0:0:
320,192,17035,1,0,0:0:0:0:
448,192,17035,1,0,0:0:0:0:
448,192,17347,1,0,0:0:0:0:
320,192,17347,1,0,0:0:0:0:
192,192,17347,1,0,0:0:0:0:
64,192,17347,1,0,0:0:0:0:
192,192,17660,128,0,17894:0:0:0:0:
64,192,17660,128,0,18910:0:0:0:0:
448,192,18050,1,0,0:0:0:0:
192,192,18129,1,0,0:0:0:0:
320,192,18207,1,0,0:0:0:0:
448,192,18285,1,0,0:0:0:0:
320,192,18363,1,0,0:0:0:0:
192,192,18519,1,0,0:0:0:0:
448,192,18519,1,0,0:0:0:0:
448,192,18754,1,0,0:0:0:0:
320,192,18754,1,0,0:0:0:0:
192,192,18754,1,0,0:0:0:0:
448,192,18910,1,0,0:0:0:0:
320,192,18910,1,0,0:0:0:0:
192,192,18910,1,0,0:0:0:0:
320,192,19144,128,0,19379:0:0:0:0:
448,192,19144,128,0,19379:0:0:0:0:
192,192,19535,128,0,19769:0:0:0:0:
320,192,19535,128,0,19769:0:0:0:0:
64,192,19925,128,0,20160:0:0:0:0:
192,192,19925,128,0,21488:0:0:0:0:
320,192,19925,128,0,20160:0:0:0:0:
64,192,20550,1,0,0:0:0:0:
320,192,20550,1,0,0:0:0:0:
448,192,20550,1,0,0:0:0:0:
320,192,20707,1,0,0:0:0:0:
64,192,20785,1,0,0:0:0:0:
320,192,20863,1,0,0:0:0:0:
448,192,20941,1,0,0:0:0:0:
320,192,21019,1,0,0:0:0:0:
64,192,21097,1,0,0:0:0:0:
448,192,21097,1,0,0:0:0:0:
64,192,21254,1,0,0:0:0:0:
320,192,21254,1,0,0:0:0:0:
448,192,21254,1,0,0:0:0:0:
64,192,21410,1,0,0:0:0:0:
320,192,21410,1,0,0:0:0:0:
448,192,21410,1,0,0:0:0:0:
64,192,21722,1,0,0:0:0:0:
448,192,21722,1,0,0:0:0:0:
320,192,22035,1,0,0:0:0:0:
192,192,22035,1,0,0:0:0:0:
448,192,22347,1,0,0:0:0:0:
64,192,22347,1,0,0:0:0:0:
448,192,22582,128,0,22816:0:0:0:0:
320,192,22582,128,0,22816:0:0:0:0:
192,192,22582,128,0,22816:0:0:0:0:
64,192,22582,128,0,22816:0:0:0:0:
448,192,22972,1,0,0:0:0:0:
320,192,23050,1,0,0:0:0:0:
192,192,23129,1,0,0:0:0:0:
64,192,23207,1,0,0:0:0:0:
192,192,23363,1,0,0:0:0:0:
320,192,23363,1,0,0:0:0:0:
448,192,23363,1,0,0:0:0:0:
64,192,23519,1,0,0:0:0:0:
192,192,23519,1,0,0:0:0:0:
320,192,23519,1,0,0:0:0:0:
64,192,23675,1,0,0:0:0:0:
448,192,23675,1,0,0:0:0:0:
320,192,23754,1,0,0:0:0:0:
192,192,23832,1,0,0:0:0:0:
320,192,23910,1,0,0:0:0:0:
448,192,23910,1,0,0:0:0:0:
192,192,23988,1,0,0:0:0:0:
64,192,24066,1,0,0:0:0:0:
192,192,24144,1,0,0:0:0:0:
64,192,24222,1,0,0:0:0:0:
320,192,24300,1,0,0:0:0:0:
448,192,24379,1,0,0:0:0:0:
192,192,24457,1,0,0:0:0:0:
64,192,24535,1,0,0:0:0:0:
448,192,24535,1,0,0:0:0:0:
320,192,24613,1,0,0:0:0:0:
192,192,24691,1,0,0:0:0:0:
64,192,24769,1,0,0:0:0:0:
192,192,24769,1,0,0:0:0:0:
320,192,24847,1,0,0:0:0:0:
448,192,24847,1,0,0:0:0:0:
192,192,24925,1,0,0:0:0:0:
64,192,25004,1,0,0:0:0:0:
192,192,25082,1,0,0:0:0:0:
320,192,25160,1,0,0:0:0:0:
448,192,25238,1,0,0:0:0:0:
64,192,25238,1,0,0:0:0:0:
320,192,25316,1,0,0:0:0:0:
192,192,25316,1,0,0:0:0:0:
64,192,25394,1,0,0:0:0:0:
192,192,25472,1,0,0:0:0:0:
320,192,25550,1,0,0:0:0:0:
64,192,25629,1,0,0:0:0:0:
192,192,25707,1,0,0:0:0:0:
448,192,25785,1,0,0:0:0:0:
320,192,25863,1,0,0:0:0:0:
192,192,25941,1,0,0:0:0:0:
64,192,26019,1,0,0:0:0:0:
320,192,26097,1,0,0:0:0:0:
192,192,26175,1,0,0:0:0:0:
320,192,26254,1,0,0:0:0:0:
64,192,26332,1,0,0:0:0:0:
192,192,26410,1,0,0:0:0:0:
448,192,26410,1,0,0:0:0:0:
320,192,26488,1,0,0:0:0:0:
192,192,26566,1,0,0:0:0:0:
64,192,26644,1,0,0:0:0:0:
320,192,26644,1,0,0:0:0:0:
192,192,26722,1,0,0:0:0:0:
320,192,26800,1,0,0:0:0:0:
448,192,26879,1,0,0:0:0:0:
320,192,26957,1,0,0:0:0:0:
192,192,27035,1,0,0:0:0:0:
320,192,27113,1,0,0:0:0:0:
64,192,27191,1,0,0:0:0:0:
448,192,27191,1,0,0:0:0:0:
448,192,27347,128,0,27972:0:0:0:0:
320,192,27425,1,0,0:0:0:0:
192,192,27504,1,0,0:0:0:0:
64,192,27582,1,0,0:0:0:0:
320,192,27660,1,0,0:0:0:0:
192,192,27738,1,0,0:0:0:0:
64,192,27816,1,0,0:0:0:0:
192,192,27894,1,0,0:0:0:0:
64,192,27972,1,0,0:0:0:0:
320,192,27972,1,0,0:0:0:0:
64,192,28129,1,0,0:0:0:0:
448,192,28129,1,0,0:0:0:0:
320,192,28129,1,0,0:0:0:0:
64,192,28285,1,0,0:0:0:0:
192,192,28285,1,0,0:0:0:0:
448,192,28285,1,0,0:0:0:0:
320,192,28441,1,0,0:0:0:0:
192,192,28519,1,0,0:0:0:0:
64,192,28597,1,0,0:0:0:0:
320,192,28675,1,0,0:0:0:0:
448,192,28754,1,0,0:0:0:0:
64,192,28832,1,0,0:0:0:0:
192,192,28910,1,0,0:0:0:0:
448,192,28988,1,0,0:0:0:0:
64,192,29066,1,0,0:0:0:0:
320,192,29144,1,0,0:0:0:0:
64,192,29222,1,0,0:0:0:0:
448,192,29300,1,0,0:0:0:0:
320,192,29379,1,0,0:0:0:0:
64,192,29457,1,0,0:0:0:0:
448,192,29457,1,0,0:0:0:0:
192,192,29535,1,0,0:0:0:0:
64,192,29613,1,0,0:0:0:0:
192,192,29691,1,0,0:0:0:0:
320,192,29769,1,0,0:0:0:0:
448,192,29847,1,0,0:0:0:0:
64,192,29925,1,0,0:0:0:0:
448,192,30004,1,0,0:0:0:0:
320,192,30082,1,0,0:0:0:0:
192,192,30160,1,0,0:0:0:0:
64,192,30160,1,0,0:0:0:0:
448,192,30238,1,0,0:0:0:0:
320,192,30316,1,0,0:0:0:0:
192,192,30394,1,0,0:0:0:0:
64,192,30472,1,0,0:0:0:0:
448,192,30550,128,0,31332:0:0:0:0:
64,192,30629,1,0,0:0:0:0:
320,192,30707,1,0,0:0:0:0:
64,192,30785,1,0,0:0:0:0:
192,192,30863,1,0,0:0:0:0:
320,192,30941,1,0,0:0:0:0:
64,192,31019,1,0,0:0:0:0:
192,192,31097,1,0,0:0:0:0:
320,192,31175,1,0,0:0:0:0:
64,192,31332,1,0,0:0:0:0:
192,192,31332,1,0,0:0:0:0:
448,192,31488,128,0,31722:0:0:0:0:
192,192,31488,128,0,31722:0:0:0:0:
320,192,31644,128,0,32425:0:0:0:0:
64,192,31644,128,0,32425:0:0:0:0:
448,192,32660,1,0,0:0:0:0:
320,192,32738,1,0,0:0:0:0:
192,192,32816,1,0,0:0:0:0:
64,192,32894,1,0,0:0:0:0:
448,192,32972,1,0,0:0:0:0:
192,192,32972,1,0,0:0:0:0:
64,192,33050,1,0,0:0:0:0:
192,192,33129,1,0,0:0:0:0:
448,192,33207,1,0,0:0:0:0:
64,192,33285,1,0,0:0:0:0:
448,192,33363,1,0,0:0:0:0:
320,192,33441,1,0,0:0:0:0:
192,192,33519,1,0,0:0:0:0:
64,192,33597,1,0,0:0:0:0:
192,192,33675,1,0,0:0:0:0:
448,192,33754,1,0,0:0:0:0:
64,192,33832,1,0,0:0:0:0:
192,192,33910,1,0,0:0:0:0:
320,192,33988,1,0,0:0:0:0:
192,192,34066,1,0,0:0:0:0:
64,192,34144,1,0,0:0:0:0:
448,192,34222,1,0,0:0:0:0:
320,192,34300,1,0,0:0:0:0:
192,192,34379,1,0,0:0:0:0:
64,192,34457,1,0,0:0:0:0:
448,192,34535,1,0,0:0:0:0:
192,192,34613,1,0,0:0:0:0:
448,192,34691,1,0,0:0:0:0:
64,192,34691,1,0,0:0:0:0:
320,192,34769,1,0,0:0:0:0:
448,192,34847,1,0,0:0:0:0:
192,192,34847,1,0,0:0:0:0:
64,192,34925,1,0,0:0:0:0:
320,192,34925,1,0,0:0:0:0:
192,192,35004,1,0,0:0:0:0:
320,192,35082,1,0,0:0:0:0:
192,192,35160,1,0,0:0:0:0:
448,192,35238,1,0,0:0:0:0:
64,192,35238,1,0,0:0:0:0:
320,192,35316,1,0,0:0:0:0:
192,192,35394,1,0,0:0:0:0:
64,192,35472,1,0,0:0:0:0:
448,192,35550,1,0,0:0:0:0:
64,192,35629,1,0,0:0:0:0:
320,192,35707,1,0,0:0:0:0:
192,192,35785,1,0,0:0:0:0:
320,192,35863,1,0,0:0:0:0:
448,192,35941,1,0,0:0:0:0:
64,192,35941,1,0,0:0:0:0:
192,192,36019,1,0,0:0:0:0:
320,192,36097,1,0,0:0:0:0:
448,192,36175,1,0,0:0:0:0:
64,192,36254,1,0,0:0:0:0:
192,192,36332,1,0,0:0:0:0:
320,192,36410,1,0,0:0:0:0:
448,192,36488,1,0,0:0:0:0:
64,192,36566,1,0,0:0:0:0:
320,192,36644,1,0,0:0:0:0:
448,192,36722,1,0,0:0:0:0:
192,192,36800,128,0,37660:0:0:0:0:
64,192,36957,1,0,0:0:0:0:
320,192,37035,1,0,0:0:0:0:
448,192,37113,1,0,0:0:0:0:
448,192,37269,1,0,0:0:0:0:
320,192,37347,1,0,0:0:0:0:
64,192,37425,1,0,0:0:0:0:
448,192,37660,1,0,0:0:0:0:
64,192,37660,1,0,0:0:0:0:
192,192,37816,1,0,0:0:0:0:
64,192,37894,1,0,0:0:0:0:
192,192,37972,1,0,0:0:0:0:
320,192,38050,1,0,0:0:0:0:
448,192,38129,1,0,0:0:0:0:
64,192,38207,1,0,0:0:0:0:
192,192,38207,1,0,0:0:0:0:
448,192,38285,1,0,0:0:0:0:
320,192,38363,1,0,0:0:0:0:
192,192,38441,1,0,0:0:0:0:
448,192,38519,1,0,0:0:0:0:
320,192,38519,1,0,0:0:0:0:
64,192,38597,1,0,0:0:0:0:
192,192,38675,1,0,0:0:0:0:
320,192,38754,1,0,0:0:0:0:
64,192,38832,1,0,0:0:0:0:
320,192,38910,1,0,0:0:0:0:
64,192,38988,1,0,0:0:0:0:
448,192,39066,1,0,0:0:0:0:
64,192,39144,1,0,0:0:0:0:
448,192,39222,1,0,0:0:0:0:
320,192,39300,1,0,0:0:0:0:
192,192,39379,1,0,0:0:0:0:
64,192,39457,1,0,0:0:0:0:
192,192,39535,1,0,0:0:0:0:
320,192,39613,1,0,0:0:0:0:
448,192,39691,1,0,0:0:0:0:
192,192,39769,1,0,0:0:0:0:
64,192,39847,1,0,0:0:0:0:
192,192,39925,1,0,0:0:0:0:
448,192,40004,1,0,0:0:0:0:
64,192,40082,1,0,0:0:0:0:
320,192,40082,128,0,40472:0:0:0:0:
448,192,40160,1,0,0:0:0:0:
192,192,40238,1,0,0:0:0:0:
64,192,40316,1,0,0:0:0:0:
192,192,40472,128,0,40863:0:0:0:0:
64,192,40550,1,0,0:0:0:0:
320,192,40629,1,0,0:0:0:0:
64,192,40707,1,0,0:0:0:0:
448,192,40785,1,0,0:0:0:0:
320,192,40863,1,0,0:0:0:0:
448,192,41019,128,0,41332:0:0:0:0:
320,192,41097,1,0,0:0:0:0:
192,192,41175,1,0,0:0:0:0:
64,192,41332,128,0,41644:0:0:0:0:
320,192,41332,1,0,0:0:0:0:
320,192,41644,128,0,44144:0:0:0:0:
64,192,41800,1,0,0:0:0:0:
192,192,41879,1,0,0:0:0:0:
448,192,42035,1,0,0:0:0:0:
64,192,42113,1,0,0:0:0:0:
192,192,42191,1,0,0:0:0:0:
64,192,42269,1,0,0:0:0:0:
448,192,42347,1,0,0:0:0:0:
64,192,42425,1,0,0:0:0:0:
448,192,42582,1,0,0:0:0:0:
64,192,42660,1,0,0:0:0:0:
448,192,42738,1,0,0:0:0:0:
192,192,42816,1,0,0:0:0:0:
64,192,42894,1,0,0:0:0:0:
448,192,42972,1,0,0:0:0:0:
192,192,43050,1,0,0:0:0:0:
448,192,43129,1,0,0:0:0:0:
64,192,43207,1,0,0:0:0:0:
448,192,43285,1,0,0:0:0:0:
64,192,43363,1,0,0:0:0:0:
192,192,43519,1,0,0:0:0:0:
448,192,43519,1,0,0:0:0:0:
64,192,43597,1,0,0:0:0:0:
192,192,43675,1,0,0:0:0:0:
448,192,43754,1,0,0:0:0:0:
192,192,43832,1,0,0:0:0:0:
64,192,43910,1,0,0:0:0:0:
448,192,43988,1,0,0:0:0:0:
448,192,44144,1,0,0:0:0:0:
192,192,44144,1,0,0:0:0:0:
64,192,44144,128,0,45004:0:0:0:0:
192,192,44300,1,0,0:0:0:0:
320,192,44379,1,0,0:0:0:0:
448,192,44457,1,0,0:0:0:0:
320,192,44535,1,0,0:0:0:0:
192,192,44613,1,0,0:0:0:0:
320,192,44691,1,0,0:0:0:0:
448,192,44769,1,0,0:0:0:0:
192,192,44847,1,0,0:0:0:0:
448,192,44925,1,0,0:0:0:0:
320,192,45004,128,0,45707:0:0:0:0:
64,192,45160,1,0,0:0:0:0:
192,192,45238,1,0,0:0:0:0:
448,192,45394,1,0,0:0:0:0:
64,192,45472,1,0,0:0:0:0:
448,192,45550,1,0,0:0:0:0:
64,192,45629,128,0,46332:0:0:0:0:
192,192,45707,1,0,0:0:0:0:
448,192,45785,1,0,0:0:0:0:
192,192,45863,1,0,0:0:0:0:
320,192,45941,1,0,0:0:0:0:
448,192,46019,1,0,0:0:0:0:
320,192,46097,1,0,0:0:0:0:
192,192,46175,1,0,0:0:0:0:
448,192,46254,128,0,47269:0:0:0:0:
320,192,46410,1,0,0:0:0:0:
192,192,46488,1,0,0:0:0:0:
64,192,46566,1,0,0:0:0:0:
192,192,46644,1,0,0:0:0:0:
320,192,46722,1,0,0:0:0:0:
192,192,46800,1,0,0:0:0:0:
64,192,46879,1,0,0:0:0:0:
192,192,46957,1,0,0:0:0:0:
320,192,47035,1,0,0:0:0:0:
192,192,47113,1,0,0:0:0:0:
64,192,47191,1,0,0:0:0:0:
192,192,47347,1,0,0:0:0:0:
320,192,47347,1,0,0:0:0:0:
448,192,47504,128,0,48050:0:0:0:0:
64,192,47582,1,0,0:0:0:0:
192,192,47660,1,0,0:0:0:0:
320,192,47738,1,0,0:0:0:0:
64,192,47816,1,0,0:0:0:0:
192,192,47816,1,0,0:0:0:0:
320,192,47894,1,0,0:0:0:0:
64,192,47972,1,0,0:0:0:0:
192,192,48050,128,0,48754:0:0:0:0:
64,192,48129,1,0,0:0:0:0:
320,192,48207,1,0,0:0:0:0:
448,192,48285,1,0,0:0:0:0:
320,192,48363,1,0,0:0:0:0:
64,192,48441,1,0,0:0:0:0:
320,192,48519,1,0,0:0:0:0:
448,192,48597,1,0,0:0:0:0:
320,192,48675,1,0,0:0:0:0:
64,192,48754,128,0,49222:0:0:0:0:
448,192,48832,1,0,0:0:0:0:
320,192,48910,1,0,0:0:0:0:
192,192,48988,1,0,0:0:0:0:
192,192,49066,1,0,0:0:0:0:
320,192,49144,1,0,0:0:0:0:
320,192,49222,1,0,0:0:0:0:
448,192,49222,1,0,0:0:0:0:
320,192,49379,128,0,49925:0:0:0:0:
448,192,49379,128,0,49925:0:0:0:0:
64,192,49379,1,0,0:0:0:0:
192,192,49457,1,0,0:0:0:0:
64,192,49535,1,0,0:0:0:0:
192,192,49613,1,0,0:0:0:0:
64,192,49691,1,0,0:0:0:0:
192,192,49769,1,0,0:0:0:0:
64,192,49847,1,0,0:0:0:0:
192,192,49925,1,0,0:0:0:0:
64,192,50004,128,0,50394:0:0:0:0:
192,192,50082,1,0,0:0:0:0:
320,192,50160,1,0,0:0:0:0:
192,192,50238,128,0,50629:0:0:0:0:
448,192,50238,1,0,0:0:0:0:
320,192,50316,1,0,0:0:0:0:
448,192,50394,1,0,0:0:0:0:
320,192,50472,1,0,0:0:0:0:
448,192,50550,1,0,0:0:0:0:
320,192,50629,128,0,51097:0:0:0:0:
192,192,50707,1,0,0:0:0:0:
64,192,50785,1,0,0:0:0:0:
192,192,50863,1,0,0:0:0:0:
448,192,50941,1,0,0:0:0:0:
192,192,51019,1,0,0:0:0:0:
192,192,51175,128,0,51644:0:0:0:0:
64,192,51254,1,0,0:0:0:0:
320,192,51332,1,0,0:0:0:0:
448,192,51410,1,0,0:0:0:0:
320,192,51488,128,0,51722:0:0:0:0:
64,192,51488,1,0,0:0:0:0:
448,192,51566,1,0,0:0:0:0:
448,192,51722,128,0,53050:0:0:0:0:
64,192,51800,1,0,0:0:0:0:
192,192,51879,1,0,0:0:0:0:
320,192,51957,1,0,0:0:0:0:
64,192,52035,1,0,0:0:0:0:
192,192,52035,1,0,0:0:0:0:
320,192,52113,1,0,0:0:0:0:
192,192,52191,1,0,0:0:0:0:
64,192,52269,1,0,0:0:0:0:
192,192,52347,1,0,0:0:0:0:
320,192,52425,1,0,0:0:0:0:
192,192,52504,1,0,0:0:0:0:
64,192,52582,1,0,0:0:0:0:
192,192,52660,1,0,0:0:0:0:
64,192,52660,1,0,0:0:0:0:
320,192,52738,1,0,0:0:0:0:
192,192,52816,1,0,0:0:0:0:
64,192,52894,1,0,0:0:0:0:
192,192,52972,1,0,0:0:0:0:
64,192,53050,1,0,0:0:0:0:
320,192,53050,1,0,0:0:0:0:
448,192,53441,128,0,53832:0:0:0:0:
320,192,53597,128,0,54066:0:0:0:0:
192,192,53910,128,0,54066:0:0:0:0:
448,192,54144,1,0,0:0:0:0:
64,192,54222,128,0,55160:0:0:0:0:
192,192,54300,1,0,0:0:0:0:
320,192,54379,1,0,0:0:0:0:
448,192,54457,1,0,0:0:0:0:
320,192,54535,1,0,0:0:0:0:
192,192,54613,1,0,0:0:0:0:
320,192,54691,1,0,0:0:0:0:
448,192,54769,1,0,0:0:0:0:
192,192,54847,1,0,0:0:0:0:
320,192,54925,1,0,0:0:0:0:
448,192,55004,1,0,0:0:0:0:
320,192,55082,1,0,0:0:0:0:
192,192,55160,128,0,55550:0:0:0:0:
320,192,55316,128,0,55550:0:0:0:0:
64,192,55550,128,0,56254:0:0:0:0:
448,192,55629,1,0,0:0:0:0:
192,192,55707,1,0,0:0:0:0:
320,192,55785,1,0,0:0:0:0:
448,192,55863,1,0,0:0:0:0:
320,192,55941,1,0,0:0:0:0:
192,192,56019,1,0,0:0:0:0:
320,192,56097,1,0,0:0:0:0:
448,192,56175,1,0,0:0:0:0:
448,192,56566,1,0,0:0:0:0:
64,192,56566,1,0,0:0:0:0:
192,192,56722,1,0,0:0:0:0:
64,192,56800,1,0,0:0:0:0:
192,192,56879,1,0,0:0:0:0:
320,192,56957,1,0,0:0:0:0:
448,192,57035,1,0,0:0:0:0:
192,192,57113,1,0,0:0:0:0:
320,192,57191,1,0,0:0:0:0:
64,192,57269,1,0,0:0:0:0:
448,192,57269,128,0,57425:0:0:0:0:
448,192,57425,1,0,0:0:0:0:
320,192,57504,1,0,0:0:0:0:
64,192,57504,1,0,0:0:0:0:
192,192,57582,1,0,0:0:0:0:
448,192,57582,1,0,0:0:0:0:
320,192,57660,1,0,0:0:0:0:
64,192,57660,1,0,0:0:0:0:
448,192,57816,128,0,58050:0:0:0:0:
64,192,57816,128,0,58050:0:0:0:0:
192,192,57894,1,0,0:0:0:0:
320,192,57972,1,0,0:0:0:0:
192,192,58207,128,0,58519:0:0:0:0:
448,192,58285,1,0,0:0:0:0:
320,192,58363,1,0,0:0:0:0:
64,192,58441,1,0,0:0:0:0:
448,192,58519,128,0,59222:0:0:0:0:
320,192,58597,1,0,0:0:0:0:
192,192,58675,1,0,0:0:0:0:
64,192,58754,1,0,0:0:0:0:
320,192,58832,1,0,0:0:0:0:
192,192,58910,1,0,0:0:0:0:
320,192,58988,1,0,0:0:0:0:
64,192,59066,1,0,0:0:0:0:
320,192,59144,1,0,0:0:0:0:
192,192,59222,1,0,0:0:0:0:
64,192,59222,1,0,0:0:0:0:
448,192,59613,1,0,0:0:0:0:
64,192,59613,1,0,0:0:0:0:
192,192,59691,1,0,0:0:0:0:
320,192,59691,1,0,0:0:0:0:
64,192,59769,1,0,0:0:0:0:
192,192,59847,1,0,0:0:0:0:
320,192,59925,1,0,0:0:0:0:
448,192,60004,1,0,0:0:0:0:
320,192,60082,1,0,0:0:0:0:
192,192,60160,1,0,0:0:0:0:
64,192,60238,1,0,0:0:0:0:
192,192,60316,1,0,0:0:0:0:
320,192,60394,1,0,0:0:0:0:
448,192,60472,128,0,60707:0:0:0:0:
64,192,60472,1,0,0:0:0:0:
192,192,60629,128,0,60941:0:0:0:0:
320,192,60863,128,0,61175:0:0:0:0:
64,192,61254,1,0,0:0:0:0:
192,192,61254,1,0,0:0:0:0:
448,192,61254,1,0,0:0:0:0:
192,192,61488,1,0,0:0:0:0:
320,192,61488,1,0,0:0:0:0:
448,192,61488,1,0,0:0:0:0:
64,192,61722,128,0,62035:0:0:0:0:
192,192,62035,128,0,62113:0:0:0:0:
448,192,62113,128,0,63363:0:0:0:0:
320,192,62269,1,0,0:0:0:0:
192,192,62347,1,0,0:0:0:0:
64,192,62425,1,0,0:0:0:0:
192,192,62504,1,0,0:0:0:0:
320,192,62582,1,0,0:0:0:0:
192,192,62660,1,0,0:0:0:0:
64,192,62738,1,0,0:0:0:0:
192,192,62816,1,0,0:0:0:0:
320,192,62894,1,0,0:0:0:0:
192,192,62972,1,0,0:0:0:0:
64,192,63050,1,0,0:0:0:0:
192,192,63129,1,0,0:0:0:0:
320,192,63207,1,0,0:0:0:0:
320,192,63363,1,0,0:0:0:0:
192,192,63363,1,0,0:0:0:0:
64,192,63363,128,0,63597:0:0:0:0:
448,192,63597,1,0,0:0:0:0:
320,192,63597,1,0,0:0:0:0:
192,192,63597,128,0,63910:0:0:0:0:
320,192,63910,128,0,64222:0:0:0:0:
64,192,63910,1,0,0:0:0:0:
448,192,63910,1,0,0:0:0:0:
64,192,64222,128,0,65160:0:0:0:0:
192,192,64222,1,0,0:0:0:0:
448,192,64300,1,0,0:0:0:0:
192,192,64379,1,0,0:0:0:0:
320,192,64457,1,0,0:0:0:0:
448,192,64535,1,0,0:0:0:0:
320,192,64613,1,0,0:0:0:0:
192,192,64691,1,0,0:0:0:0:
320,192,64769,1,0,0:0:0:0:
448,192,64847,1,0,0:0:0:0:
320,192,64925,1,0,0:0:0:0:
192,192,65004,1,0,0:0:0:0:
320,192,65082,1,0,0:0:0:0:
192,192,65238,128,0,65394:0:0:0:0:
448,192,65238,128,0,65394:0:0:0:0:
64,192,65394,128,0,65707:0:0:0:0:
320,192,65394,128,0,65707:0:0:0:0:
448,192,65707,128,0,66410:0:0:0:0:
192,192,65707,128,0,66410:0:0:0:0:
192,192,66566,1,0,0:0:0:0:
320,192,66566,1,0,0:0:0:0:
64,192,66644,1,0,0:0:0:0:
448,192,66644,1,0,0:0:0:0:
320,192,66722,1,0,0:0:0:0:
192,192,66800,1,0,0:0:0:0:
64,192,66879,1,0,0:0:0:0:
192,192,66957,1,0,0:0:0:0:
320,192,67035,1,0,0:0:0:0:
448,192,67113,1,0,0:0:0:0:
320,192,67191,1,0,0:0:0:0:
192,192,67269,1,0,0:0:0:0:
320,192,67347,1,0,0:0:0:0:
448,192,67425,1,0,0:0:0:0:
64,192,67504,1,0,0:0:0:0:
192,192,67582,1,0,0:0:0:0:
320,192,67660,1,0,0:0:0:0:
192,192,67738,1,0,0:0:0:0:
64,192,67816,1,0,0:0:0:0:
320,192,67894,1,0,0:0:0:0:
448,192,67972,128,0,68285:0:0:0:0:
192,192,67972,1,0,0:0:0:0:
64,192,68050,1,0,0:0:0:0:
192,192,68129,1,0,0:0:0:0:
320,192,68207,1,0,0:0:0:0:
64,192,68285,128,0,68597:0:0:0:0:
192,192,68363,1,0,0:0:0:0:
448,192,68441,1,0,0:0:0:0:
320,192,68519,1,0,0:0:0:0:
448,192,68597,128,0,69066:0:0:0:0:
192,192,68597,1,0,0:0:0:0:
320,192,68675,1,0,0:0:0:0:
192,192,68754,1,0,0:0:0:0:
64,192,68832,1,0,0:0:0:0:
192,192,68910,1,0,0:0:0:0:
320,192,68988,1,0,0:0:0:0:
448,192,69222,1,0,0:0:0:0:
320,192,69300,1,0,0:0:0:0:
192,192,69300,1,0,0:0:0:0:
64,192,69379,1,0,0:0:0:0:
192,192,69457,1,0,0:0:0:0:
320,192,69535,1,0,0:0:0:0:
448,192,69613,1,0,0:0:0:0:
320,192,69691,1,0,0:0:0:0:
192,192,69769,1,0,0:0:0:0:
64,192,69847,1,0,0:0:0:0:
448,192,69847,1,0,0:0:0:0:
320,192,69925,1,0,0:0:0:0:
192,192,70004,1,0,0:0:0:0:
320,192,70082,1,0,0:0:0:0:
64,192,70160,1,0,0:0:0:0:
448,192,70238,1,0,0:0:0:0:
192,192,70316,1,0,0:0:0:0:
64,192,70394,1,0,0:0:0:0:
192,192,70472,1,0,0:0:0:0:
320,192,70550,1,0,0:0:0:0:
448,192,70629,1,0,0:0:0:0:
320,192,70707,1,0,0:0:0:0:
192,192,70707,1,0,0:0:0:0:
64,192,70785,1,0,0:0:0:0:
192,192,70863,1,0,0:0:0:0:
320,192,70941,1,0,0:0:0:0:
192,192,71019,1,0,0:0:0:0:
64,192,71097,1,0,0:0:0:0:
320,192,71175,1,0,0:0:0:0:
448,192,71254,1,0,0:0:0:0:
192,192,71332,1,0,0:0:0:0:
64,192,71410,1,0,0:0:0:0:
192,192,71488,1,0,0:0:0:0:
320,192,71566,1,0,0:0:0:0:
448,192,71644,1,0,0:0:0:0:
320,192,71722,1,0,0:0:0:0:
64,192,71722,1,0,0:0:0:0:
192,192,71800,1,0,0:0:0:0:
320,192,71879,1,0,0:0:0:0:
64,192,71957,1,0,0:0:0:0:
192,192,72035,1,0,0:0:0:0:
320,192,72113,1,0,0:0:0:0:
448,192,72191,1,0,0:0:0:0:
320,192,72269,1,0,0:0:0:0:
192,192,72347,1,0,0:0:0:0:
448,192,72425,1,0,0:0:0:0:
320,192,72504,1,0,0:0:0:0:
192,192,72582,1,0,0:0:0:0:
64,192,72660,1,0,0:0:0:0:
320,192,72738,1,0,0:0:0:0:
448,192,72738,1,0,0:0:0:0:
192,192,72972,1,0,0:0:0:0:
64,192,72972,1,0,0:0:0:0:
448,192,73285,1,0,0:0:0:0:
320,192,73285,1,0,0:0:0:0:
192,192,73285,1,0,0:0:0:0:
64,192,73597,1,0,0:0:0:0:
320,192,73597,1,0,0:0:0:0:
448,192,73597,1,0,0:0:0:0:
448,192,73910,1,0,0:0:0:0:
320,192,73910,1,0,0:0:0:0:
192,192,73910,1,0,0:0:0:0:
64,192,73910,1,0,0:0:0:0:
64,192,74222,128,0,74587:0:0:0:0:
192,192,74222,128,0,74587:0:0:0:0:
320,192,74222,128,0,74587:0:0:0:0:
448,192,74743,1,0,0:0:0:0:
192,192,74743,1,0,0:0:0:0:
64,192,74743,1,0,0:0:0:0:
448,192,74899,1,0,0:0:0:0:
320,192,74899,1,0,0:0:0:0:
64,192,74899,1,0,0:0:0:0:
448,192,75056,1,0,0:0:0:0:
192,192,75056,1,0,0:0:0:0:
64,192,75056,1,0,0:0:0:0:
448,192,75212,1,0,0:0:0:0:
320,192,75212,1,0,0:0:0:0:
192,192,75212,1,0,0:0:0:0:
448,192,75472,1,0,0:0:0:0:
320,192,75472,1,0,0:0:0:0:
192,192,75472,1,0,0:0:0:0:
64,192,75472,1,0,0:0:0:0:
64,192,75629,1,0,0:0:0:0:
192,192,75629,1,0,0:0:0:0:
320,192,75785,1,0,0:0:0:0:
448,192,75785,1,0,0:0:0:0:
64,192,75941,1,0,0:0:0:0:
192,192,75941,1,0,0:0:0:0:
192,192,76097,1,0,0:0:0:0:
320,192,76097,1,0,0:0:0:0:
64,192,76254,1,0,0:0:0:0:
320,192,76254,1,0,0:0:0:0:
192,192,76410,1,0,0:0:0:0:
448,192,76410,1,0,0:0:0:0:
64,192,76566,1,0,0:0:0:0:
192,192,76566,1,0,0:0:0:0:
320,192,76566,1,0,0:0:0:0:
448,192,76566,1,0,0:0:0:0:
448,192,76722,1,0,0:0:0:0:
320,192,76774,1,0,0:0:0:0:
192,192,76826,1,0,0:0:0:0:
64,192,76879,1,0,0:0:0:0:
192,192,76931,1,0,0:0:0:0:
320,192,76983,1,0,0:0:0:0:
448,192,77035,1,0,0:0:0:0:
320,192,77087,1,0,0:0:0:0:
192,192,77139,1,0,0:0:0:0:
64,192,77191,1,0,0:0:0:0:
448,192,77191,1,0,0:0:0:0:
192,192,77243,1,0,0:0:0:0:
320,192,77295,1,0,0:0:0:0:
448,192,77347,1,0,0:0:0:0:
320,192,77399,1,0,0:0:0:0:
192,192,77451,1,0,0:0:0:0:
64,192,77504,1,0,0:0:0:0:
448,192,77556,1,0,0:0:0:0:
320,192,77608,1,0,0:0:0:0:
192,192,77660,1,0,0:0:0:0:
64,192,77712,1,0,0:0:0:0:
192,192,77764,1,0,0:0:0:0:
320,192,77816,1,0,0:0:0:0:
64,192,77868,1,0,0:0:0:0:
64,192,77972,1,0,0:0:0:0:
192,192,77972,1,0,0:0:0:0:
320,192,77972,1,0,0:0:0:0:
448,192,77972,1,0,0:0:0:0:
448,192,78285,1,0,0:0:0:0:
320,192,78285,1,0,0:0:0:0:
192,192,78285,1,0,0:0:0:0:
64,192,78285,1,0,0:0:0:0:
448,192,78597,1,0,0:0:0:0:
320,192,78597,1,0,0:0:0:0:
192,192,78597,1,0,0:0:0:0:
64,192,78597,1,0,0:0:0:0:
64,192,78910,128,0,79222:0:0:0:0:
192,192,78910,128,0,79222:0:0:0:0:
448,192,78910,128,0,79222:0:0:0:0:
320,192,79222,128,0,81722:0:0:0:0:
448,192,79326,1,0,0:0:0:0:
192,192,79379,1,0,0:0:0:0:
64,192,79431,1,0,0:0:0:0:
192,192,79483,1,0,0:0:0:0:
448,192,79535,1,0,0:0:0:0:
192,192,79587,1,0,0:0:0:0:
64,192,79639,1,0,0:0:0:0:
192,192,79691,1,0,0:0:0:0:
64,192,79743,1,0,0:0:0:0:
192,192,79795,1,0,0:0:0:0:
448,192,79847,1,0,0:0:0:0:
192,192,79899,1,0,0:0:0:0:
64,192,79951,1,0,0:0:0:0:
192,192,80004,1,0,0:0:0:0:
448,192,80056,1,0,0:0:0:0:
192,192,80108,1,0,0:0:0:0:
64,192,80160,1,0,0:0:0:0:
192,192,80212,1,0,0:0:0:0:
448,192,80264,1,0,0:0:0:0:
192,192,80316,1,0,0:0:0:0:
64,192,80368,1,0,0:0:0:0:
192,192,80420,1,0,0:0:0:0:
448,192,80472,1,0,0:0:0:0:
64,192,80524,1,0,0:0:0:0:
192,192,80576,1,0,0:0:0:0:
448,192,80629,1,0,0:0:0:0:
192,192,80681,1,0,0:0:0:0:
64,192,80733,1,0,0:0:0:0:
192,192,80785,1,0,0:0:0:0:
448,192,80837,1,0,0:0:0:0:
64,192,80889,1,0,0:0:0:0:
448,192,80941,1,0,0:0:0:0:
192,192,80993,1,0,0:0:0:0:
64,192,81045,1,0,0:0:0:0:
192,192,81097,1,0,0:0:0:0:
64,192,81149,1,0,0:0:0:0:
448,192,81201,1,0,0:0:0:0:
192,192,81254,1,0,0:0:0:0:
64,192,81306,1,0,0:0:0:0:
192,192,81358,1,0,0:0:0:0:
448,192,81410,1,0,0:0:0:0:
192,192,81462,1,0,0:0:0:0:
64,192,81514,1,0,0:0:0:0:
192,192,81722,1,0,0:0:0:0:
448,192,81722,128,0,84118:0:0:0:0:
64,192,81722,1,0,0:0:0:0:
64,192,81826,1,0,0:0:0:0:
192,192,81879,1,0,0:0:0:0:
320,192,81931,1,0,0:0:0:0:
192,192,81983,1,0,0:0:0:0:
64,192,82035,1,0,0:0:0:0:
192,192,82087,1,0,0:0:0:0:
320,192,82139,1,0,0:0:0:0:
192,192,82191,1,0,0:0:0:0:
64,192,82243,1,0,0:0:0:0:
192,192,82295,1,0,0:0:0:0:
320,192,82295,1,0,0:0:0:0:
64,192,82399,1,0,0:0:0:0:
192,192,82399,1,0,0:0:0:0:
320,192,82451,1,0,0:0:0:0:
192,192,82504,1,0,0:0:0:0:
64,192,82556,1,0,0:0:0:0:
192,192,82608,1,0,0:0:0:0:
320,192,82660,1,0,0:0:0:0:
192,192,82712,1,0,0:0:0:0:
64,192,82764,1,0,0:0:0:0:
192,192,82816,1,0,0:0:0:0:
320,192,82868,1,0,0:0:0:0:
64,192,82920,1,0,0:0:0:0:
192,192,82972,1,0,0:0:0:0:
320,192,83024,1,0,0:0:0:0:
64,192,83076,1,0,0:0:0:0:
192,192,83129,1,0,0:0:0:0:
320,192,83181,1,0,0:0:0:0:
64,192,83233,1,0,0:0:0:0:
192,192,83285,1,0,0:0:0:0:
64,192,83337,1,0,0:0:0:0:
320,192,83389,1,0,0:0:0:0:
64,192,83441,1,0,0:0:0:0:
192,192,83493,1,0,0:0:0:0:
64,192,83597,1,0,0:0:0:0:
192,192,83597,1,0,0:0:0:0:
320,192,83597,1,0,0:0:0:0:
64,192,83754,1,0,0:0:0:0:
192,192,83754,1,0,0:0:0:0:
320,192,83754,1,0,0:0:0:0:
64,192,83910,1,0,0:0:0:0:
192,192,83910,1,0,0:0:0:0:
320,192,83910,1,0,0:0:0:0:
320,192,84066,1,0,0:0:0:0:
192,192,84066,1,0,0:0:0:0:
64,192,84066,1,0,0:0:0:0:
64,192,84222,128,0,86683:0:0:0:0:
192,192,84222,128,0,84379:0:0:0:0:
320,192,84222,128,0,84379:0:0:0:0:
192,192,84496,1,0,0:0:0:0:
320,192,84535,1,0,0:0:0:0:
448,192,84574,1,0,0:0:0:0:
320,192,84613,1,0,0:0:0:0:
192,192,84652,1,0,0:0:0:0:
320,192,84691,1,0,0:0:0:0:
448,192,84730,1,0,0:0:0:0:
320,192,84769,1,0,0:0:0:0:
192,192,84808,1,0,0:0:0:0:
320,192,84847,1,0,0:0:0:0:
448,192,84886,1,0,0:0:0:0:
320,192,84925,1,0,0:0:0:0:
448,192,84964,1,0,0:0:0:0:
192,192,84964,1,0,0:0:0:0:
320,192,85004,1,0,0:0:0:0:
448,192,85043,1,0,0:0:0:0:
320,192,85082,1,0,0:0:0:0:
192,192,85121,1,0,0:0:0:0:
320,192,85160,1,0,0:0:0:0:
448,192,85199,1,0,0:0:0:0:
320,192,85238,1,0,0:0:0:0:
192,192,85277,1,0,0:0:0:0:
448,192,85316,1,0,0:0:0:0:
320,192,85355,1,0,0:0:0:0:
192,192,85394,1,0,0:0:0:0:
448,192,85433,1,0,0:0:0:0:
320,192,85472,1,0,0:0:0:0:
192,192,85511,1,0,0:0:0:0:
320,192,85550,1,0,0:0:0:0:
448,192,85589,1,0,0:0:0:0:
192,192,85629,1,0,0:0:0:0:
320,192,85668,1,0,0:0:0:0:
448,192,85707,1,0,0:0:0:0:
192,192,85746,1,0,0:0:0:0:
320,192,85785,1,0,0:0:0:0:
448,192,85824,1,0,0:0:0:0:
320,192,85863,1,0,0:0:0:0:
192,192,85902,1,0,0:0:0:0:
320,192,85941,1,0,0:0:0:0:
448,192,85980,1,0,0:0:0:0:
320,192,86019,1,0,0:0:0:0:
192,192,86058,1,0,0:0:0:0:
192,192,86136,1,0,0:0:0:0:
320,192,86175,1,0,0:0:0:0:
448,192,86214,1,0,0:0:0:0:
192,192,86254,1,0,0:0:0:0:
320,192,86293,1,0,0:0:0:0:
448,192,86332,1,0,0:0:0:0:
192,192,86371,1,0,0:0:0:0:
320,192,86410,1,0,0:0:0:0:
448,192,86449,1,0,0:0:0:0:
320,192,86488,1,0,0:0:0:0:
192,192,86527,1,0,0:0:0:0:
448,192,86683,1,0,0:0:0:0:
192,192,86683,128,0,88988:0:0:0:0:
320,192,86683,128,0,88988:0:0:0:0:
64,192,89066,1,0,0:0:0:0:
192,192,89066,1,0,0:0:0:0:
320,192,89066,1,0,0:0:0:0:
448,192,89066,1,0,0:0:0:0:
448,192,89222,1,0,0:0:0:0:
64,192,89222,1,0,0:0:0:0:
192,192,89222,1,0,0:0:0:0:
320,192,89222,1,0,0:0:0:0:
