osu file format v14

[General]
AudioFilename: audio.mp3
AudioLeadIn: 0
PreviewTime: 94733
Countdown: 0
SampleSet: Soft
StackLeniency: 0.2
Mode: 0
LetterboxInBreaks: 0
WidescreenStoryboard: 1

[Editor]
Bookmarks: 42488,50623,75030
DistanceSpacing: 0.23
BeatDivisor: 8
GridSize: 4
TimelineZoom: 1.9

[Metadata]
Title:Asterlore (Game Ver.)
TitleUnicode:アスタロア (Game Ver.)
Artist:Suzuki Konomi
ArtistUnicode:鈴木このみ
Creator:Lize
Version:Skystar's Memorial
Source:Summer Pockets REFLECTION BLUE
Tags:Opening Key Visual Novel VN Japanese Pop J-Pop Jpop Video Game Garden Necho Skystar 魁 Kai 折戸伸治 Orito Shinji 塚越雄一朗 Tsukagoshi Yuichiro NanosizeMir visualarts arts galgame version サマーポケッツ Amamiya Yuko
BeatmapID:3013115
BeatmapSetID:1418402

[Difficulty]
HPDrainRate:6
CircleSize:4.4
OverallDifficulty:9
ApproachRate:9.4
SliderMultiplier:2.8
SliderTickRate:1

[Events]
//Background and Video events
0,0,"main (2).jpg",0,0
//Break Periods
//Storyboard Layer 0 (Background)
//Storyboard Layer 1 (Fail)
//Storyboard Layer 2 (Pass)
//Storyboard Layer 3 (Foreground)
//Storyboard Layer 4 (Overlay)
//Storyboard Sound Samples

[TimingPoints]
1200,677.966101694915,4,2,1,30,1,0
1888,641.711229946524,4,2,1,30,1,0
1888,-588.235294117647,4,2,1,30,0,0
3010,-277.777777777778,4,2,1,30,0,0
3813,-588.235294117647,4,2,1,30,0,0
5577,-277.777777777778,4,2,1,30,0,0
12155,655.737704918033,4,2,1,40,1,0
12155,-178.571428571429,4,2,1,40,0,0
17400,666.666666666667,4,2,1,40,1,0
17400,-178.571428571429,4,2,1,40,0,0
18733,731.707317073171,4,2,1,40,1,0
18733,-232.558139534884,4,2,1,40,0,0
20196,759.493670886076,4,2,1,40,1,0
21714,617.283950617284,4,2,1,40,1,0
23874,-100,4,2,1,6,0,0
24183,508.474576271186,4,2,1,70,1,0
24183,-53.475935828877,4,2,1,70,0,0
24691,-232.558139534884,4,2,1,70,0,0
24945,-53.475935828877,4,2,1,70,0,0
25327,-100,4,2,1,70,0,0
26216,-53.1914893617021,4,2,1,70,0,0
26725,-227.272727272727,4,2,1,70,0,0
26979,-53.1914893617021,4,2,1,70,0,0
27742,-65.7894736842105,4,2,1,70,0,0
27996,-178.571428571429,4,2,1,70,0,0
28250,-50.761421319797,4,2,1,70,0,0
28759,-357.142857142857,4,2,1,70,0,0
29013,-59.1715976331361,4,2,1,70,0,0
29267,-119.047619047619,4,2,1,70,0,0
29776,-56.8181818181818,4,2,1,70,0,0
30284,-50.761421319797,4,2,1,70,0,0
30793,-357.142857142857,4,2,1,70,0,0
31047,-83.3333333333333,4,2,1,70,0,0
32318,-49.2610837438424,4,2,1,70,0,0
32827,-263.157894736842,4,2,1,70,0,0
33081,-53.1914893617021,4,2,1,80,0,0
33844,-71.4285714285714,4,2,1,80,0,0
34352,-49.2610837438424,4,2,1,80,0,0
34860,-263.157894736842,4,2,1,80,0,0
35115,-53.1914893617021,4,2,1,80,0,0
36386,-64.1025641025641,4,2,1,80,0,0
36894,-114.942528735632,4,2,1,80,0,0
37149,-67.5675675675676,4,2,1,80,0,0
37403,-59.1715976331361,4,2,1,80,0,0
38420,-51.2820512820513,4,2,1,80,0,0
38928,-81.3008130081301,4,2,1,80,0,0
39564,-74.6268656716418,4,2,1,80,0,0
39945,-68.9655172413793,4,2,1,80,0,0
40454,-53.1914893617021,4,2,1,70,0,0
42488,-500,4,2,1,50,0,0
42742,-500,4,2,1,30,0,0
43505,-303.030303030303,4,2,1,30,0,0
50115,-303.030303030303,4,2,1,40,0,0
55708,-200,4,2,1,40,0,0
56725,-151.515151515152,4,2,1,40,0,0
56979,-129.87012987013,4,2,1,40,0,0
57233,-113.636363636364,4,2,1,40,0,0
57742,-83.3333333333333,4,2,1,50,0,0
57805,-83.3333333333333,4,2,1,6,0,0
58081,-83.3333333333333,4,2,1,60,0,0
58335,-83.3333333333333,4,2,1,6,0,0
58420,-303.030303030303,4,2,1,60,0,0
59013,-303.030303030303,4,2,1,40,0,0
59098,-151.515151515152,4,2,1,40,0,0
59267,-81.3008130081301,4,2,1,55,0,0
61682,-178.571428571429,4,2,1,55,0,0
62064,-89.2857142857143,4,2,1,55,0,0
62827,-120.481927710843,4,2,1,55,0,0
65369,-81.3008130081301,4,2,1,55,0,0
65750,-178.571428571429,4,2,1,55,0,0
66894,-120.481927710843,4,2,1,55,0,0
68166,-172.413793103448,4,2,1,55,0,0
68547,-114.942528735632,4,2,1,55,0,0
69691,-97.0873786407767,4,2,1,55,0,0
70199,-178.571428571429,4,2,1,55,0,0
70454,-75.187969924812,4,2,1,55,0,0
70962,-133.333333333333,4,2,1,55,0,0
71344,-153.846153846154,4,2,1,55,0,0
71979,-128.205128205128,4,2,1,55,0,0
72233,-112.359550561798,4,2,1,55,0,0
72488,-100,4,2,1,55,0,0
72742,-90.0900900900901,4,2,1,55,0,0
72996,-81.9672131147541,4,2,1,55,0,0
73759,-111.111111111111,4,3,0,55,0,0
74013,-75.187969924812,4,2,1,60,0,0
75030,-104.166666666667,4,2,1,65,0,0
75666,-217.391304347826,4,2,1,65,0,0
76047,-75.7575757575758,4,2,1,65,0,0
76428,-114.942528735632,4,2,1,65,0,0
80115,-75.7575757575758,4,2,1,65,0,0
80369,-114.942528735632,4,2,1,65,0,0
82403,-111.111111111111,4,3,0,65,0,0
82657,-111.111111111111,4,2,1,65,0,0
83166,-104.166666666667,4,2,1,65,0,0
83801,-217.391304347826,4,2,1,65,0,0
84182,-75.7575757575758,4,2,1,65,0,0
84437,-114.942528735632,4,2,1,65,0,0
86216,-75.7575757575758,4,2,1,65,0,0
87233,-135.135135135135,4,2,1,65,0,0
87615,-92.5925925925926,4,2,1,65,0,0
88505,-114.942528735632,4,2,1,65,0,0
89013,-102.040816326531,4,2,1,65,0,0
91301,-60.2409638554217,4,2,1,75,0,0
92064,-166.666666666667,4,2,1,75,0,0
92318,-166.666666666667,4,2,1,65,0,0
93208,-166.666666666667,4,2,1,6,0,0
93335,-100,4,2,1,65,0,0
94606,-100,4,2,1,65,0,0
94860,-100,4,2,1,65,0,0
95369,-45.045045045045,4,2,1,80,0,1
95623,-64.1025641025641,4,2,1,80,0,1
95877,-56.4971751412429,4,2,1,80,0,1
96259,-50,4,2,1,80,0,1
96640,-100,4,2,1,80,0,1
96894,-60.2409638554217,4,2,1,80,0,1
97403,-45.045045045045,4,2,1,80,0,1
97911,-56.4971751412429,4,2,1,80,0,1
98928,-51.8134715025907,4,2,1,80,0,1
99945,-72.992700729927,4,2,1,80,0,1
100199,-61.3496932515337,4,2,1,80,0,1
100708,-100,4,2,1,80,0,1
100962,-51.0204081632653,4,2,1,80,0,1
102996,-270.27027027027,4,2,1,80,0,1
103505,-45.045045045045,4,2,1,80,0,1
103759,-64.1025641025641,4,2,1,80,0,1
104013,-56.4971751412429,4,2,1,80,0,1
104394,-50,4,2,1,80,0,1
104776,-100,4,2,1,80,0,1
105030,-60.2409638554217,4,2,1,80,0,1
105538,-45.045045045045,4,2,1,80,0,1
106047,-56.4971751412429,4,2,1,80,0,1
107064,-51.8134715025907,4,2,1,80,0,1
107954,-64.1025641025641,4,2,1,80,0,1
109606,-43.1034482758621,4,2,1,80,0,1
111132,-76.9230769230769,4,2,1,80,0,1
111513,-76.9230769230769,4,2,1,8,0,1
111640,-53.475935828877,4,2,1,70,0,0
112148,-232.558139534884,4,2,1,70,0,0
112402,-53.475935828877,4,2,1,70,0,0
112784,-100,4,2,1,70,0,0
113673,-53.1914893617021,4,2,1,70,0,0
114182,-227.272727272727,4,2,1,70,0,0
114436,-53.1914893617021,4,2,1,70,0,0
115199,-65.7894736842105,4,2,1,70,0,0
115453,-178.571428571429,4,2,1,70,0,0
115707,-50.761421319797,4,2,1,70,0,0
116216,-357.142857142857,4,2,1,70,0,0
116470,-59.1715976331361,4,2,1,70,0,0
116724,-119.047619047619,4,2,1,70,0,0
117233,-56.8181818181818,4,2,1,70,0,0
117741,-50.761421319797,4,2,1,70,0,0
118250,-357.142857142857,4,2,1,70,0,0
118504,-83.3333333333333,4,2,1,70,0,0
119775,-49.2610837438424,4,2,1,80,0,0
120284,-263.157894736842,4,2,1,80,0,0
120538,-53.1914893617021,4,2,1,80,0,0
121301,-71.4285714285714,4,2,1,80,0,0
121809,-49.2610837438424,4,2,1,80,0,0
122317,-263.157894736842,4,2,1,80,0,0
122572,-53.1914893617021,4,2,1,80,0,0
123335,-71.4285714285714,4,2,1,80,0,0
123843,-64.1025641025641,4,2,1,70,0,0
124351,-114.942528735632,4,2,1,70,0,0
124606,-67.5675675675676,4,2,1,70,0,0
124860,-59.1715976331361,4,2,1,70,0,0
125877,677.966101694915,4,2,1,70,1,0
125877,-400,4,2,1,70,0,0
126385,-81.3008130081301,4,2,1,70,0,0
126554,-400,4,2,1,60,0,0
127021,-74.6268656716418,4,2,1,60,0,0
127232,-400,4,2,1,50,0,0
127402,-68.9655172413793,4,2,1,50,0,0
127910,-217.391304347826,4,2,1,40,0,0
128588,869.565217391304,4,2,1,60,1,0
128588,-151.515151515152,4,2,1,60,0,0
128696,-151.515151515152,4,2,1,30,0,0
128805,-100,4,2,1,30,0,0

[Colours]
Combo1 : 128,255,128
Combo2 : 255,128,128
Combo3 : 128,128,255
Combo4 : 255,255,128
Combo5 : 53,53,53
Combo6 : 233,233,233

[HitObjects]
75,227,1200,85,0,0:0:0:0:
134,181,1537,1,0,0:0:0:0:
197,218,1888,2,0,L|192:248,1,23.8000001452637,2|0,0:0|0:0,0:0:0:0:
232,340,2529,2,0,L|255:336,1,23.8000001452637,2|0,0:0|0:0,0:0:0:0:
327,322,3010,6,0,P|343:300|337:248,1,75.6000018457032,2|0,0:0|0:0,0:0:0:0:
401,172,3813,5,0,0:0:0:0:
488,222,4133,1,2,0:0:0:0:
454,317,4454,2,0,L|449:347,1,23.8000001452637
339,285,5096,2,0,L|334:255,1,23.8000001452637,2|0,0:0|0:0,0:0:0:0:
288,202,5577,6,0,P|254:194|196:201,1,75.6000018457032,2|0,0:0|0:0,0:0:0:0:
85,235,6379,37,2,0:0:0:0:
154,44,6700,1,0,0:0:0:0:
171,55,6861,2,0,P|174:99|161:134,1,75.6000018457032
231,283,7663,5,2,0:0:0:0:
323,183,7984,1,0,0:0:0:0:
298,160,8144,2,0,P|292:119|297:62,1,75.6000018457032,2|0,0:0|0:0,0:0:0:0:
395,44,8946,5,2,0:0:0:0:
480,135,9267,1,0,0:0:0:0:
421,246,9588,2,0,L|431:358,1,100.800002460938
314,300,10551,2,0,L|345:303,1,25.2000006152344,2|0,0:0|0:0,0:0:0:0:
212,353,10871,5,0,0:0:0:0:
244,284,11032,2,0,L|241:253,1,25.2000006152344,2|0,0:0|0:0,0:0:0:0:
244,93,11353,1,0,0:0:0:0:
290,152,11513,37,2,0:0:0:0:
93,244,11834,1,0,0:0:0:0:
112,28,12155,2,0,P|147:31|182:74,1,78.4000009570313,2|0,0:0|0:0,0:0:0:0:
422,207,12810,5,0,0:0:0:0:
350,217,12974,2,0,L|298:224,1,39.2000004785156,2|0,0:0|0:0,0:0:0:0:
214,317,13302,1,0,0:0:0:0:
297,375,13466,2,0,P|289:333|311:284,1,78.4000009570313,2|0,0:0|0:0,0:0:0:0:
368,98,14122,5,0,0:0:0:0:
411,269,14450,1,0,0:0:0:0:
502,174,14777,2,0,L|408:161,1,78.4000009570313,2|0,0:0|0:0,0:0:0:0:
276,47,15433,2,0,L|286:124,1,78.4000009570313,2|0,0:0|0:0,0:0:0:0:
286,124,15925,6,0,P|235:77|267:138,1,196.000002392578,2|0,0:0|0:0,0:0:0:0:
24,77,17073,37,0,0:0:0:0:
94,57,17236,1,2,0:0:0:0:
140,113,17400,2,0,B|146:136|146:136|100:173,1,78.4000009570313
127,248,17900,2,0,L|42:238,1,78.4000009570313,2|0,0:0|0:0,0:0:0:0:
192,202,18400,2,0,L|207:257,1,39.2000004785156,2|0,0:0|0:0,0:0:0:0:
258,357,18733,2,0,B|265:294|265:294|296:277,1,90.3000013778687,2|0,0:0|0:0,0:0:0:0:
348,230,19464,6,0,L|366:226,2,10.0333334864299,2|2|0,0:0|0:0|0:0,0:0:0:0:
479,315,20074,6,0,L|475:333,2,10.0333334864299,2|2|2,0:0|0:0|0:0,0:0:0:0:
256,192,20290,12,0,23874,0:0:0:0:
25,126,24183,6,0,B|8:93|30:56|30:56|57:79|82:75|82:75|107:71|124:39|124:39|158:67|154:103,1,261.799994806824,6|0,1:0|0:0,0:0:0:0:
96,151,24564,1,2,0:0:0:0:
179,207,24691,38,0,L|186:165,1,30.1000004592896,8|0,0:0|0:0,0:0:0:0:
350,134,24945,6,0,L|69:171,1,261.799994806824,2|0,0:0|1:0,0:0:0:0:
164,25,25327,6,0,P|216:34|244:118,1,140,2|0,0:0|0:0,0:0:0:0:
238,120,25708,1,8,0:0:0:0:
238,120,25835,5,2,0:0:0:0:
309,177,25962,37,0,0:0:0:0:
415,170,26089,5,2,0:0:0:0:
477,77,26216,6,0,B|484:39|484:39|479:33|479:33|390:18|390:18|383:23|383:23|372:81|372:81|377:87|377:87|429:95,1,263.199995983887,2|0,1:2|0:0,0:0:0:0:
383,265,26598,5,2,0:0:0:0:
415,170,26725,2,0,B|421:201,1,30.8000009399414,8|0,0:0|0:0,0:0:0:0:
490,323,26979,38,0,B|435:358|357:322|398:270|305:243|249:283,1,263.199995983887,2|0,0:0|1:0,0:0:0:0:
180,298,27361,1,10,0:0:0:0:
119,256,27488,1,0,0:0:0:0:
20,372,27615,5,0,0:0:0:0:
109,338,27742,6,0,B|121:364|143:377|143:377|115:380|94:353,1,106.399998701172,8|0,0:0|0:0,0:0:0:0:
33,292,27996,6,0,L|36:273,1,19.6000002392578
61,192,28123,38,0,L|81:190,1,19.6000002392578,2|0,0:0|0:0,0:0:0:0:
145,136,28250,6,0,B|154:90|154:90|68:106|68:106|38:255|38:255|111:298|111:298|119:257,1,413.700000946884,2|2,1:0|0:0,0:0:0:0:
208,207,28759,2,0,L|188:209,1,19.6000002392578,8|0,0:0|0:0,0:0:0:0:
216,214,29013,6,0,P|243:170|322:175,1,118.300002211266,2|0,0:0|0:0,0:0:0:0:
431,334,29267,5,0,1:2:0:0:
377,284,29394,2,0,B|370:253|370:253|383:258|385:280,1,58.7999982055665,2|2,0:0|0:3,0:0:0:0:
499,172,29606,37,0,0:0:0:0:
499,172,29691,1,0,0:0:0:0:
499,172,29776,2,0,B|496:186|487:195|475:193|475:193|396:181|396:181|383:179|374:169|375:156|375:156|380:124|380:124|382:112|394:102|405:104|405:104|432:108,1,246.400007519531,10|0,0:0|0:0,0:0:0:0:
505,88,30157,5,2,0:0:0:0:
370,253,30284,2,0,B|363:286|363:286|248:323|248:323|191:292|191:292|214:231|214:231|307:201|307:201|301:231,1,413.700000946884,2|2,1:2|0:0,0:0:0:0:
314,318,30793,2,0,L|310:337,1,19.6000002392578,8|0,0:0|0:0,0:0:0:0:
134,341,31047,6,0,B|119:336|119:336|108:288|108:288|121:273,1,83.9999974365235,2|0,0:0|0:0,0:0:0:0:
301,159,31301,5,2,1:2:0:0:
256,101,31428,1,10,0:0:0:0:
228,170,31555,1,8,0:0:0:0:
400,80,31682,37,10,0:0:0:0:
183,112,31810,1,4,1:2:0:0:
319,284,31937,1,0,1:0:0:0:
400,80,32064,1,8,0:0:0:0:
301,159,32191,5,8,0:0:0:0:
360,213,32318,2,0,B|377:228|377:228|415:225|415:225|453:142|453:142|505:192|505:192|479:253,1,284.199989809113,6|0,1:0|0:0,0:0:0:0:
413,306,32699,5,2,0:0:0:0:
327,363,32827,2,0,L|375:358,1,26.599999675293,8|0,0:0|0:0,0:0:0:0:
503,340,33081,6,0,B|528:325|528:325|520:297|520:297|276:256|276:256|291:350|291:350|222:376|222:376|259:298,1,526.399991967774,2|2,0:0|0:3,0:0:0:0:
255,251,33674,37,2,0:3:0:0:
260,231,33759,1,2,0:3:0:0:
265,211,33844,6,0,B|266:189|266:189|259:175|235:164|210:167|210:167|197:176,1,97.9999970092774,10|0,0:0|0:0,0:0:0:0:
19,366,34098,5,0,0:0:0:0:
160,332,34225,1,2,0:0:0:0:
70,305,34352,6,0,B|86:218|86:218|92:214|92:214|107:126|107:126|103:116|103:116|118:16,1,284.199989809113,2|0,1:2|0:0,0:0:0:0:
65,180,34733,37,2,0:0:0:0:
182,130,34860,2,0,L|177:168,1,26.599999675293,8|0,0:0|0:0,0:0:0:0:
19,366,35115,6,0,B|49:354|50:325|50:325|47:328|47:328|22:323|-15:249|72:149|176:190|212:241|212:241|230:266|296:279|326:124|235:174|251:217,1,526.399991967774,2|0,0:0|0:0,0:0:0:0:
213,380,35750,1,0,0:0:0:0:
122,330,35877,2,0,B|129:305|114:275|114:275|151:278|168:321,1,131.599997991943,10|0,0:0|0:0,0:0:0:0:
322,372,36132,5,8,0:0:0:0:
325,355,36259,1,8,0:0:0:0:
393,320,36386,2,0,B|378:279|378:279|286:258|286:258|245:301|245:301|268:307,1,218.400007331543,6|0,1:0|0:0,0:0:0:0:
266,231,36767,1,2,0:0:0:0:
332,196,36894,6,0,B|338:175|338:175|344:173|344:173|356:127,1,60.9000005110931,8|2,0:0|0:0,0:0:0:0:
452,19,37149,2,0,B|469:21|469:21|478:90|478:90|461:97,1,103.600002529297
276,110,37403,37,2,1:2:0:0:
382,69,37530,1,0,0:0:0:0:
458,279,37657,5,10,0:2:0:0:
387,250,37784,1,0,0:0:0:0:
447,203,37911,1,10,0:2:0:0:
334,356,38038,5,0,0:0:0:0:
230,235,38166,5,4,0:3:0:0:
218,232,38229,1,4,0:3:0:0:
209,240,38293,1,4,0:3:0:0:
206,251,38356,1,4,0:3:0:0:
212,260,38420,38,0,B|401:226|401:226|423:222|450:194|442:149|407:131|385:135|385:135|286:153,1,409.500001562119,6|2,1:0|0:0,0:0:0:0:
346,19,38928,2,0,B|352:-3|352:-3|384:64,1,86.1000013137818,10|0,0:0|0:0,0:0:0:0:
299,159,39182,2,0,L|214:173,1,86.1000013137818,2|0,0:0|0:0,0:0:0:0:
43,231,39437,5,0,1:0:0:0:
94,179,39564,2,0,B|112:152|100:124|100:124|49:109,1,93.7999955630495,2|0,0:2|0:0,0:0:0:0:
37,44,39818,5,0,0:0:0:0:
116,251,39945,2,0,B|218:265|203:173|303:189,1,203.000006195069,10|2,0:0|0:0,0:0:0:0:
360,364,40327,1,2,0:0:0:0:
401,277,40454,6,0,B|435:247|436:208|398:172|345:167|304:205|327:289|327:289|316:251|286:243|244:256|235:299|267:326,1,394.79999397583,6|0,1:0|0:0,0:0:0:0:
185,372,40962,37,8,3:3:0:0:
185,372,41089,1,0,0:0:0:0:
263,322,41216,1,0,0:0:0:0:
181,280,41344,1,4,3:0:0:0:
337,162,41598,5,0,3:0:0:0:
123,94,41725,1,8,3:0:0:0:
385,87,41979,5,0,1:0:0:0:
159,258,42106,1,8,0:0:0:0:
307,233,42233,5,8,0:0:0:0:
206,21,42360,1,8,0:0:0:0:
44,140,42488,38,0,L|35:231,1,56,6|2,1:0|0:0,0:0:0:0:
35,345,43505,2,0,P|71:337|99:241,1,138.599999577026,2|0,0:0|0:0,0:0:0:0:
264,341,44521,6,0,P|236:336|194:355,1,69.2999997885132,2|0,0:0|0:0,0:0:0:0:
446,252,45284,2,0,B|455:304|425:351|387:354|352:336|345:280|375:236,1,230.999999295044,0|2,0:0|0:0,0:0:0:0:
375,43,47064,5,0,0:0:0:0:
444,18,47318,1,0,0:0:0:0:
472,86,47572,2,0,B|468:125|468:125|460:137|460:137|456:175,1,92.3999997180176,2|0,0:0|0:0,0:0:0:0:
299,203,48335,1,0,0:0:0:0:
381,238,48589,6,0,L|372:161,1,69.2999997885132,2|0,0:0|0:0,0:0:0:0:
311,21,49352,2,0,P|261:15|211:64,1,115.499999647522,0|2,0:0|0:0,0:0:0:0:
218,60,50115,1,0,0:0:0:0:
222,65,50242,1,2,0:0:0:0:
226,70,50369,1,2,0:3:0:0:
167,152,50623,1,2,0:0:0:0:
85,92,50877,1,0,0:0:0:0:
167,152,51132,38,0,L|158:216,1,46.1999998590088
144,281,51640,2,0,B|75:265|81:321|8:302,1,138.599999577026,2|2,0:0|0:0,0:0:0:0:
153,287,52657,6,0,L|222:278,2,69.2999997885132,2|2|0,0:0|0:0|0:0,0:0:0:0:
279,355,53674,2,0,L|388:339,1,92.3999997180176,2|0,0:0|0:0,0:0:0:0:
365,233,54437,1,2,0:0:0:0:
455,172,54691,2,0,P|466:205|441:259,1,92.3999997180176,2|2,0:0|0:0,0:0:0:0:
446,176,55708,6,0,P|441:122|461:60,2,105,2|0|0,0:0|0:0|0:0,0:0:0:0:
348,40,56725,6,0,P|352:62|365:82,1,46.1999998590088,2|0,0:0|0:0,0:0:0:0:
342,157,56979,38,0,P|316:150|299:131,1,53.8999989308167
254,2,57233,6,0,P|269:42|184:15,1,184.800005639649,2|0,1:3|0:0,0:0:0:0:
181,21,57742,5,10,0:0:0:0:
120,279,58081,5,4,1:2:0:0:
181,21,58420,38,0,L|192:138,1,107.799999671021,4|0,1:2|3:0,0:0:0:0:
192,139,59098,6,0,L|143:132,1,30.7999999060059,0|0,3:0|3:0,0:0:0:0:
111,192,59267,5,6,3:1:0:0:
90,75,59521,1,0,0:0:0:0:
0,152,59776,1,2,3:2:0:0:
195,219,60030,5,2,0:0:0:0:
260,184,60157,1,0,0:0:0:0:
305,243,60284,1,2,3:2:0:0:
417,283,60538,37,2,0:0:0:0:
457,266,60666,1,0,0:0:0:0:
460,223,60793,1,2,3:2:0:0:
411,121,61047,5,2,0:0:0:0:
408,104,61174,1,0,0:0:0:0:
473,68,61301,6,0,B|468:37|468:37|453:27|453:27|302:43,1,172.200002627564,2|2,3:2|0:0,0:0:0:0:
220,63,61682,5,0,0:0:0:0:
220,63,61810,2,0,B|216:102,1,39.2000004785156,2|0,3:2|0:0,0:0:0:0:
319,211,62064,38,0,B|314:256|314:256|317:260|317:260|377:266|377:266|381:263|381:263|396:123|396:123|392:119|392:119|297:109|297:109|293:113|293:113|289:141,1,392.000004785156,2|0,0:0|0:0,0:0:0:0:
325,205,62827,6,0,B|411:218|396:137|488:154,1,174.300002526627,2|0,3:2|0:0,0:0:0:0:
491,163,63335,1,2,3:2:0:0:
512,280,63589,1,2,0:0:0:0:
401,240,63844,1,2,3:2:0:0:
261,358,64098,5,2,0:2:0:0:
277,285,64225,1,0,0:0:0:0:
329,336,64352,1,2,3:2:0:0:
183,176,64606,5,2,0:0:0:0:
149,202,64732,1,0,0:0:0:0:
189,219,64860,1,2,3:2:0:0:
55,363,65115,37,0,0:0:0:0:
58,346,65242,1,0,0:2:0:0:
57,273,65369,6,0,B|32:272|15:288|15:288|42:144,1,172.200002627564,2|2,3:2|0:0,0:0:0:0:
121,70,65750,5,0,0:0:0:0:
115,87,65877,2,0,L|58:101,1,39.2000004785156,2|0,3:2|0:0,0:0:0:0:
135,276,66132,6,0,L|129:303,4,19.6000002392578,2|0|0|0|2,0:0|0:0|0:0|0:0|3:2,0:0:0:0:
200,230,66513,2,0,P|241:242|263:283,1,78.4000009570313
384,354,66894,38,0,P|347:324|347:248,1,116.200001684418,2|0,3:2|0:0,0:0:0:0:
434,184,67276,2,0,P|414:210|435:263,1,58.1000008422089,0|2,0:0|3:2,0:0:0:0:
470,324,67657,5,2,0:0:0:0:
512,287,67784,1,0,0:0:0:0:
486,237,67911,1,2,3:2:0:0:
480,77,68166,6,0,B|469:42|469:42|462:85,1,81.2000024780274,2|0,0:0|3:0,0:0:0:0:
423,163,68547,6,0,L|283:192,1,121.800001022186,2|0,0:0|0:0,0:0:0:0:
256,260,68928,38,0,B|286:273|286:273|300:330|300:330|282:356,1,121.800001022186,2|0,3:2|0:0,0:0:0:0:
79,351,69310,5,0,0:0:0:0:
41,288,69437,2,0,L|55:183,1,60.9000005110931,2|0,3:2|0:0,0:0:0:0:
80,55,69691,6,0,B|61:62|61:62|57:90|57:90|79:82,1,72.0999993949127,0|2,0:0|0:0,0:0:0:0:
158,58,69945,1,2,3:2:0:0:
324,119,70199,6,0,L|297:113,3,19.6000002392578,2|0|0|0,0:0|0:0|0:0|0:0,0:0:0:0:
240,154,70454,38,0,B|301:167|301:167|310:162|310:162|379:45|379:45|387:41|387:41|448:53,1,279.299988493195,2|0,3:2|0:0,0:0:0:0:
512,119,70962,6,0,B|486:117|469:133|469:133|491:158|485:198,1,105.000004005432,2|0,3:2|0:0,0:0:0:0:
386,172,71344,2,0,B|388:186|398:193|398:193|415:183,1,45.4999979171754,2|2,0:0|3:2,0:0:0:0:
511,345,71725,1,2,0:0:0:0:
468,286,71852,1,0,0:0:0:0:
404,321,71979,6,0,L|397:375,1,54.6000018328858,2|0,3:2|0:0,0:0:0:0:
262,355,72233,6,0,L|323:342,1,62.3000000475311,2|0,0:0|0:0,0:0:0:0:
312,153,72488,38,0,P|283:171|277:204,1,70,2|0,3:2|0:0,0:0:0:0:
203,303,72742,6,0,B|162:296|167:324|124:315,1,77.7000018969727,2|0,0:0|0:0,0:0:0:0:
38,340,72996,6,0,B|28:303|28:303|118:278|118:278|128:315,1,170.799992963257,2|0,3:2|0:0,0:0:0:0:
199,339,73377,1,2,0:0:0:0:
192,246,73505,2,0,B|189:259|189:259|330:284|330:284|333:270,1,170.799992963257,2|0,3:2|0:0,0:0:0:0:
331,260,73822,5,0,0:0:0:0:
329,250,73886,37,0,0:0:0:0:
327,240,73949,5,0,0:0:0:0:
325,230,74013,6,0,B|311:214|327:205|347:212|349:239|349:239|344:238|344:238|325:297|375:293|355:361,1,186.199992328797,8|0,1:3|0:0,0:0:0:0:
353,367,74394,5,8,0:0:0:0:
209,348,74521,2,0,P|227:325|289:343,1,93.0999961643983,8|0,0:0|0:0,0:0:0:0:
482,217,74776,38,0,B|466:174|466:174|419:182,1,93.0999961643983,4|0,1:3|0:0,0:0:0:0:
274,44,75030,6,0,P|266:111|350:35,1,268.8000065625,6|2,3:1|0:0,0:0:0:0:
353,33,75666,2,0,L|361:-22,1,32.1999989190674,2|2,0:0|0:0,0:0:0:0:
227,131,76047,6,0,B|123:119|123:119|98:116|82:141|96:172|130:161,1,184.799999436035,8|0,0:0|0:0,0:0:0:0:
133,157,76428,2,0,P|156:111|124:28,1,121.800001022186,2|0,0:0|0:0,0:0:0:0:
83,3,76810,2,0,P|67:35|101:89,1,60.9000005110931,0|2,0:0|3:2,0:0:0:0:
199,211,77064,5,2,3:2:0:0:
100,264,77318,1,0,0:0:0:0:
106,247,77445,1,2,3:2:0:0:
7,300,77699,1,2,0:0:0:0:
13,283,77827,2,0,L|25:354,1,60.9000005110931,2|0,3:2|0:0,0:0:0:0:
174,364,78081,37,10,0:0:0:0:
312,278,78335,1,2,0:0:0:0:
391,343,78589,1,2,0:0:0:0:
490,317,78844,2,0,B|526:321|526:321|494:334,1,60.9000005110931,2|2,0:0|0:0,0:0:0:0:
391,343,79098,5,2,3:2:0:0:
440,218,79352,1,0,0:0:0:0:
434,200,79479,1,2,0:0:0:0:
483,75,79733,1,0,0:0:0:0:
477,57,79860,2,0,P|458:48|405:74,1,60.9000005110931,2|0,0:0|0:0,0:0:0:0:
340,139,80115,6,0,B|351:118|348:92|348:92|357:115|382:127,1,92.3999997180176,8|2,0:0|0:0,0:0:0:0:
290,203,80369,6,0,B|258:200|261:218|228:214,1,60.9000005110931,2|0,0:0|0:0,0:0:0:0:
217,57,80623,37,2,3:2:0:0:
232,47,80750,1,2,0:0:0:0:
249,50,80877,2,0,P|270:77|260:129,1,60.9000005110931,2|2,0:0|0:0,0:0:0:0:
179,277,81132,5,2,3:2:0:0:
58,111,81386,1,2,0:0:0:0:
76,117,81513,1,2,3:2:0:0:
43,313,81767,1,0,0:0:0:0:
25,319,81894,2,0,L|35:222,1,60.9000005110931,2|2,0:0|0:0,0:0:0:0:
98,202,82149,5,10,0:0:0:0:
249,215,82403,2,0,L|242:172,3,31.4999990386963
252,224,82657,1,10,0:0:0:0:
421,175,82911,5,4,3:0:0:0:
408,249,83038,37,4,3:0:0:0:
479,224,83166,6,0,P|502:304|355:289,1,268.8000065625,6|0,3:1|0:0,0:0:0:0:
351,296,83801,2,0,L|296:304,1,32.1999989190674,2|2,0:0|0:0,0:0:0:0:
59,379,84182,6,0,B|24:349|37:295|37:295|82:283,1,138.599999577026,8|0,0:0|0:0,0:0:0:0:
153,322,84437,2,0,L|164:225,1,60.9000005110931,2|0,0:0|0:0,0:0:0:0:
221,72,84691,2,0,L|149:88,1,60.9000005110931,0|2,0:0|0:0,0:0:0:0:
0,182,84945,5,2,0:0:0:0:
69,205,85072,1,0,0:0:0:0:
137,180,85199,2,0,B|155:165|155:165|288:184|288:184|303:203,1,182.700001533279,2|0,3:2|0:0,0:0:0:0:
473,151,85708,38,0,B|479:165|479:165|470:224,1,60.9000005110931,2|2,0:0|0:0,0:0:0:0:
398,240,85962,2,0,B|392:226|392:226|401:167,1,60.9000005110931,2|2,0:0|0:0,0:0:0:0:
512,25,86216,6,0,B|475:5|419:34|443:57|378:86|341:61,1,184.799999436035,12|0,0:0|3:0,0:0:0:0:
308,37,86555,1,4,3:0:0:0:
265,46,86640,1,4,3:0:0:0:
260,57,86725,5,8,3:0:0:0:
258,106,86810,1,4,3:0:0:0:
300,130,86894,1,4,3:0:0:0:
296,185,86979,5,8,3:0:0:0:
247,212,87064,1,4,3:0:0:0:
199,183,87149,1,4,3:0:0:0:
195,163,87233,38,0,L|54:151,1,103.600002529297,6|0,3:1|0:0,0:0:0:0:
18,162,87615,6,0,B|1:184|1:184|14:205|14:205|44:207,1,75.6000018457032,2|2,0:0|3:2,0:0:0:0:
261,228,87996,5,0,0:0:0:0:
276,158,88123,1,2,0:0:0:0:
341,131,88250,2,0,L|330:49,1,75.6000018457032,2|0,3:2|0:0,0:0:0:0:
259,26,88505,6,0,B|223:31|223:31|227:66,1,60.9000005110931,2|0,0:0|0:0,0:0:0:0:
410,177,88759,2,0,B|446:172|446:172|442:137,1,60.9000005110931,2|0,3:2|0:0,0:0:0:0:
428,2,89013,38,0,B|423:30|423:30|412:40|412:40|404:80,1,68.5999993719482,2|0,0:0|0:0,0:0:0:0:
363,243,89267,1,2,3:2:0:0:
143,377,89649,5,2,0:0:0:0:
206,346,89776,1,2,3:2:0:0:
238,223,90030,1,2,0:0:0:0:
87,177,90284,1,2,3:2:0:0:
58,29,90538,1,2,0:0:0:0:
211,117,90793,1,2,3:2:0:0:
387,29,91047,1,2,0:0:0:0:
431,85,91174,1,2,3:2:0:0:
361,96,91301,6,0,B|329:100|329:100|285:177|312:262|312:262|342:273,1,232.400003368835,12|0,0:0|0:0,0:0:0:0:
512,175,91682,2,0,B|521:204|506:231|506:231|450:209|393:219|393:219|383:190|399:163,1,232.400003368835,12|0,0:0|0:0,0:0:0:0:
441,303,92064,6,0,L|431:358,1,41.9999987182618,8|0,3:0|0:0,0:0:0:0:
427,332,92318,1,4,3:2:0:0:
256,192,92445,12,4,93335,0:0:0:0:
256,192,93399,12,14,94861,0:0:0:0:
256,192,95115,37,0,0:0:0:0:
121,363,95369,6,0,B|104:373|84:365|84:365|71:287|71:287|87:273|105:277,1,155.400003793945,6|0,1:0|0:0,0:0:0:0:
290,292,95623,2,0,B|233:274|245:321|180:304,1,109.200003665772,2|2,0:3|0:0,0:0:0:0:
366,326,95877,2,0,B|404:329|422:353|422:353|420:316|393:305,1,123.900004017449,10|0,0:0|0:0,0:0:0:0:
411,127,96132,5,2,0:3:0:0:
488,234,96259,2,0,B|457:235|439:211|434:181|434:181|414:69|414:69|409:39|391:15|360:16,1,280,2|0,0:0|0:0,0:0:0:0:
282,15,96640,2,0,P|286:49|311:73,1,70,2|0,0:3|0:0,0:0:0:0:
338,291,96894,6,0,B|343:261|343:261|348:254|348:254|354:216|354:216|352:208|352:208|357:178,1,116.200001684418,10|0,0:0|0:0,0:0:0:0:
234,211,97149,2,0,B|261:179|261:179|279:217|279:217|235:211,1,116.200001684418,2|0,0:3|0:0,0:0:0:0:
101,342,97403,38,0,B|70:348|70:348|59:350|41:342|29:287|42:272|50:270|50:270|152:249|152:249|159:247|178:256|189:276|158:308|144:277,1,310.800007587891,2|2,1:2|0:3,0:0:0:0:
208,345,97784,1,0,0:0:0:0:
379,270,97911,6,0,B|371:244|371:244|331:239|303:257|303:257|304:282,1,123.900004017449,10|0,0:0|0:0,0:0:0:0:
426,336,98166,1,2,0:3:0:0:
449,224,98293,1,2,0:0:0:0:
241,202,98420,5,2,1:2:0:0:
213,75,98547,2,0,B|204:33|204:33|274:42|274:42|260:125|260:125|207:103,1,247.800008034897,0|0,3:0|0:0,0:0:0:0:
146,336,98928,6,0,B|146:284|146:284|154:276|154:276|162:168|162:168|138:152|138:152|130:80,1,270.199993506394,10|2,0:0|0:3,0:0:0:0:
183,267,99310,1,2,0:0:0:0:
10,135,99437,37,0,1:2:0:0:
84,207,99564,1,2,0:0:0:0:
43,275,99691,1,2,0:0:0:0:
318,354,99945,6,0,P|278:348|273:283,1,95.9000027071381,10|0,0:0|0:0,0:0:0:0:
352,150,100199,5,2,0:3:0:0:
385,304,100327,1,0,0:0:0:0:
220,238,100454,2,0,B|248:222|248:222|373:246,1,114.099999912949,2|0,1:2|0:0,0:0:0:0:
491,345,100708,2,0,B|475:264,1,70,2|2,0:3|0:0,0:0:0:0:
512,116,100962,6,0,B|501:57|501:57|496:30|467:19|441:35,1,137.199998743896,10|0,0:0|0:0,0:0:0:0:
313,146,101216,37,2,0:3:0:0:
338,32,101344,1,2,0:0:0:0:
425,110,101471,1,2,1:2:0:0:
383,97,101598,5,2,0:0:0:0:
199,157,101725,1,12,0:0:0:0:
383,97,101979,5,2,1:2:0:0:
430,158,102106,1,2,0:0:0:0:
378,215,102233,5,2,0:3:0:0:
338,32,102361,1,2,0:0:0:0:
199,157,102488,1,2,1:2:0:0:
266,136,102615,37,2,0:0:0:0:
488,207,102742,1,12,0:0:0:0:
25,231,102996,6,0,L|20:189,1,25.9000006323242,10|0,0:0|0:0,0:0:0:0:
100,90,103250,5,8,0:0:0:0:
63,299,103377,1,8,0:0:0:0:
263,227,103505,6,0,P|241:191|119:191,1,155.400003793945,6|0,1:0|0:0,0:0:0:0:
142,336,103759,2,0,B|166:354|166:354|213:338|204:274,1,109.200003665772,2|2,0:3|0:0,0:0:0:0:
189,34,104013,2,0,B|176:57|179:86|179:86|209:73|250:85,1,123.900004017449,10|0,0:0|0:0,0:0:0:0:
426,124,104267,37,2,0:3:0:0:
408,215,104394,2,0,B|389:244|358:239|358:239|332:173|259:166|259:166|261:164|261:164|303:158|293:127|337:122,1,280,2|0,0:0|0:0,0:0:0:0:
379,52,104776,2,0,P|405:75|403:140,1,70,2|0,0:3|0:0,0:0:0:0:
457,311,105030,6,0,P|481:301|474:209,1,116.200001684418,10|0,0:0|0:0,0:0:0:0:
335,123,105284,2,0,P|309:167|340:261,1,116.200001684418,2|0,0:3|0:0,0:0:0:0:
191,373,105538,6,0,P|181:274|1:117,1,310.800007587891,2|2,1:2|0:3,0:0:0:0:
136,37,105920,1,2,0:3:0:0:
263,64,106047,6,0,P|253:96|146:85,1,123.900004017449,10|0,0:0|0:0,0:0:0:0:
82,210,106301,1,2,0:3:0:0:
250,150,106428,1,2,0:0:0:0:
275,357,106555,37,2,1:2:0:0:
198,276,106682,2,0,P|301:273|416:377,1,247.800008034897,0|0,3:0|0:0,0:0:0:0:
481,303,107064,2,0,P|453:243|446:157,1,135.099996753197,10|0,0:0|0:0,0:0:0:0:
484,50,107318,5,2,0:3:0:0:
357,192,107445,1,2,0:0:0:0:
240,191,107572,2,0,P|338:153|406:-7,1,270.199993506394,2|2,1:2|0:3,0:0:0:0:
444,175,107954,5,2,0:0:0:0:
263,26,108081,2,0,P|213:5|161:16,1,109.200003665772,12|0,0:0|0:0,0:0:0:0:
256,105,108335,2,0,P|203:115|153:94,1,109.200003665772,2|0,0:3|0:0,0:0:0:0:
26,25,108589,5,4,0:3:0:0:
36,67,108674,1,4,0:3:0:0:
78,100,108759,37,4,0:3:0:0:
70,135,108844,1,4,0:3:0:0:
43,170,108928,5,4,0:3:0:0:
49,201,109013,1,4,0:3:0:0:
70,228,109098,5,12,0:0:0:0:
66,249,109182,1,4,0:3:0:0:
53,264,109267,5,4,0:3:0:0:
56,277,109352,1,4,0:3:0:0:
61,285,109437,37,4,0:3:0:0:
59,291,109521,1,4,0:3:0:0:
58,294,109606,6,0,B|91:320|145:318|137:280|200:275|228:301|228:301|227:305|227:305|230:306|230:306|234:227|297:194|362:196|381:244|404:257|404:257|410:258|410:258|383:274|357:248,2,487.200014868164,4|4|4,1:2|1:2|1:2,0:0:0:0:
256,192,110496,12,0,111513,0:0:0:0:
142,247,111640,6,0,B|92:288|92:288|105:363|105:363|145:380|145:380|176:350|176:350|170:316,1,261.799994806824,6|0,1:0|0:0,0:0:0:0:
206,187,112021,1,2,0:0:0:0:
313,220,112149,6,0,L|261:210,1,30.1000004592896,8|0,0:0|0:0,0:0:0:0:
331,336,112403,38,0,B|343:265|343:265|348:257|348:257|359:194|359:194|357:186|357:186|381:52,1,261.799994806824,2|0,0:0|1:0,0:0:0:0:
483,37,112784,6,0,B|479:8|479:8|445:0|445:0|459:98,1,140,10|0,0:0|0:0,0:0:0:0:
464,148,113166,1,8,0:0:0:0:
464,148,113293,5,2,0:0:0:0:
393,190,113420,5,0,0:0:0:0:
409,281,113547,37,2,0:0:0:0:
326,358,113674,6,0,B|283:368|283:368|273:362|273:362|257:296|257:296|262:287|262:287|325:271|325:271|330:261|330:261|317:207,1,263.199995983887,2|0,1:2|0:0,0:0:0:0:
289,84,114055,1,2,0:0:0:0:
213,208,114182,6,0,B|242:215,1,30.8000009399414,8|0,0:0|0:0,0:0:0:0:
393,190,114437,6,0,P|336:105|442:122,1,263.199995983887,2|0,0:0|1:0,0:0:0:0:
501,194,114818,1,2,0:0:0:0:
482,265,114945,1,0,0:0:0:0:
381,315,115072,37,0,0:0:0:0:
482,265,115199,6,0,B|461:251|444:267|444:267|465:295|459:329,1,106.399998701172,8|0,0:0|0:0,0:0:0:0:
315,378,115454,6,0,L|308:358,1,19.6000002392578
288,277,115581,2,0,L|307:280,1,19.6000002392578,2|0,0:0|0:0,0:0:0:0:
381,315,115708,6,0,B|362:262|362:262|195:230|195:230|169:155|169:155|196:111|196:111|176:51,1,413.700000946884,2|2,1:0|0:0,0:0:0:0:
262,149,116216,38,0,B|257:168,1,19.6000002392578,8|0,0:0|0:0,0:0:0:0:
186,244,116471,6,0,P|151:262|139:344,1,118.300002211266,2|0,0:0|0:0,0:0:0:0:
371,381,116725,5,0,1:2:0:0:
420,319,116852,2,0,L|408:247,1,58.7999982055665,2|2,0:0|0:3,0:0:0:0:
467,83,117064,5,0,0:0:0:0:
467,83,117149,1,0,0:0:0:0:
467,83,117233,2,0,B|456:106|456:106|361:95|361:95|349:18|349:18|404:24,1,246.400007519531,10|0,0:0|0:0,0:0:0:0:
512,193,117615,37,2,0:0:0:0:
431,186,117742,2,0,B|327:181|327:181|323:184|323:184|321:176|321:176|122:161,1,275.800000631256,2|0,1:2|0:0,0:0:0:0:
48,240,118123,5,2,0:0:0:0:
21,174,118250,2,0,L|18:155,1,19.6000002392578,8|0,0:0|0:0,0:0:0:0:
109,55,118505,6,0,L|86:170,1,83.9999974365235,2|0,0:0|0:0,0:0:0:0:
195,319,118759,5,2,1:2:0:0:
227,191,118886,1,10,0:0:0:0:
357,320,119013,37,8,0:0:0:0:
278,304,119140,1,10,0:0:0:0:
331,243,119267,1,4,1:2:0:0:
259,63,119394,5,0,1:0:0:0:
278,304,119521,1,8,0:0:0:0:
477,167,119649,1,8,0:0:0:0:
282,135,119776,6,0,L|-2:162,1,284.199989809113,6|0,1:0|0:0,0:0:0:0:
115,71,120157,5,2,0:0:0:0:
152,171,120284,2,0,L|146:214,1,26.599999675293,8|0,0:0|0:0,0:0:0:0:
270,346,120538,38,0,B|194:357|194:357|143:317|185:267|185:267|249:259|249:259|288:278|351:251|359:156|269:105|192:167|212:228|231:243,1,526.399991967774,2|2,0:0|0:3,0:0:0:0:
303,277,121132,5,2,0:3:0:0:
322,280,121216,1,2,0:3:0:0:
341,283,121301,6,0,B|369:285|387:268|387:268|397:287|425:294,1,97.9999970092774,10|0,0:0|0:0,0:0:0:0:
507,137,121555,5,0,0:0:0:0:
399,76,121682,1,2,0:0:0:0:
494,15,121810,38,0,B|447:27|447:27|434:72|434:72|479:130|479:130|466:175|466:175|397:194,1,284.199989809113,2|0,1:2|0:0,0:0:0:0:
236,191,122191,5,2,0:0:0:0:
285,137,122318,2,0,L|292:97,1,26.599999675293,8|0,0:0|0:0,0:0:0:0:
95,30,122572,6,0,B|44:40|44:40|28:111|28:111|39:121|39:121|215:76|215:76|217:67|217:67|175:32|175:32|166:39|166:39|137:168,1,526.399991967774,2|0,0:0|0:0,0:0:0:0:
107,358,123208,5,0,0:0:0:0:
185,370,123335,2,0,B|203:351|203:351|191:310|191:310|163:303,1,97.9999970092774,10|0,0:0|0:0,0:0:0:0:
68,262,123589,37,8,0:0:0:0:
251,257,123716,1,8,0:0:0:0:
107,358,123844,6,0,P|88:259|197:238,1,218.400007331543,6|0,1:0|0:0,0:0:0:0:
313,371,124225,1,2,0:0:0:0:
382,256,124352,6,0,L|376:317,1,60.9000005110931,8|2,0:0|0:0,0:0:0:0:
458,220,124606,2,0,L|366:145,1,103.600002529297
271,32,124860,5,2,1:2:0:0:
110,144,124987,37,0,0:0:0:0:
191,164,125115,1,10,0:2:0:0:
168,86,125242,5,0,0:0:0:0:
117,255,125368,1,10,0:2:0:0:
288,214,125495,1,0,0:0:0:0:
195,325,125623,5,4,0:3:0:0:
195,311,125687,1,4,0:3:0:0:
197,299,125750,1,4,0:3:0:0:
199,287,125813,1,4,0:3:0:0:
194,261,125877,22,0,B|199:213|199:213|286:222|286:222|281:270|281:270|197:261,1,262.5,6|0,1:0|0:0,0:0:0:0:
252,40,128588,6,0,B|144:106|117:237|117:237|236:278|359:262|359:262|360:129|266:41,1,739.199997744141,4|0,1:2|0:0,0:0:0:0:
