osu file format v14

[General]
AudioFilename: audio.mp3
AudioLeadIn: 0
PreviewTime: 94733
Countdown: 0
SampleSet: Soft
StackLeniency: 0.7
Mode: 0
LetterboxInBreaks: 0
WidescreenStoryboard: 1

[Editor]
DistanceSpacing: 1.4
BeatDivisor: 4
GridSize: 8
TimelineZoom: 1

[Metadata]
Title:Asterlore (Game Ver.)
TitleUnicode:アスタロア (Game Ver.)
Artist:Suzuki Konomi
ArtistUnicode:鈴木このみ
Creator:Lize
Version:Normal
Source:Summer Pockets REFLECTION BLUE
Tags:Opening Key Visual Novel VN Japanese Pop J-Pop Jpop Video Game Garden Necho Skystar 魁 Kai 折戸伸治 Orito Shinji 塚越雄一朗 Tsukagoshi Yuichiro NanosizeMir visualarts arts galgame version サマーポケッツ Amamiya Yuko
BeatmapID:2922336
BeatmapSetID:1418402

[Difficulty]
HPDrainRate:4
CircleSize:3
OverallDifficulty:4
ApproachRate:6
SliderMultiplier:1.5
SliderTickRate:1

[Events]
//Background and Video events
0,0,"main (2).jpg",0,0
//Break Periods
//Storyboard Layer 0 (Background)
//Storyboard Layer 1 (Fail)
//Storyboard Layer 2 (Pass)
//Storyboard Layer 3 (Foreground)
//Storyboard Layer 4 (Overlay)
//Storyboard Sound Samples

[TimingPoints]
1200,677.966101694915,4,2,1,30,1,0
1888,641.711229946524,4,2,1,30,1,0
12155,655.737704918033,4,2,1,30,1,0
17400,666.666666666667,4,2,1,30,1,0
18733,731.707317073171,4,2,1,30,1,0
20196,759.493670886076,4,2,1,30,1,0
21714,617.283950617284,4,2,1,30,1,0
24183,508.474576271186,4,2,1,70,1,0
42488,-125,4,2,1,40,0,0
57742,-125,4,2,1,50,0,0
59267,-111.111111111111,4,2,1,55,0,0
74013,-111.111111111111,4,2,1,60,0,0
75030,-111.111111111111,4,2,1,65,0,0
91301,-111.111111111111,4,2,1,75,0,0
92064,-111.111111111111,4,2,1,65,0,0
93335,-166.666666666667,4,2,1,65,0,0
95369,-100,4,2,1,80,0,1
111640,-100,4,2,1,70,0,0
125877,677.966101694915,4,2,1,70,1,0
126554,-100,4,2,1,60,0,0
127232,-100,4,2,1,50,0,0
127910,-100,4,2,1,40,0,0
128588,869.565217391304,4,2,1,60,1,0
128805,-100,4,2,1,30,0,0

[Colours]
Combo1 : 128,255,128
Combo2 : 255,128,128
Combo3 : 128,128,255
Combo4 : 255,255,128

[HitObjects]
345,339,24183,6,0,L|361:262,1,75,6|0,1:0|0:0,0:0:0:0:
445,204,24691,1,8,0:0:0:0:
390,114,24945,2,0,P|328:72|255:80,1,150,2|0,0:0|0:0,0:0:0:0:
177,151,25708,2,0,L|102:139,1,75,8|0,0:0|0:0,0:0:0:0:
10,87,26216,6,0,L|28:235,1,150,2|8,1:2|0:0,0:0:0:0:
129,265,26979,2,0,L|143:376,2,112.5,2|10|8,0:0|0:0|0:0,0:0:0:0:
204,191,27996,1,0,0:0:0:0:
117,131,28250,6,0,P|107:58|154:3,1,150,2|8,1:0|0:0,0:0:0:0:
260,21,29013,2,0,L|408:44,1,150,2|2,0:0|0:3,0:0:0:0:
511,70,29776,2,0,L|499:144,1,75,10|0,0:0|0:0,0:0:0:0:
478,246,30284,6,0,P|404:251|354:304,1,150,2|8,1:2|0:0,0:0:0:0:
272,371,31047,2,0,P|198:365|148:312,1,150,2|8,0:0|0:0,0:0:0:0:
171,209,31810,2,0,L|243:189,1,75,4|8,1:2|0:0,0:0:0:0:
296,175,32191,1,8,0:0:0:0:
296,175,32318,6,0,P|339:116|319:46,1,150,6|8,1:0|0:0,0:0:0:0:
226,0,33081,2,0,L|153:19,1,75,2|2,0:0|1:2,0:0:0:0:
52,48,33589,1,2,0:3:0:0:
116,132,33844,2,0,L|93:209,1,75,10|0,0:0|0:0,0:0:0:0:
8,263,34352,6,0,P|80:251|139:294,1,150,2|8,1:2|0:0,0:0:0:0:
213,368,35115,2,0,P|285:373|341:326,1,150,2|0,0:0|0:0,0:0:0:0:
347,222,35877,2,0,L|420:207,1,75,10|8,0:0|0:0,0:0:0:0:
476,202,36259,1,8,0:0:0:0:
476,202,36386,6,0,P|489:149|454:107,1,112.5,6|2,1:0|0:0,0:0:0:0:
366,51,37021,2,0,L|255:73,1,112.5,2|2,0:0|1:2,0:0:0:0:
195,160,37657,1,10,0:2:0:0:
195,160,37784,2,0,P|182:213|217:255,1,112.5,10|4,0:2|0:3,0:0:0:0:
320,279,38420,1,6,1:0:0:0:
256,192,38674,12,6,40454,1:0:0:0:
157,312,41471,6,0,L|137:163,1,150,8|0,3:0|1:0,0:0:0:0:
123,60,42233,1,10,0:0:0:0:
123,60,42488,1,6,1:0:0:0:
256,192,42996,5,2,0:0:0:0:
256,192,43505,2,0,P|342:199|397:132,1,180,2|0,0:0|0:0,0:0:0:0:
377,44,44521,2,0,P|421:41|459:63,2,90,2|2|0,0:0|0:0|0:0,0:0:0:0:
305,99,45538,2,0,L|186:77,1,120,2|0,0:0|0:0,0:0:0:0:
85,261,46555,5,2,0:0:0:0:
85,261,47064,2,0,L|73:319,1,60
161,341,47572,2,0,P|206:267|163:191,1,180,2|0,0:0|0:0,0:0:0:0:
99,129,48589,2,0,L|9:136,2,90,2|2|0,0:0|0:0|0:0,0:0:0:0:
159,62,49606,2,0,L|278:51,1,120,2|0,0:0|0:0,0:0:0:0:
372,44,50369,1,2,0:3:0:0:
372,44,50623,5,0,0:0:0:0:
500,152,51132,1,2,0:0:0:0:
406,289,51640,2,0,P|349:304|298:275,1,120,2|0,0:0|0:0,0:0:0:0:
321,190,52403,1,2,0:0:0:0:
321,190,52657,2,0,P|365:184|407:200,2,90,2|2|0,0:0|0:0|0:0,0:0:0:0:
234,217,53674,1,2,0:0:0:0:
145,74,54182,6,0,L|154:14,2,60,2|0|2,0:0|0:0|0:0,0:0:0:0:
300,139,55199,1,0,0:0:0:0:
456,199,55708,2,0,L|470:110,2,90,2|2|0,0:0|0:0|0:0,0:0:0:0:
483,285,56725,2,0,L|364:302,1,120,2|2,0:0|1:3,0:0:0:0:
186,313,57742,2,0,L|198:229,2,80,10|4|4,0:0|1:2|1:2,0:0:0:0:
364,301,59267,6,0,L|373:234,1,67.4999979400635,6|0,3:1|0:0,0:0:0:0:
461,184,59776,2,0,P|488:124|463:64,1,134.999995880127,2|2,3:2|3:2,0:0:0:0:
379,16,60538,1,2,0:0:0:0:
379,16,60793,2,0,L|245:34,1,134.999995880127,2|2,3:2|3:2,0:0:0:0:
144,47,61555,2,0,L|131:113,1,67.4999979400635,2|2,0:0|3:2,0:0:0:0:
212,175,62064,2,0,P|234:236|202:293,1,134.999995880127,2|0,0:0|0:0,0:0:0:0:
103,316,62827,5,2,3:2:0:0:
23,129,63335,2,0,L|35:62,2,67.4999979400635,2|2|2,3:2|0:0|3:2,0:0:0:0:
103,316,64352,1,2,3:2:0:0:
287,232,64860,2,0,L|312:99,1,134.999995880127,2|2,3:2|3:2,0:0:0:0:
379,33,65623,1,2,0:0:0:0:
507,171,66132,6,0,P|525:233|492:290,1,134.999995880127,2|2,0:0|0:0,0:0:0:0:
500,384,66894,2,0,P|462:329|398:316,1,134.999995880127,2|2,3:2|3:2,0:0:0:0:
308,348,67657,1,2,0:0:0:0:
154,237,68166,2,0,L|54:222,2,101.249996910095,2|2|2,0:0|0:0|3:2,0:0:0:0:
120,0,69691,5,2,0:0:0:0:
120,0,69945,2,0,L|253:21,1,134.999995880127,2|2,3:2|3:2,0:0:0:0:
352,32,70708,1,2,0:0:0:0:
352,32,70962,2,0,P|383:80|366:156,1,134.999995880127,2|2,3:2|3:2,0:0:0:0:
286,211,71725,1,2,0:0:0:0:
286,211,71979,1,2,3:2:0:0:
376,255,72233,6,0,L|442:242,2,67.4999979400635,2|2|2,0:0|3:2|0:0,0:0:0:0:
290,310,72996,2,0,L|190:328,2,101.249996910095,2|2|0,3:2|0:0|0:0,0:0:0:0:
379,357,74013,1,8,1:3:0:0:
275,196,74521,5,8,0:0:0:0:
275,196,74776,1,4,1:3:0:0:
275,196,75030,2,0,L|142:220,1,134.999995880127,6|2,3:1|0:0,0:0:0:0:
0,77,76047,2,0,L|132:52,1,134.999995880127,8|2,0:0|0:0,0:0:0:0:
222,96,76810,1,0,0:0:0:0:
222,96,77064,2,0,L|354:70,1,134.999995880127,2|2,3:2|0:0,0:0:0:0:
493,198,78081,6,0,L|505:131,2,67.4999979400635,10|2|2,0:0|0:0|0:0,0:0:0:0:
413,250,78844,1,2,0:0:0:0:
354,70,79352,1,2,0:0:0:0:
208,190,79860,2,0,L|195:256,1,67.4999979400635,2|8,0:0|0:0,0:0:0:0:
145,336,80369,2,0,P|80:349|25:314,1,134.999995880127,2|2,0:0|0:0,0:0:0:0:
21,219,81132,2,0,L|41:119,2,101.249996910095,2|2|2,3:2|0:0|0:0,0:0:0:0:
108,268,82149,5,10,0:0:0:0:
108,268,82403,2,0,L|94:334,2,67.4999979400635,2|10|4,0:0|0:0|3:0,0:0:0:0:
179,205,83166,2,0,L|313:191,1,134.999995880127,6|2,3:1|0:0,0:0:0:0:
334,6,84182,5,8,0:0:0:0:
334,6,84437,2,0,L|322:72,1,67.4999979400635,2|0,0:0|0:0,0:0:0:0:
305,175,84945,1,2,0:0:0:0:
305,175,85199,2,0,L|170:187,1,134.999995880127,2|2,3:2|0:0,0:0:0:0:
76,195,85962,1,2,0:0:0:0:
0,364,86471,2,0,L|134:351,1,134.999995880127,2|8,3:2|3:0,0:0:0:0:
229,384,87233,6,0,P|238:318|197:267,1,134.999995880127,6|2,3:1|3:2,0:0:0:0:
130,188,87996,2,0,L|141:121,1,67.4999979400635,2|2,0:0|3:2,0:0:0:0:
160,25,88505,1,2,0:0:0:0:
160,25,88759,2,0,L|227:17,1,67.4999979400635,2|2,3:2|0:0,0:0:0:0:
327,9,89267,1,2,3:2:0:0:
489,105,89776,6,0,L|500:38,2,67.4999979400635,2|2|2,3:2|0:0|3:2,0:0:0:0:
405,144,90538,1,2,0:0:0:0:
405,144,90793,2,0,L|393:210,1,67.4999979400635,2|2,3:2|0:0,0:0:0:0:
329,280,91301,2,0,P|371:305|420:299,2,101.249996910095,12|12|8,0:0|0:0|3:0,0:0:0:0:
250,227,92318,2,0,L|225:359,1,134.999995880127,4|0,3:2|0:0,0:0:0:0:
79,207,93335,6,0,P|24:104|138:86,1,269.999991760254,4|14,3:2|0:0,0:0:0:0:
138,85,95369,6,0,L|213:68,1,75,6|2,1:0|0:3,0:0:0:0:
312,98,95877,2,0,L|387:81,1,75,10|2,0:0|0:3,0:0:0:0:
441,77,96259,1,2,0:0:0:0:
441,77,96386,2,0,P|454:147|400:195,1,150,2|10,1:2|0:0,0:0:0:0:
295,209,97149,1,2,0:3:0:0:
357,293,97403,6,0,L|343:366,1,75,2|2,1:2|0:3,0:0:0:0:
239,382,97911,2,0,L|252:308,1,75,10|2,0:0|0:3,0:0:0:0:
226,269,98293,1,2,0:0:0:0:
226,269,98420,2,0,L|256:120,1,150,2|10,1:2|0:0,0:0:0:0:
161,74,99182,2,0,L|168:37,2,37.5,2|2|2,0:3|0:0|1:2,0:0:0:0:
42,214,99945,6,0,L|28:287,1,75,10|2,0:0|0:3,0:0:0:0:
63,334,100327,1,0,0:0:0:0:
63,334,100454,2,0,L|136:320,1,75,2|2,1:2|0:3,0:0:0:0:
240,343,100962,2,0,L|313:329,1,75,10|2,0:0|0:3,0:0:0:0:
417,309,101471,6,0,P|459:250|435:183,1,150,2|2,1:2|1:2,0:0:0:0:
359,129,102233,1,2,0:3:0:0:
359,129,102360,1,2,0:0:0:0:
359,129,102488,2,0,L|372:55,1,75,2|12,1:2|0:0,0:0:0:0:
271,25,102996,1,10,0:0:0:0:
250,127,103250,1,8,0:0:0:0:
231,230,103505,6,0,L|305:218,1,75,6|2,1:0|0:3,0:0:0:0:
291,322,104013,2,0,L|216:333,1,75,10|2,0:2|0:3,0:0:0:0:
165,343,104394,1,2,0:0:0:0:
165,343,104521,2,0,P|157:270|102:221,1,150,2|10,1:2|0:0,0:0:0:0:
2,189,105284,1,2,0:3:0:0:
79,118,105538,6,0,L|90:43,1,75,2|2,1:2|0:3,0:0:0:0:
194,28,106047,2,0,L|182:102,1,75,10|2,0:0|0:3,0:0:0:0:
179,158,106428,1,2,0:0:0:0:
179,158,106555,2,0,P|251:157|298:101,1,150,2|10,1:2|0:0,0:0:0:0:
300,0,107318,1,2,0:3:0:0:
300,0,107445,1,2,0:0:0:0:
300,0,107572,6,0,L|448:20,1,150,2|12,1:2|0:0,0:0:0:0:
446,122,108335,2,0,L|297:101,1,150,2|4,0:0|0:3,0:0:0:0:
205,64,109098,1,12,0:0:0:0:
205,64,109225,2,0,L|130:53,1,75,2|0,0:0|0:0,0:0:0:0:
78,47,109606,5,4,1:2:0:0:
154,184,109988,1,4,1:2:0:0:
46,298,110369,2,0,P|-2:243|6:170,1,150,4|0,1:2|3:0,0:0:0:0:
54,77,111132,2,0,L|128:86,1,75,10|0,0:0|0:0,0:0:0:0:
196,5,111640,5,6,1:0:0:0:
408,40,112149,1,8,0:0:0:0:
408,40,112403,2,0,P|451:98|435:169,1,150,2|0,0:0|0:0,0:0:0:0:
416,274,113166,2,0,L|341:265,1,75,8|0,0:0|0:0,0:0:0:0:
247,313,113674,6,0,L|234:163,1,150,2|8,1:2|0:0,0:0:0:0:
137,121,114437,2,0,L|127:8,2,112.5,2|10|8,0:0|0:0|0:0,0:0:0:0:
39,159,115454,1,0,0:0:0:0:
3,257,115708,6,0,L|151:275,1,150,2|8,1:0|0:0,0:0:0:0:
222,352,116471,2,0,P|201:282|240:220,1,150,2|2,0:0|0:3,0:0:0:0:
339,188,117233,2,0,L|327:113,1,75,10|0,0:0|0:0,0:0:0:0:
419,61,117742,6,0,L|444:218,1,150,2|8,1:2|0:0,0:0:0:0:
453,313,118505,2,0,L|304:290,1,150,2|8,0:0|0:0,0:0:0:0:
200,281,119267,2,0,L|216:380,1,75,4|8,1:2|0:0,0:0:0:0:
169,384,119649,1,8,0:0:0:0:
169,384,119776,6,0,P|123:328|150:262,1,150,6|8,1:0|0:0,0:0:0:0:
230,194,120538,2,0,P|257:127|211:72,1,150,2|2,0:0|0:3,0:0:0:0:
114,32,121301,2,0,L|101:105,1,75,10|0,0:0|0:0,0:0:0:0:
80,210,121810,6,0,L|229:194,1,150,2|8,1:2|0:0,0:0:0:0:
279,102,122572,2,0,L|428:86,1,150,2|0,0:0|0:0,0:0:0:0:
512,149,123335,1,10,0:0:0:0:
418,197,123589,2,0,L|380:201,1,37.5,8|8,0:0|0:0,0:0:0:0:
328,208,123844,6,0,L|315:281,1,75,6|0,1:0|0:0,0:0:0:0:
343,326,124225,2,0,P|305:366|250:368,1,112.5,2|0,0:0|0:0,0:0:0:0:
156,322,124860,2,0,L|168:248,1,75,2|2,1:2|0:2,0:0:0:0:
141,204,125242,2,0,P|178:163|233:161,1,112.5,10|4,0:0|0:3,0:0:0:0:
328,208,125877,5,6,1:0:0:0:
256,192,126215,12,4,128588,1:2:0:0:
256,192,128805,12,0,132066,0:0:0:0:
