osu file format v14

[General]
AudioFilename: audio.mp3
AudioLeadIn: 0
PreviewTime: 94733
Countdown: 0
SampleSet: Soft
StackLeniency: 0.7
Mode: 0
LetterboxInBreaks: 0
WidescreenStoryboard: 1

[Editor]
DistanceSpacing: 1.2
BeatDivisor: 4
GridSize: 8
TimelineZoom: 1

[Metadata]
Title:Asterlore (Game Ver.)
TitleUnicode:アスタロア (Game Ver.)
Artist:Suzuki Konomi
ArtistUnicode:鈴木このみ
Creator:Lize
Version:Garden's Hard
Source:Summer Pockets REFLECTION BLUE
Tags:Opening Key Visual Novel VN Japanese Pop J-Pop Jpop Video Game Garden Necho Skystar 魁 Kai 折戸伸治 Orito Shinji 塚越雄一朗 Tsukagoshi Yuichiro NanosizeMir visualarts arts galgame version サマーポケッツ Amamiya Yuko
BeatmapID:2922335
BeatmapSetID:1418402

[Difficulty]
HPDrainRate:5
CircleSize:4
OverallDifficulty:6
ApproachRate:7
SliderMultiplier:1.8
SliderTickRate:1

[Events]
//Background and Video events
0,0,"main (2).jpg",0,0
//Break Periods
//Storyboard Layer 0 (Background)
//Storyboard Layer 1 (Fail)
//Storyboard Layer 2 (Pass)
//Storyboard Layer 3 (Foreground)
//Storyboard Layer 4 (Overlay)
//Storyboard Sound Samples

[TimingPoints]
1200,677.966101694915,4,2,1,30,1,0
1888,641.711229946524,4,2,1,30,1,0
12155,655.737704918033,4,2,1,30,1,0
17400,666.666666666667,4,2,1,30,1,0
18733,731.707317073171,4,2,1,30,1,0
20196,759.493670886076,4,2,1,30,1,0
21714,617.283950617284,4,2,1,30,1,0
24183,508.474576271186,4,2,1,70,1,0
36386,-83.3333333333333,4,2,1,70,0,0
42488,-125,4,2,1,40,0,0
57742,-83.3333333333333,4,2,1,50,0,0
59267,-111.111111111111,4,2,1,55,0,0
73759,-111.111111111111,4,3,0,55,0,0
74013,-111.111111111111,4,2,1,60,0,0
75030,-111.111111111111,4,2,1,65,0,0
82403,-111.111111111111,4,3,0,65,0,0
82657,-111.111111111111,4,2,1,65,0,0
91301,-83.3333333333333,4,2,1,75,0,0
92318,-166.666666666667,4,2,1,65,0,0
93335,-166.666666666667,4,2,1,65,0,0
95369,-100,4,2,1,80,0,1
107064,-76.9230769230769,4,2,1,80,0,1
107572,-100,4,2,1,80,0,1
109606,-76.9230769230769,4,2,1,80,0,1
110369,-100,4,2,1,80,0,1
111132,-76.9230769230769,4,2,1,80,0,1
111640,-100,4,2,1,70,0,0
123844,-83.3333333333333,4,2,1,70,0,0
125877,677.966101694915,4,2,1,70,1,0
126554,-100,4,2,1,60,0,0
127232,-100,4,2,1,50,0,0
127910,-100,4,2,1,40,0,0
128588,869.565217391304,4,2,1,60,1,0
128805,-100,4,2,1,30,0,0

[Colours]
Combo1 : 128,255,128
Combo2 : 255,128,128
Combo3 : 128,128,255
Combo4 : 255,255,128

[HitObjects]
443,289,24183,6,0,P|391:235|334:243,1,135,6|2,1:0|0:0,0:0:0:0:
317,252,24691,1,8,0:0:0:0:
253,333,24945,2,0,L|287:156,1,180,2|0,0:0|0:0,0:0:0:0:
374,91,25708,1,8,0:0:0:0:
384,83,25835,1,2,0:0:0:0:
387,70,25962,1,0,0:0:0:0:
386,56,26089,1,2,0:0:0:0:
376,46,26216,6,0,L|286:57,1,90,2|0,1:2|0:0,0:0:0:0:
265,44,26598,2,0,L|309:38,1,45,2|8,0:0|0:0,0:0:0:0:
165,1,26979,2,0,P|103:61|123:144,1,180,2|0,0:0|0:0,0:0:0:0:
219,195,27742,1,8,0:0:0:0:
168,293,27996,1,0,0:0:0:0:
168,293,28123,1,2,0:0:0:0:
168,293,28250,6,0,L|32:282,1,135,2|2,1:0|0:0,0:0:0:0:
7,282,28759,1,8,0:0:0:0:
84,367,29013,2,0,L|102:203,1,135,2|0,0:0|0:3,0:0:0:0:
102,198,29521,2,0,L|62:193,3,30,2|2|2|10,0:3|0:3|0:3|0:0,0:0:0:0:
205,159,30030,1,0,0:0:0:0:
205,159,30157,1,2,0:0:0:0:
205,159,30284,6,0,P|243:87|218:45,1,135,2|2,1:2|0:0,0:0:0:0:
200,34,30793,1,8,0:0:0:0:
282,103,31047,2,0,B|387:106|348:39|469:43,1,180,2|8,0:0|0:0,0:0:0:0:
479,60,31682,1,2,0:0:0:0:
479,60,31810,2,0,L|469:114,1,45,4|0,1:2|1:0,0:0:0:0:
400,157,32064,2,0,L|390:211,1,45,8|8,0:0|0:0,0:0:0:0:
469,239,32318,6,0,P|382:250|343:309,1,135,6|2,1:0|0:0,0:0:0:0:
343,304,32827,1,8,0:0:0:0:
258,381,33081,2,0,B|250:291|213:341|203:240,1,135,2|0,0:0|0:3,0:0:0:0:
214,230,33589,2,0,L|252:220,3,30,2|2|2|10,0:3|0:3|0:3|0:0,0:0:0:0:
133,167,34098,1,0,0:0:0:0:
133,167,34225,1,2,0:0:0:0:
133,167,34352,6,0,L|148:48,1,90,2|0,1:2|0:0,0:0:0:0:
127,60,34733,2,0,L|120:116,1,45,2|8,0:0|0:0,0:0:0:0:
235,116,35115,2,0,P|333:106|367:32,1,180,2|0,0:0|0:0,0:0:0:0:
262,11,35877,1,10,0:0:0:0:
341,151,36132,1,8,0:0:0:0:
341,151,36259,1,8,0:0:0:0:
341,151,36386,6,0,B|363:186|363:186|348:214|296:284,1,107.999996704102,6|0,1:0|0:0,0:0:0:0:
309,269,36767,2,0,L|379:283,1,53.9999983520508,2|8,0:0|0:0,0:0:0:0:
251,349,37149,2,0,L|141:327,1,107.999996704102,2|2,0:0|1:2,0:0:0:0:
50,238,37657,1,10,0:2:0:0:
169,188,37911,1,10,0:2:0:0:
278,275,38166,1,4,0:3:0:0:
278,275,38293,1,4,0:3:0:0:
278,275,38420,6,0,B|255:154|185:218|178:82,1,215.999993408203,6|10,1:0|0:0,0:0:0:0:
270,0,39182,1,2,0:0:0:0:
304,131,39437,1,0,1:0:0:0:
304,131,39564,1,2,0:2:0:0:
178,91,39818,1,0,0:0:0:0:
178,91,39945,1,10,0:0:0:0:
61,64,40199,1,2,0:0:0:0:
61,64,40327,1,2,0:0:0:0:
61,64,40454,1,6,1:0:0:0:
256,192,40581,12,6,42488,1:0:0:0:
53,341,42996,6,0,P|84:325|119:315,1,72,2|0,0:0|0:0,0:0:0:0:
196,355,43505,2,0,P|206:297|229:208,1,144,2|0,0:0|0:0,0:0:0:0:
296,162,44267,1,0,0:0:0:0:
296,162,44521,6,0,P|337:201|404:186,2,108,2|0|0,0:0|0:0|0:0,0:0:0:0:
287,75,45538,2,0,P|355:56|444:40,1,144,2|0,0:0|0:0,0:0:0:0:
503,203,46555,5,2,0:0:0:0:
503,203,47064,2,0,P|488:241|483:294,1,72,0|0,0:0|0:0,0:0:0:0:
471,357,47572,2,0,P|445:281|375:248,1,144,2|0,0:0|0:0,0:0:0:0:
320,298,48335,1,0,0:0:0:0:
320,298,48589,6,0,B|256:299|276:324|190:323,1,108,2|0,0:0|0:0,0:0:0:0:
61,384,49352,2,0,P|119:320|84:255,1,144,2|0,0:0|0:0,0:0:0:0:
29,228,50115,2,0,P|36:186|47:154,2,72,0|2|2,0:0|0:3|0:0,0:0:0:0:
201,236,51132,6,0,P|244:223|271:199,1,72,0|0,0:0|0:0,0:0:0:0:
347,181,51640,2,0,P|270:174|225:116,1,144,2|0,0:0|0:0,0:0:0:0:
218,44,52403,1,2,0:0:0:0:
218,44,52657,6,0,P|166:56|106:74,2,108,2|2|0,0:0|0:0|0:0,0:0:0:0:
303,32,53674,1,2,0:0:0:0:
303,32,54182,2,0,P|314:69|320:115,1,72,0|2,0:0|0:0,0:0:0:0:
330,187,54691,6,0,P|356:114|430:88,1,144,2|2,0:0|0:0,0:0:0:0:
506,233,55708,2,0,P|454:248|404:270,2,108,2|2|0,0:0|0:0|0:0,0:0:0:0:
436,359,56725,6,0,P|401:311|312:306,1,144,2|2,0:0|1:3,0:0:0:0:
172,342,57742,1,10,0:0:0:0:
172,342,58081,6,0,P|134:343|90:358,1,71.9999978027344,4|0,1:2|0:0,0:0:0:0:
2,384,58420,2,0,P|104:303|90:179,1,251.999992309571,4|0,1:2|3:0,0:0:0:0:
83,175,59098,2,0,L|40:170,2,35.9999989013672,0|0|6,3:1|3:1|3:1,0:1:0:0:
249,44,59776,6,0,P|186:92|189:184,1,161.999995056153,2|2,3:2|3:2,0:0:0:0:
248,254,60538,1,2,0:0:0:0:
248,254,60666,1,0,0:0:0:0:
248,254,60793,2,0,P|318:240|377:234,1,121.499996292114,2|0,3:2|0:0,0:0:0:0:
391,231,61301,1,2,3:2:0:0:
487,224,61555,2,0,B|488:172|453:143|455:163|409:141|423:72,1,161.999995056153,2|2,0:0|0:0,0:0:0:0:
347,20,62318,2,0,P|309:66|238:65,1,121.499996292114,0|0,3:0|0:0,0:0:0:0:
244,112,62827,6,0,P|177:52|80:61,1,161.999995056153,2|2,3:2|3:2,0:0:0:0:
39,117,63589,1,2,0:0:0:0:
129,153,63844,2,0,P|148:188|155:254,1,80.9999975280763,2|2,3:2|0:2,0:0:0:0:
12,345,64352,2,0,P|19:305|39:270,1,80.9999975280763,2|2,3:2|0:0,0:0:0:0:
72,261,64733,1,0,0:0:0:0:
72,261,64860,6,0,B|176:259|117:307|252:296,1,161.999995056153,2|2,3:2|3:2,0:0:0:0:
315,258,65623,2,0,P|321:303|332:353,1,80.9999975280763,2|2,0:0|3:2,0:0:0:0:
432,361,66132,1,2,0:0:0:0:
432,361,66259,1,0,0:0:0:0:
432,361,66386,2,0,P|421:321|409:260,1,80.9999975280763,2|2,3:2|0:0,0:0:0:0:
412,185,66894,6,0,P|483:155|496:78,1,161.999995056153,2|2,3:2|3:2,0:0:0:0:
422,15,67657,2,0,P|383:23|327:47,1,80.9999975280763,2|2,0:0|3:2,0:0:0:0:
288,119,68166,2,0,P|250:102|190:85,1,80.9999975280763,2|0,0:0|3:0,0:0:0:0:
177,111,68547,2,0,P|167:63|152:29,1,80.9999975280763,2|0,0:0|0:0,0:0:0:0:
119,27,68928,6,0,P|56:84|82:171,1,161.999995056153,2|2,3:2|3:2,0:0:0:0:
144,229,69691,1,2,0:0:0:0:
144,229,69818,1,0,0:0:0:0:
144,229,69945,2,0,P|99:241|45:266,1,80.9999975280763,2|2,3:2|0:0,0:0:0:0:
222,316,70454,2,0,P|233:256|248:197,1,121.499996292114,2|0,3:2|0:0,0:0:0:0:
265,165,70962,6,0,P|342:172|399:108,1,161.999995056153,2|2,3:2|3:2,0:0:0:0:
415,25,71725,1,2,0:0:0:0:
415,25,71852,1,0,0:0:0:0:
415,25,71979,1,2,3:2:0:0:
494,94,72233,1,2,0:0:0:0:
494,94,72488,2,0,P|480:137|472:188,1,80.9999975280763,2|2,3:2|0:0,0:0:0:0:
484,268,72996,6,0,P|441:279|394:304,1,80.9999975280763,2|0,3:2|0:0,0:0:0:0:
376,314,73377,2,0,P|359:308|335:303,1,40.4999987640381,2|2,0:0|3:2,0:0:0:0:
273,229,73759,2,0,L|267:209,4,20.2499993820191,0|0|0|0|8,0:0|0:0|0:0|0:0|1:3,0:0:0:0:
372,204,74267,1,8,0:0:0:0:
372,204,74394,1,8,0:0:0:0:
372,204,74521,1,8,0:0:0:0:
398,110,74776,1,4,1:3:0:0:
325,45,75030,6,0,B|238:38|266:104|159:90,1,161.999995056153,6|2,3:1|0:0,0:0:0:0:
144,72,75666,1,2,0:0:0:0:
144,72,75793,1,2,0:0:0:0:
28,0,76047,2,0,P|47:68|64:171,1,161.999995056153,8|2,0:0|0:0,0:0:0:0:
10,240,76810,1,0,0:0:0:0:
100,276,77064,6,0,P|147:267|194:244,1,80.9999975280763,2|0,3:2|0:0,0:0:0:0:
201,231,77445,1,2,0:0:0:0:
201,231,77572,1,0,0:0:0:0:
278,289,77827,1,2,3:2:0:0:
336,211,78081,2,0,P|327:162|298:113,1,80.9999975280763,10|2,0:0|0:0,0:0:0:0:
193,55,78589,2,0,P|199:95|216:132,1,80.9999975280763,2|2,0:0|0:0,0:0:0:0:
299,43,79098,6,0,P|376:52|411:128,1,161.999995056153,2|0,3:2|0:0,0:0:0:0:
492,188,79860,2,0,P|453:202|401:233,1,80.9999975280763,2|8,0:0|0:0,0:0:0:0:
340,292,80369,2,0,P|389:308|434:333,1,80.9999975280763,2|2,0:0|3:2,0:0:0:0:
264,363,80877,1,2,0:0:0:0:
264,363,81005,1,2,0:0:0:0:
264,363,81132,6,0,P|234:337|255:246,1,121.499996292114,2|2,3:2|0:0,0:0:0:0:
256,243,81640,1,0,0:0:0:0:
341,197,81894,2,0,P|333:161|324:103,1,80.9999975280763,2|10,0:0|0:0,0:0:0:0:
396,50,82403,2,0,L|428:58,4,20.2499993820191,0|0|0|0|10,0:0|0:0|0:0|0:0|0:0,0:0:0:0:
303,21,82911,1,4,3:0:0:0:
235,91,83166,6,0,P|168:74|62:60,1,161.999995056153,6|0,3:1|0:0,0:0:0:0:
41,63,83801,1,2,0:0:0:0:
41,63,83928,1,2,0:0:0:0:
5,153,84182,1,8,0:0:0:0:
100,173,84437,2,0,P|125:196|133:256,1,80.9999975280763,2|0,0:0|0:0,0:0:0:0:
76,317,84945,1,2,0:0:0:0:
163,359,85199,6,0,P|241:362|292:302,1,161.999995056153,2|2,3:2|0:0,0:0:0:0:
315,213,85962,1,2,0:0:0:0:
315,213,86089,1,2,0:0:0:0:
315,213,86216,1,12,0:0:0:0:
226,172,86471,2,0,L|232:141,3,26.9999991760254,0|4|4|8,3:0|3:0|3:0|3:0,0:0:0:0:
145,99,86979,1,8,3:0:0:0:
192,14,87233,6,0,P|279:32|356:62,1,161.999995056153,6|2,3:1|3:2,0:0:0:0:
452,71,87996,1,0,0:0:0:0:
452,71,88123,1,2,0:0:0:0:
452,71,88250,2,0,P|434:107|423:158,1,80.9999975280763,2|2,3:2|0:0,0:0:0:0:
500,207,88759,1,2,3:2:0:0:
425,269,89013,2,0,P|367:280|239:327,1,161.999995056153,2|0,0:0|0:0,0:0:0:0:
190,369,89776,6,0,P|150:348|102:327,1,80.9999975280763,2|2,3:2|0:0,0:0:0:0:
194,262,90284,2,0,P|210:217|239:171,1,80.9999975280763,2|2,3:2|0:0,0:0:0:0:
295,119,90793,1,2,3:2:0:0:
235,42,91047,1,2,0:0:0:0:
142,133,91301,6,0,P|103:162|30:151,1,107.999996704102,6|0,0:0|0:0,0:0:0:0:
17,141,91682,2,0,B|48:28|48:28|76:72,1,161.999995056153,12|8,0:0|3:0,0:0:0:0:
142,133,92318,6,0,B|242:131|192:75|307:79,1,161.999995056153,4|0,3:2|0:0,0:0:0:0:
370,128,93335,1,4,3:2:0:0:
256,192,93462,12,14,94860,0:0:0:0:
485,119,95369,6,0,P|441:128|397:140,1,90,6|2,1:0|0:3,0:0:0:0:
300,89,95877,1,10,0:0:0:0:
308,195,96132,1,2,0:3:0:0:
308,195,96259,1,2,0:0:0:0:
308,195,96386,2,0,B|209:196|258:131|139:133,1,180,2|10,1:2|0:0,0:0:0:0:
57,194,97149,1,2,0:3:0:0:
2,100,97403,6,0,P|12:56|32:14,1,90,2|2,1:2|0:3,0:0:0:0:
57,194,97911,2,0,P|59:241|84:294,1,90,10|2,0:0|0:3,0:0:0:0:
107,309,98293,1,2,0:0:0:0:
107,309,98420,2,0,L|182:286,1,45,2|0,1:2|3:0,0:0:0:0:
298,364,98928,2,0,P|356:360|385:321,1,90,10|2,0:0|0:3,0:0:0:0:
420,333,99310,1,2,0:0:0:0:
420,333,99437,6,0,P|359:264|370:183,1,180,2|10,1:2|0:0,0:0:0:0:
458,117,100199,1,2,0:3:0:0:
458,117,100327,1,0,0:0:0:0:
458,117,100454,1,2,1:2:0:0:
474,223,100708,1,2,0:3:0:0:
370,182,100962,1,10,0:0:0:0:
458,117,101216,1,2,0:3:0:0:
474,223,101471,5,2,1:2:0:0:
474,223,101725,2,0,P|461:269|456:321,1,90,12|2,0:0|1:2,0:0:0:0:
367,365,102233,1,2,0:3:0:0:
367,365,102360,1,2,0:0:0:0:
367,365,102488,1,2,1:2:0:0:
354,258,102742,1,12,0:0:0:0:
252,224,102996,1,10,0:0:0:0:
273,328,103250,1,8,0:0:0:0:
273,328,103377,1,8,0:0:0:0:
273,328,103505,6,0,P|232:340|178:346,1,90,6|2,1:0|0:3,0:0:0:0:
81,315,104013,1,10,0:2:0:0:
161,243,104267,1,2,0:3:0:0:
161,243,104394,1,2,0:0:0:0:
161,243,104521,2,0,P|169:141|92:100,1,180,2|10,1:2|0:0,0:0:0:0:
13,89,105284,1,2,0:3:0:0:
13,89,105411,1,0,0:0:0:0:
13,89,105538,5,2,1:2:0:0:
47,191,105793,1,2,0:3:0:0:
112,101,106047,1,10,0:0:0:0:
184,19,106301,1,2,0:3:0:0:
184,19,106428,1,2,0:0:0:0:
184,19,106555,1,2,1:2:0:0:
184,19,106682,2,0,P|235:30|284:38,1,90,0|0,3:0|0:0,0:0:0:0:
293,69,107064,2,0,P|330:26|387:23,1,116.999994644165,10|2,0:0|0:3,0:0:0:0:
429,22,107445,1,2,0:0:0:0:
429,22,107572,6,0,P|396:80|382:146,1,135,2|2,1:2|0:0,0:0:0:0:
388,185,108081,1,12,0:0:0:0:
512,317,108335,2,0,P|502:273|470:242,1,90,2|4,0:3|0:3,0:0:0:0:
369,282,108844,2,0,P|343:290|303:313,1,45,4|0,0:3|0:0,0:0:0:0:
307,337,109098,1,12,0:0:0:0:
307,337,109225,2,0,P|265:319|203:307,1,90,2|0,0:0|0:0,0:0:0:0:
134,300,109606,6,0,P|97:343|40:348,1,116.999994644165,4|0,1:2|0:0,0:0:0:0:
4,331,109988,2,0,P|13:278|32:211,1,116.999994644165,4|0,1:2|0:0,0:0:0:0:
6,190,110369,2,0,B|109:194|66:128|179:129,1,180,4|0,1:2|3:0,0:0:0:0:
305,32,111132,5,8,0:0:0:0:
305,32,111259,2,0,P|264:67|273:139,1,116.999994644165,0|0,1:0|0:0,0:0:0:0:
261,165,111640,6,0,P|328:131|403:118,1,135,6|2,1:0|0:0,0:0:0:0:
415,124,112149,1,8,0:0:0:0:
486,48,112403,2,0,P|457:121|430:227,1,180,2|0,0:0|0:0,0:0:0:0:
480,361,113166,1,8,0:0:0:0:
494,349,113293,1,2,0:0:0:0:
499,331,113420,1,0,0:0:0:0:
498,313,113547,1,2,0:0:0:0:
486,299,113674,6,0,P|439:305|379:315,1,90,2|0,1:2|0:0,0:0:0:0:
375,301,114055,2,0,L|434:291,1,45,2|8,0:0|0:0,0:0:0:0:
294,384,114437,2,0,B|290:274|235:328|237:205,1,180,2|0,0:0|0:0,0:0:0:0:
279,119,115199,1,8,0:0:0:0:
385,170,115454,1,0,0:0:0:0:
385,170,115581,1,2,0:0:0:0:
385,170,115708,6,0,P|467:133|472:84,1,135,2|2,1:0|0:0,0:0:0:0:
466,74,116216,1,8,0:0:0:0:
358,62,116471,2,0,P|276:74|186:86,1,135,2|0,0:0|0:3,0:0:0:0:
192,82,116979,2,0,L|200:45,3,30,2|2|2|10,0:3|0:3|0:3|0:0,0:0:0:0:
145,166,117488,1,0,0:0:0:0:
145,166,117615,1,2,0:0:0:0:
145,166,117742,6,0,P|86:110|101:48,1,135,2|2,1:2|0:0,0:0:0:0:
104,44,118250,1,8,0:0:0:0:
244,157,118505,2,0,B|253:251|171:231|197:322,1,180,2|8,0:0|0:0,0:0:0:0:
227,347,119140,1,2,0:0:0:0:
227,347,119267,2,0,L|295:332,1,45,4|0,1:2|1:0,0:0:0:0:
310,265,119521,2,0,L|378:250,1,45,8|8,0:0|0:0,0:0:0:0:
430,302,119776,6,0,P|393:247|416:183,1,135,6|2,1:0|0:0,0:0:0:0:
436,161,120284,1,8,0:0:0:0:
397,64,120538,2,0,P|308:39|235:28,1,135,2|0,0:0|0:3,0:0:0:0:
232,29,121047,2,0,L|226:-15,3,30,2|2|2|10,0:3|0:3|0:3|0:0,0:0:0:0:
185,111,121555,1,0,0:0:0:0:
185,111,121682,1,2,0:0:0:0:
185,111,121810,6,0,P|193:152|204:212,1,90,2|0,1:2|0:0,0:0:0:0:
222,208,122191,2,0,L|212:158,1,45,2|8,0:0|0:0,0:0:0:0:
122,248,122572,2,0,P|206:241|263:310,1,180,2|0,0:0|0:0,0:0:0:0:
162,346,123335,1,10,0:0:0:0:
55,320,123589,1,8,0:0:0:0:
55,320,123716,1,8,0:0:0:0:
55,320,123844,6,0,B|87:263|87:263|64:232|30:165,1,161.999995056153,6|2,1:0|0:0,0:0:0:0:
14,154,124352,2,0,P|26:104|48:46,1,107.999996704102,8|0,0:0|0:0,0:0:0:0:
166,4,124860,1,2,1:2:0:0:
278,69,125115,1,10,0:2:0:0:
165,124,125369,1,10,0:2:0:0:
165,124,125496,1,8,0:0:0:0:
165,124,125623,2,0,P|152:157|148:189,1,53.9999983520508,4|4,0:3|0:3,0:0:0:0:
256,192,125877,5,6,1:0:0:0:
256,192,126046,12,4,128588,1:2:0:0:
256,192,128805,12,0,132066,0:0:0:0:
