osu file format v14

[General]
AudioFilename: audio.mp3
AudioLeadIn: 0
PreviewTime: 94733
Countdown: 0
SampleSet: Soft
StackLeniency: 0.7
Mode: 0
LetterboxInBreaks: 0
WidescreenStoryboard: 1

[Editor]
Bookmarks: 42488,50623,75030
DistanceSpacing: 0.3
BeatDivisor: 8
GridSize: 8
TimelineZoom: 1.9

[Metadata]
Title:Asterlore (Game Ver.)
TitleUnicode:アスタロア (Game Ver.)
Artist:Suzuki Konomi
ArtistUnicode:鈴木このみ
Creator:Lize
Version:GardeNecho's Insane
Source:Summer Pockets REFLECTION BLUE
Tags:Opening Key Visual Novel VN Japanese Pop J-Pop Jpop Video Game Garden Necho Skystar 魁 Kai 折戸伸治 Orito Shinji 塚越雄一朗 Tsukagoshi Yuichiro NanosizeMir visualarts arts galgame version サマーポケッツ Amamiya Yuko
BeatmapID:2922334
BeatmapSetID:1418402

[Difficulty]
HPDrainRate:5.5
CircleSize:4.5
OverallDifficulty:7.5
ApproachRate:8.5
SliderMultiplier:2.6
SliderTickRate:1

[Events]
//Background and Video events
0,0,"main (2).jpg",0,0
//Break Periods
//Storyboard Layer 0 (Background)
//Storyboard Layer 1 (Fail)
//Storyboard Layer 2 (Pass)
//Storyboard Layer 3 (Foreground)
//Storyboard Layer 4 (Overlay)
//Storyboard Sound Samples

[TimingPoints]
1200,677.966101694915,4,2,1,30,1,0
1888,641.711229946524,4,2,1,30,1,0
12155,655.737704918033,4,2,1,30,1,0
17400,666.666666666667,4,2,1,30,1,0
18733,731.707317073171,4,2,1,30,1,0
20196,759.493670886076,4,2,1,30,1,0
21714,617.283950617284,4,2,1,30,1,0
24183,508.474576271186,4,2,1,70,1,0
42488,-125,4,2,1,40,0,0
57742,-83.3333333333333,4,2,1,50,0,0
58420,-166.666666666667,4,2,1,50,0,0
59267,-111.111111111111,4,2,1,55,0,0
62827,-166.666666666666,4,2,1,55,0,0
63844,-111.111111111111,4,2,1,55,0,0
73759,-111.111111111111,4,3,0,55,0,0
74013,-111.111111111111,4,2,1,60,0,0
75030,-111.111111111111,4,2,1,65,0,0
82403,-111.111111111111,4,3,0,65,0,0
82657,-111.111111111111,4,2,1,65,0,0
91301,-83.3333333333333,4,2,1,75,0,0
92064,-83.3333333333333,4,2,1,65,0,0
92318,-166.666666666667,4,2,1,65,0,0
93208,-166.666666666667,4,2,1,5,0,0
93335,-100,4,2,1,65,0,0
94606,-100,4,2,1,35,0,0
94860,-100,4,2,1,65,0,0
95369,-100,4,2,1,80,0,1
107064,-76.9230769230769,4,2,1,80,0,1
107572,-100,4,2,1,80,0,1
109606,-76.9230769230769,4,2,1,80,0,1
110369,-100,4,2,1,80,0,1
111132,-76.9230769230769,4,2,1,80,0,1
111640,-100,4,2,1,70,0,0
123844,-83.3333333333333,4,2,1,70,0,0
125877,677.966101694915,4,2,1,70,1,0
126554,-100,4,2,1,60,0,0
127232,-100,4,2,1,50,0,0
127910,-100,4,2,1,40,0,0
128588,869.565217391304,4,2,1,60,1,0
128805,-100,4,2,1,30,0,0

[Colours]
Combo1 : 128,255,128
Combo2 : 255,128,128
Combo3 : 128,128,255
Combo4 : 255,255,128

[HitObjects]
1,214,24183,6,0,P|95:207|149:283,1,195,6|2,1:0|0:0,0:0:0:0:
221,312,24691,2,0,P|156:321|91:336,1,130,8|2,0:0|0:0,0:0:0:0:
324,370,25199,1,0,1:0:0:0:
304,380,25327,2,0,P|314:311|328:239,1,130,2|0,0:0|0:0,0:0:0:0:
429,208,25708,5,8,0:0:0:0:
409,218,25835,2,0,P|413:176|421:145,1,65,2|0,0:0|0:0,0:0:0:0:
439,39,26089,1,2,0:0:0:0:
512,87,26216,6,0,B|457:105|414:61|430:62|404:10|300:41,1,195,2|2,1:2|0:0,0:0:0:0:
253,60,26725,1,8,0:0:0:0:
253,60,26979,2,0,P|245:90|240:124,1,65,2|0,0:0|0:0,0:0:0:0:
74,77,27233,5,0,1:0:0:0:
70,61,27360,2,0,P|99:7|160:15,1,130,10|0,0:0|0:0,0:0:0:0:
241,49,27742,2,0,P|229:102|214:191,1,130,8|0,0:0|0:0,0:0:0:0:
142,247,28123,1,2,0:0:0:0:
62,208,28250,6,0,B|136:195|157:236|141:235|184:279|239:261,1,195,2|2,1:0|0:0,0:0:0:0:
310,206,28759,1,8,0:0:0:0:
310,206,29013,2,0,P|317:163|326:126,1,65,2|0,0:0|0:0,0:0:0:0:
443,0,29267,6,0,P|497:29|495:91,1,130,2|2,1:2|0:3,0:0:0:0:
488,100,29606,1,2,0:3:0:0:
478,108,29691,1,2,0:3:0:0:
467,114,29776,2,0,P|436:107|397:103,1,65,10|0,0:0|0:0,0:0:0:0:
495,224,30030,1,0,0:0:0:0:
499,205,30157,1,2,0:0:0:0:
421,190,30284,6,0,P|401:296|399:350,1,130,2|0,1:2|0:0,0:0:0:0:
421,345,30666,2,0,P|427:312|429:271,1,65,2|8,0:0|0:0,0:0:0:0:
184,244,31047,6,0,P|178:277|176:318,1,65,2|0,0:0|0:0,0:0:0:0:
333,297,31301,1,2,1:2:0:0:
333,297,31428,1,0,1:0:0:0:
333,297,31555,2,0,P|301:294|255:294,1,65,8|2,0:0|0:0,0:0:0:0:
91,257,31810,5,4,1:2:0:0:
117,179,31937,1,0,1:0:0:0:
196,158,32064,1,8,0:0:0:0:
264,198,32191,1,8,0:0:0:0:
136,97,32318,6,0,P|63:88|-22:72,1,130,6|0,1:0|0:0,0:0:0:0:
0,52,32699,2,0,P|39:57|78:63,1,65,2|8,0:0|0:0,0:0:0:0:
238,0,33081,1,2,0:0:0:0:
238,0,33335,2,0,P|229:29|224:73,1,65,2|0,1:2|0:0,0:0:0:0:
306,196,33589,1,2,0:3:0:0:
303,207,33674,1,2,0:3:0:0:
301,219,33759,1,2,0:3:0:0:
283,232,33844,6,0,P|292:175|309:100,1,130,10|0,0:0|0:0,0:0:0:0:
312,85,34225,1,2,0:0:0:0:
199,148,34352,2,0,P|272:156|398:185,1,195,2|2,1:2|0:0,0:0:0:0:
477,212,34860,1,8,0:0:0:0:
477,212,35115,2,0,P|466:244|459:281,1,65,2|0,0:0|0:0,0:0:0:0:
339,372,35369,5,0,1:0:0:0:
334,384,35496,2,0,P|386:353|375:293,1,130,2|0,3:2|0:0,0:0:0:0:
294,275,35877,2,0,P|262:268|216:265,1,65,10|0,0:0|0:0,0:0:0:0:
69,254,36132,5,8,0:0:0:0:
73,232,36259,1,8,0:0:0:0:
164,191,36386,6,0,P|143:290|125:406,1,195,6|2,1:0|0:0,0:0:0:0:
214,352,36894,2,0,P|246:354|278:361,1,65,8|0,0:0|0:0,0:0:0:0:
73,232,37149,2,0,P|40:229|8:222,1,65,2|0,0:0|0:0,0:0:0:0:
254,168,37403,6,0,P|278:71|289:8,1,130,2|10,1:2|0:2,0:0:0:0:
283,20,37784,1,10,0:0:0:0:
192,42,37911,2,0,P|159:39|127:32,1,65,10|0,0:2|0:0,0:0:0:0:
346,152,38166,2,0,P|378:154|410:161,1,65,4|4,0:3|0:3,0:0:0:0:
229,265,38420,5,6,1:0:0:0:
340,279,38674,5,0,0:0:0:0:
340,260,38801,1,2,0:0:0:0:
325,247,38928,1,10,0:0:0:0:
408,130,39182,5,2,0:0:0:0:
372,126,39310,1,2,0:0:0:0:
346,152,39437,1,0,1:0:0:0:
353,159,39564,1,2,3:2:0:0:
266,39,39818,5,0,0:0:0:0:
253,72,39945,1,10,0:0:0:0:
45,14,40199,5,2,0:0:0:0:
60,96,40327,1,2,0:0:0:0:
136,128,40454,1,6,1:0:0:0:
256,192,40581,12,6,42488,1:0:0:0:
319,178,42996,6,0,B|393:214|434:115|320:37,1,208,2|2,0:0|0:0,0:0:0:0:
183,20,44267,1,0,0:0:0:0:
136,77,44521,2,0,B|114:104|114:104|104:185|194:212,1,156,2|0,0:0|0:0,0:0:0:0:
141,334,45284,2,0,P|209:269|517:270,1,416,2|0,0:0|0:0,0:0:0:0:
451,357,46555,5,2,0:0:0:0:
451,357,47064,2,0,L|459:235,1,104,0|0,0:0|0:0,0:0:0:0:
361,256,47572,2,0,P|262:175|299:-3,1,312,2|0,0:0|0:0,0:0:0:0:
368,32,48589,2,0,B|355:127|399:82|386:187,1,156,2|0,0:0|0:0,0:0:0:0:
464,271,49352,2,0,P|387:300|213:145,1,312,2|0,0:0|0:0,0:0:0:0:
205,170,50242,2,0,L|214:236,1,52,2|2,0:0|0:3,0:0:0:0:
24,108,50623,5,2,0:0:0:0:
24,108,51132,2,0,P|75:83|100:32,1,104,0|0,0:0|0:0,0:0:0:0:
104,185,51640,2,0,B|75:55|38:115|9:2,1,208,2|0,0:0|0:0,0:0:0:0:
172,96,52403,1,2,0:0:0:0:
17,207,52657,6,0,P|110:221|147:268,1,156,2|0,0:0|0:0,0:0:0:0:
341,284,53420,2,0,P|241:303|179:384,1,208,2|0,0:0|0:0,0:0:0:0:
242,287,54182,2,0,P|267:208|259:155,1,104,2|0,0:0|0:0,0:0:0:0:
337,4,54691,6,0,B|302:28|302:28|311:147|399:174,1,208,2|2,0:0|0:0,0:0:0:0:
475,335,55708,2,0,P|410:272|337:262,2,156,2|2|0,0:0|0:0|0:0,0:0:0:0:
482,165,56725,2,0,P|455:210|432:278,1,104,2|0,0:0|0:0,0:0:0:0:
343,370,57233,2,0,B|250:362|301:317|153:323,1,156,2|0,1:3|0:0,0:0:0:0:
114,349,57742,1,10,0:0:0:0:
114,349,58081,6,0,P|103:291|66:241,1,103.999996826172,4|0,1:2|0:0,0:0:0:0:
203,221,58420,6,0,P|221:143|278:48,1,181.999994445801,4|0,1:2|3:0,0:0:0:0:
279,56,59098,1,0,3:0:0:0:
286,55,59182,1,0,3:0:0:0:
294,55,59267,1,6,3:1:0:0:
65,12,59776,6,0,P|119:20|177:64,1,116.999996429443,2|2,3:2|0:0,0:0:0:0:
227,131,60157,1,0,0:0:0:0:
215,125,60284,2,0,P|203:187|266:201,1,116.999996429443,2|2,3:2|0:0,0:0:0:0:
323,252,60666,1,0,0:0:0:0:
310,265,60793,6,0,P|329:179|361:97,1,175.499994644165,2|0,3:2|0:0,0:0:0:0:
387,84,61301,2,0,P|378:113|360:155,1,58.4999982147217,2|0,3:2|0:0,0:0:0:0:
443,169,61555,5,2,0:0:0:0:
448,157,61682,1,0,0:0:0:0:
455,146,61810,2,0,P|489:138|527:133,1,58.4999982147217,2|0,3:2|0:0,0:0:0:0:
452,22,62064,2,0,B|324:59|405:100|251:154,1,233.999992858887,2|0,0:0|0:0,0:0:0:0:
114,12,62827,6,0,P|182:24|272:56,1,155.999995239258,2|2,3:2|3:2,0:0:0:0:
180,163,63589,1,2,0:0:0:0:
175,173,63716,1,0,0:0:0:0:
169,184,63844,2,0,P|122:155|135:92,1,116.999996429443,2|2,3:2|0:2,0:0:0:0:
266,152,64352,2,0,P|241:223|218:333,1,175.499994644165,2|0,3:2|0:0,0:0:0:0:
291,370,64860,6,0,P|373:359|397:280,1,175.499994644165,2|0,3:2|0:2,0:0:0:0:
345,220,65369,1,2,3:2:0:0:
512,158,65623,2,0,P|457:137|385:100,1,116.999996429443,2|2,0:0|3:2,0:0:0:0:
225,50,66132,5,2,0:0:0:0:
243,43,66259,1,0,0:0:0:0:
255,29,66386,1,2,3:2:0:0:
258,12,66513,2,0,P|311:42|303:118,1,116.999996429443,2|0,0:0|0:0,0:0:0:0:
404,111,66894,6,0,P|308:137|208:190,1,175.499994644165,2|0,3:2|0:0,0:0:0:0:
186,228,67403,2,0,P|136:196|82:176,1,116.999996429443,2|2,3:2|0:0,0:0:0:0:
27,75,67911,1,2,3:2:0:0:
131,13,68166,5,2,0:0:0:0:
82,176,68547,5,2,0:0:0:0:
36,339,68928,6,0,P|157:298|272:288,1,233.999992858887,2|2,3:2|3:2,0:0:0:0:
323,353,69691,1,2,0:0:0:0:
319,364,69818,1,0,0:0:0:0:
315,375,69945,1,2,3:2:0:0:
210,207,70199,1,2,0:0:0:0:
216,359,70454,2,0,B|227:266|297:312|303:196,1,175.499994644165,2|0,3:2|0:0,0:0:0:0:
275,117,70962,6,0,P|288:195|210:207,1,175.499994644165,2|0,3:2|0:0,0:0:0:0:
158,275,71471,2,0,P|100:244|27:230,1,116.999996429443,2|2,3:2|0:0,0:0:0:0:
68,148,71852,1,0,0:0:0:0:
56,156,71979,2,0,P|27:149|0:141,1,58.4999982147217,2|0,3:2|0:0,0:0:0:0:
0,66,72233,5,2,0:0:0:0:
80,22,72488,1,2,3:2:0:0:
206,43,72742,1,2,0:0:0:0:
313,165,72996,6,0,P|227:184|143:221,1,175.499994644165,2|2,3:2|0:0,0:0:0:0:
76,268,73505,1,2,3:2:0:0:
76,268,73759,2,0,L|62:231,4,29.2499991073609,0|0|0|0|8,0:0|0:0|0:0|0:0|1:3,0:0:0:0:
262,359,74394,5,8,0:0:0:0:
235,374,74521,2,0,P|244:334|257:299,1,58.4999982147217,8|0,0:0|0:0,0:0:0:0:
166,273,74776,2,0,P|157:243|141:209,1,58.4999982147217,4|0,1:3|0:0,0:0:0:0:
198,109,75030,6,0,P|273:54|405:77,1,233.999992858887,6|2,3:1|0:0,0:0:0:0:
417,70,75666,2,0,P|414:106|391:141,1,58.4999982147217,2|2,0:0|0:0,0:0:0:0:
314,218,76047,1,8,0:0:0:0:
332,203,76174,2,0,P|436:209|520:252,1,175.499994644165,2|0,0:0|0:0,0:0:0:0:
467,336,76810,1,0,0:0:0:0:
467,336,76937,1,2,0:0:0:0:
467,336,77064,2,0,P|408:342|319:360,1,116.999996429443,2|0,3:2|0:0,0:0:0:0:
333,344,77445,2,0,P|274:350|185:368,1,116.999996429443,2|2,3:2|0:0,0:0:0:0:
145,340,77827,1,2,3:2:0:0:
145,340,78081,6,0,P|178:294|171:238,1,116.999996429443,10|2,0:0|0:0,0:0:0:0:
102,273,78462,1,0,0:0:0:0:
86,253,78589,2,0,P|78:212|81:173,1,58.4999982147217,2|2,0:0|0:0,0:0:0:0:
0,74,78844,2,0,P|48:78|90:98,1,58.4999982147217,2|2,0:0|0:0,0:0:0:0:
123,121,79098,1,2,3:2:0:0:
267,218,79352,5,0,0:0:0:0:
301,222,79479,1,2,0:0:0:0:
321,194,79606,1,0,0:0:0:0:
484,171,79860,2,0,P|479:133|460:85,1,58.4999982147217,2|0,0:0|0:0,0:0:0:0:
465,97,80115,2,0,P|452:187|426:275,1,175.499994644165,8|0,0:0|0:0,0:0:0:0:
361,354,80623,1,2,3:2:0:0:
361,354,80750,2,0,P|345:310|344:275,2,58.4999982147217,2|2|2,0:0|0:0|0:0,0:0:0:0:
380,344,81132,6,0,P|325:326|267:326,1,116.999996429443,2|2,3:2|0:0,0:0:0:0:
248,319,81513,2,0,P|189:315|133:330,1,116.999996429443,2|0,3:2|0:0,0:0:0:0:
65,370,81894,1,2,0:0:0:0:
65,370,82149,6,0,P|96:280|92:238,1,116.999996429443,10|0,0:0|0:0,0:0:0:0:
83,252,82488,2,0,L|69:195,1,38.9999988098145,0|0,0:0|0:0,0:0:0:0:
59,204,82657,6,0,P|44:251|40:298,1,58.4999982147217,10|0,0:0|0:0,0:0:0:0:
122,273,82911,2,0,P|107:320|103:367,1,58.4999982147217,4|4,3:0|3:0,0:0:0:0:
198,256,83166,6,0,P|265:256|370:225,1,175.499994644165,6|0,3:1|0:0,0:0:0:0:
385,211,83674,1,2,0:0:0:0:
407,238,83801,1,2,0:0:0:0:
424,271,83928,2,0,P|421:318|411:343,1,58.4999982147217,2|0,0:0|0:0,0:0:0:0:
345,339,84182,5,8,0:0:0:0:
345,339,84437,2,0,P|351:274|380:203,2,116.999996429443,2|0|2,0:0|0:0|0:0,0:0:0:0:
276,249,85199,6,0,P|258:169|199:74,1,175.499994644165,2|0,3:2|0:0,0:0:0:0:
190,80,85708,2,0,P|208:119|248:150,1,58.4999982147217,2|2,0:0|0:0,0:0:0:0:
338,155,85962,1,2,0:0:0:0:
362,162,86089,1,2,0:0:0:0:
431,125,86216,2,0,P|418:58|376:-5,1,116.999996429443,12|0,0:0|3:0,0:0:0:0:
373,11,86555,2,0,L|388:54,1,38.9999988098145,4|4,3:0|3:0,0:0:0:0:
347,113,86725,6,0,P|327:132|303:141,2,38.9999988098145,8|4|4,3:0|3:0|3:0,0:0:0:0:
407,166,86979,1,8,3:0:0:0:
416,173,87064,1,4,3:0:0:0:
422,182,87149,1,4,3:0:0:0:
438,180,87233,6,0,P|427:274|382:368,1,175.499994644165,6|2,3:1|0:0,0:0:0:0:
467,384,87742,1,2,3:2:0:0:
467,384,87996,6,0,P|447:337|431:314,1,58.4999982147217,0|2,0:0|0:0,0:0:0:0:
386,274,88250,1,2,3:2:0:0:
386,274,88505,2,0,P|367:322|350:344,1,58.4999982147217,2|0,0:0|0:0,0:0:0:0:
311,380,88759,1,2,3:2:0:0:
249,293,89013,5,2,0:0:0:0:
224,312,89140,1,0,0:0:0:0:
193,314,89267,2,0,P|76:300|-19:300,1,175.499994644165,2|2,3:2|0:0,0:0:0:0:
29,229,89776,1,2,3:2:0:0:
29,229,90030,2,0,P|71:229|125:234,1,58.4999982147217,2|0,0:0|0:0,0:0:0:0:
193,314,90284,5,2,3:2:0:0:
137,165,90538,1,2,0:0:0:0:
87,229,90793,5,2,3:2:0:0:
166,46,91047,1,2,0:0:0:0:
315,180,91301,6,0,P|300:85|256:8,1,155.999995239258,12|0,0:0|0:0,0:0:0:0:
262,19,91682,2,0,P|277:114|321:191,1,155.999995239258,12|0,0:0|0:0,0:0:0:0:
390,213,92064,2,0,P|428:223|466:240,1,77.999997619629,8|0,3:0|0:0,0:0:0:0:
441,314,92318,6,0,P|362:370|176:336,1,272.999991668701,4|0,3:2|0:0,0:0:0:0:
173,349,93335,6,0,B|31:269|87:65|260:84|260:84|361:178|487:113,1,650,4|0,3:2|0:0,0:0:0:0:
481,242,94860,6,0,P|486:340|501:407,1,130,14|0,0:0|0:0,0:0:0:0:
454,257,95369,2,0,P|455:171|480:69,1,130,6|2,1:0|0:3,0:0:0:0:
368,297,95877,5,10,0:0:0:0:
322,189,96132,2,0,P|327:157|328:124,1,65,2|2,0:3|0:0,0:0:0:0:
280,61,96386,1,2,1:2:0:0:
273,59,96513,1,2,0:0:0:0:
266,57,96640,1,2,0:3:0:0:
259,55,96767,1,2,0:0:0:0:
209,4,96894,6,0,P|272:19|337:25,1,130,10|2,0:0|0:3,0:0:0:0:
434,157,97403,2,0,P|440:73|458:16,1,130,2|2,1:2|0:3,0:0:0:0:
402,139,97911,2,0,P|406:217|424:278,1,130,10|2,0:0|0:3,0:0:0:0:
501,352,98293,1,2,0:0:0:0:
511,325,98420,6,0,P|505:296|488:249,1,65,2|0,1:2|3:0,0:0:0:0:
376,384,98928,2,0,P|302:366|215:368,1,130,10|2,0:0|0:3,0:0:0:0:
172,378,99310,1,2,0:0:0:0:
238,340,99437,2,0,P|339:349|457:389,1,195,2|0,1:2|0:0,0:0:0:0:
501,352,99945,1,10,0:0:0:0:
374,274,100199,5,2,0:3:0:0:
361,251,100327,2,0,P|364:171|425:85,1,130,2|0,0:0|0:0,0:0:0:0:
437,71,100708,1,2,0:3:0:0:
491,15,100962,5,10,0:0:0:0:
306,108,101216,1,2,0:3:0:0:
479,221,101471,5,2,1:2:0:0:
393,278,101725,1,12,0:0:0:0:
387,175,101979,1,2,1:2:0:0:
488,235,102233,2,0,P|479:291|468:319,1,65,2|2,0:3|0:0,0:0:0:0:
393,278,102488,5,2,1:2:0:0:
321,251,102615,1,0,1:0:0:0:
248,268,102742,1,12,0:0:0:0:
201,325,102869,1,8,0:0:0:0:
138,244,102996,6,0,P|148:168|180:77,1,130,10|8,0:0|0:0,0:0:0:0:
285,180,103377,1,8,0:0:0:0:
321,251,103505,6,0,P|311:327|279:418,1,130,6|2,1:0|0:3,0:0:0:0:
242,116,104013,1,10,0:2:0:0:
330,251,104267,2,0,P|383:244|421:234,1,65,2|2,0:3|0:0,0:0:0:0:
285,180,104521,1,2,1:2:0:0:
358,169,104649,1,2,0:0:0:0:
474,240,104903,5,2,0:0:0:0:
474,240,105030,2,0,P|485:157|489:62,1,130,10|2,0:0|0:3,0:0:0:0:
302,81,105538,2,0,P|402:71|445:58,1,130,2|2,1:2|0:3,0:0:0:0:
235,35,106047,5,10,0:0:0:0:
126,159,106301,1,2,0:3:0:0:
139,64,106428,1,2,0:0:0:0:
121,82,106555,2,0,P|124:36|132:1,1,65,2|0,1:2|3:0,0:0:0:0:
198,196,106937,5,2,0:0:0:0:
261,245,107064,2,0,P|363:234|479:195,1,168.999992263794,10|2,0:0|0:3,0:0:0:0:
463,150,107445,1,2,0:0:0:0:
463,150,107572,6,0,P|470:75|492:-5,1,130,2|2,1:2|0:3,0:0:0:0:
344,165,108081,2,0,P|351:90|373:10,1,130,12|2,0:0|0:3,0:0:0:0:
432,223,108589,6,0,P|426:256|420:274,2,43.3333333333333,4|4|4,0:3|0:3|0:3,0:0:0:0:
367,296,108844,2,0,P|398:284|417:280,2,43.3333333333333,4|4|4,0:3|0:3|0:3,0:0:0:0:
290,274,109098,5,12,0:0:0:0:
288,286,109182,1,4,3:0:0:0:
285,299,109267,1,4,3:0:0:0:
281,311,109352,1,4,3:0:0:0:
293,341,109437,2,0,P|261:352|242:356,1,43.3333333333333,4|4,3:0|3:0,0:0:0:0:
185,384,109606,6,0,P|210:298|221:166,1,168.999992263794,4|0,1:2|0:0,0:0:0:0:
172,136,109988,2,0,P|233:200|342:276,1,168.999992263794,4|0,1:2|0:0,0:0:0:0:
393,248,110369,6,0,P|300:265|98:356,1,260,4|0,1:2|3:0,0:0:0:0:
45,210,111132,5,8,0:0:0:0:
123,201,111259,2,0,P|219:206|324:245,1,168.999992263794,0|0,1:0|0:0,0:0:0:0:
406,301,111640,6,0,P|378:212|378:66,1,195,6|2,1:0|0:0,0:0:0:0:
403,40,112149,1,8,0:0:0:0:
403,40,112403,2,0,P|450:46|495:63,1,65,2|0,0:0|0:0,0:0:0:0:
498,139,112657,2,0,P|451:133|357:104,1,130,0|0,1:0|0:0,0:0:0:0:
268,13,113166,5,8,0:0:0:0:
285,28,113293,2,0,P|295:67|299:111,1,65,2|0,0:0|0:0,0:0:0:0:
249,177,113547,1,2,0:0:0:0:
249,177,113674,6,0,B|185:184|185:184|152:121|152:121|53:128,1,195,2|2,1:2|0:0,0:0:0:0:
13,133,114182,1,8,0:0:0:0:
13,133,114437,2,0,P|24:90|31:47,1,65,2|0,0:0|0:0,0:0:0:0:
7,0,114691,5,0,1:0:0:0:
81,20,114818,2,0,P|149:16|222:4,1,130,10|0,0:0|0:0,0:0:0:0:
285,28,115199,2,0,P|333:24|376:13,1,65,8|0,0:0|0:0,0:0:0:0:
430,75,115454,1,2,0:0:0:0:
435,46,115581,1,2,0:0:0:0:
512,22,115708,6,0,P|499:105|472:186,1,130,2|0,1:0|0:0,0:0:0:0:
433,218,116089,1,2,0:0:0:0:
481,278,116216,2,0,P|388:240|312:241,1,130,8|2,0:0|0:0,0:0:0:0:
255,347,116725,5,2,1:2:0:0:
150,182,116979,1,2,0:3:0:0:
141,199,117064,1,2,0:3:0:0:
148,218,117149,1,2,0:3:0:0:
179,233,117233,6,0,P|187:306|106:317,1,130,10|0,0:0|0:0,0:0:0:0:
31,376,117742,6,0,P|19:290|27:132,1,195,2|2,1:2|0:0,0:0:0:0:
3,103,118250,1,8,0:0:0:0:
28,109,118377,1,2,0:0:0:0:
98,70,118505,6,0,P|102:116|97:153,1,65,2|0,0:0|0:0,0:0:0:0:
93,228,118759,1,2,1:2:0:0:
93,228,118886,1,0,1:0:0:0:
93,228,119013,2,0,P|127:224|200:223,1,65,8|2,0:0|0:0,0:0:0:0:
272,283,119267,5,4,1:2:0:0:
345,300,119394,1,0,1:0:0:0:
412,268,119521,1,8,0:0:0:0:
441,199,119649,1,8,0:0:0:0:
488,110,119776,6,0,P|396:114|317:133,1,130,6|0,1:0|0:0,0:0:0:0:
327,100,120157,2,0,P|381:91|417:89,1,65,2|8,0:0|0:0,0:0:0:0:
284,33,120538,1,2,0:0:0:0:
284,33,120793,2,0,P|251:36|219:42,1,65,2|0,1:2|0:0,0:0:0:0:
132,173,121047,1,2,0:3:0:0:
119,174,121132,1,2,0:3:0:0:
106,169,121216,1,2,0:3:0:0:
76,179,121301,6,0,P|159:162|230:162,1,130,10|0,0:0|0:0,0:0:0:0:
317,233,121682,1,2,0:0:0:0:
295,250,121810,2,0,P|299:202|329:46,1,195,2|2,1:2|0:0,0:0:0:0:
384,8,122318,1,8,0:0:0:0:
384,8,122572,2,0,P|436:11|478:31,1,65,2|0,0:0|0:0,0:0:0:0:
482,117,122827,5,0,1:0:0:0:
471,103,122954,2,0,P|405:116|420:183,1,130,2|0,3:2|0:0,0:0:0:0:
454,225,123335,1,10,0:0:0:0:
367,296,123589,5,8,0:0:0:0:
393,284,123716,1,8,0:0:0:0:
390,373,123844,6,0,P|303:362|222:334,1,155.999995239258,6|0,1:0|0:0,0:0:0:0:
226,315,124225,2,0,P|277:325|324:342,1,77.999997619629,2|8,0:0|0:0,0:0:0:0:
282,248,124479,1,2,0:0:0:0:
65,229,124860,6,0,P|152:218|233:190,1,155.999995239258,2|10,1:2|0:2,0:0:0:0:
229,171,125241,2,0,P|178:181|131:198,1,77.999997619629,10|10,0:0|0:2,0:0:0:0:
175,90,125495,1,8,0:0:0:0:
255,45,125623,1,4,0:3:0:0:
342,79,125750,1,4,0:3:0:0:
378,170,125877,5,6,1:0:0:0:
256,192,125961,12,4,128588,1:2:0:0:
256,192,128696,12,0,132066,0:0:0:0:
