osu file format v14

[General]
AudioFilename: audio.mp3
AudioLeadIn: 0
PreviewTime: 94733
Countdown: 0
SampleSet: Soft
StackLeniency: 0.7
Mode: 0
LetterboxInBreaks: 0
WidescreenStoryboard: 1

[Editor]
DistanceSpacing: 0.5
BeatDivisor: 4
GridSize: 32
TimelineZoom: 1.4

[Metadata]
Title:Asterlore (Game Ver.)
TitleUnicode:アスタロア (Game Ver.)
Artist:Suzuki Konomi
ArtistUnicode:鈴木このみ
Creator:Lize
Version:Expert
Source:Summer Pockets REFLECTION BLUE
Tags:Opening Key Visual Novel VN Japanese Pop J-Pop Jpop Video Game Garden Necho Skystar 魁 Kai 折戸伸治 Orito Shinji 塚越雄一朗 Tsukagoshi Yuichiro NanosizeMir visualarts arts galgame version サマーポケッツ Amamiya Yuko
BeatmapID:2922337
BeatmapSetID:1418402

[Difficulty]
HPDrainRate:6
CircleSize:4
OverallDifficulty:9
ApproachRate:9.3
SliderMultiplier:3.2
SliderTickRate:1

[Events]
//Background and Video events
0,0,"main (2).jpg",0,0
//Break Periods
//Storyboard Layer 0 (Background)
//Storyboard Layer 1 (Fail)
//Storyboard Layer 2 (Pass)
//Storyboard Layer 3 (Foreground)
//Storyboard Layer 4 (Overlay)
//Storyboard Sound Samples

[TimingPoints]
1200,677.966101694915,4,2,1,30,1,0
1888,641.711229946524,4,2,1,30,1,0
1888,-200,4,2,1,30,0,0
12155,655.737704918033,4,2,1,30,1,0
17400,666.666666666667,4,2,1,30,1,0
18733,731.707317073171,4,2,1,30,1,0
20196,759.493670886076,4,2,1,30,1,0
21714,617.283950617284,4,2,1,30,1,0
24028,-100,4,2,1,6,0,0
24183,508.474576271186,4,2,1,70,1,0
24183,-58.8235294117647,4,2,1,70,0,0
24945,-66.6666666666667,4,2,1,70,0,0
25327,-83.3333333333333,4,2,1,70,0,0
26216,-58.8235294117647,4,2,1,70,0,0
26979,-66.6666666666667,4,2,1,70,0,0
27360,-100,4,2,1,70,0,0
27742,-55.5555555555556,4,2,1,70,0,0
28250,-58.8235294117647,4,2,1,70,0,0
29013,-66.6666666666667,4,2,1,70,0,0
29267,-83.3333333333333,4,2,1,70,0,0
29521,-66.6666666666667,4,2,1,70,0,0
30284,-58.8235294117647,4,2,1,70,0,0
31810,-133.333333333333,4,2,1,70,0,0
31937,-100,4,2,1,70,0,0
32064,-80,4,2,1,70,0,0
32191,-66.6666666666667,4,2,1,70,0,0
32318,-57.1428571428571,4,2,1,70,0,0
33081,-66.6666666666667,4,2,1,80,0,0
33335,-83.3333333333333,4,2,1,80,0,0
33589,-66.6666666666667,4,2,1,80,0,0
34352,-58.8235294117647,4,2,1,80,0,0
35115,-66.6666666666667,4,2,1,80,0,0
35369,-100,4,2,1,80,0,0
35877,-66.6666666666667,4,2,1,80,0,0
36386,-83.3333333333333,4,2,1,80,0,0
37021,-66.6666666666667,4,2,1,80,0,0
37403,-55.5555555555556,4,2,1,80,0,0
38420,-66.6666666666667,4,2,1,80,0,0
38928,-58.8235294117647,4,2,1,80,0,0
40454,-100,4,2,1,70,0,0
40962,-71.4285714285714,4,2,1,70,0,0
41344,-83.3333333333333,4,2,1,70,0,0
41725,-100,4,2,1,70,0,0
42488,-200,4,2,1,50,0,0
42742,-200,4,2,1,30,0,0
50115,-133.333333333333,4,2,1,40,0,0
51640,-142.857142857143,4,2,1,40,0,0
55199,-333.333333333334,4,2,1,40,0,0
57233,-133.333333333333,4,2,1,40,0,0
57742,-83.3333333333333,4,2,1,50,0,0
57805,-83.3333333333333,4,2,1,6,0,0
58081,-83.3333333333333,4,2,1,60,0,0
58335,-83.3333333333333,4,2,1,6,0,0
58420,-166.666666666667,4,2,1,60,0,0
59013,-166.666666666667,4,2,1,40,0,0
59267,-133.333333333333,4,2,1,55,0,0
61810,-200,4,2,1,55,0,0
62064,-133.333333333333,4,2,1,55,0,0
64860,-100,4,2,1,55,0,0
67403,-133.333333333333,4,2,1,55,0,0
68166,-100,4,2,1,55,0,0
69437,-80,4,2,1,55,0,0
69945,-100,4,2,1,55,0,0
70962,-80,4,2,1,55,0,0
71471,-100,4,2,1,55,0,0
72233,-83.3333333333333,4,2,1,55,0,0
72488,-71.4285714285714,4,2,1,55,0,0
72742,-62.5,4,2,1,55,0,0
72996,-83.3333333333333,4,2,1,55,0,0
73505,-66.6666666666667,4,2,1,55,0,0
73759,-66.6666666666667,4,3,0,55,0,0
74013,-66.6666666666667,4,2,1,60,0,0
75030,-133.333333333333,4,2,1,65,0,0
76428,-100,4,2,1,65,0,0
79860,-133.333333333333,4,2,1,65,0,0
82149,-83.3333333333333,4,2,1,65,0,0
82403,-83.3333333333333,4,3,0,65,0,0
82657,-83.3333333333333,4,2,1,65,0,0
83166,-133.333333333333,4,2,1,65,0,0
86216,-100,4,2,1,65,0,0
87360,-133.333333333333,4,2,1,65,0,0
91174,-90.9090909090909,4,2,1,65,0,0
91301,-66.6666666666667,4,2,1,75,0,0
91682,-100,4,2,1,75,0,0
92318,-166.666666666667,4,2,1,65,0,0
93208,-166.666666666667,4,2,1,6,0,0
93335,-166.666666666667,4,2,1,65,0,0
95369,-66.6666666666667,4,2,1,80,0,1
101471,-83.3333333333333,4,2,1,80,0,1
101725,-66.6666666666667,4,2,1,80,0,1
101979,-83.3333333333333,4,2,1,80,0,1
102742,-66.6666666666667,4,2,1,80,0,1
102996,-83.3333333333333,4,2,1,80,0,1
103505,-66.6666666666667,4,2,1,80,0,1
107064,-76.9230769230769,4,2,1,80,0,1
107572,-66.6666666666667,4,2,1,80,0,1
109098,-52.6315789473684,4,2,1,80,0,1
109225,-66.6666666666667,4,2,1,80,0,1
109606,-200,4,2,1,80,0,1
110369,-100,4,2,1,80,0,1
111132,-133.333333333333,4,2,1,80,0,1
111513,-133.333333333333,4,2,1,8,0,1
111640,-58.8235294117647,4,2,1,70,0,0
112403,-66.6666666666667,4,2,1,70,0,0
112784,-83.3333333333333,4,2,1,70,0,0
113674,-58.8235294117647,4,2,1,70,0,0
114437,-66.6666666666667,4,2,1,70,0,0
114818,-100,4,2,1,70,0,0
115199,-55.5555555555556,4,2,1,70,0,0
115708,-58.8235294117647,4,2,1,70,0,0
116471,-66.6666666666667,4,2,1,70,0,0
116725,-83.3333333333333,4,2,1,70,0,0
117233,-66.6666666666667,4,2,1,70,0,0
117742,-58.8235294117647,4,2,1,70,0,0
119267,-133.333333333333,4,2,1,70,0,0
119394,-100,4,2,1,70,0,0
119521,-80,4,2,1,70,0,0
119649,-66.6666666666667,4,2,1,70,0,0
119776,-57.1428571428571,4,2,1,80,0,0
120538,-66.6666666666667,4,2,1,80,0,0
120793,-83.3333333333333,4,2,1,80,0,0
121301,-66.6666666666667,4,2,1,80,0,0
121810,-58.8235294117647,4,2,1,80,0,0
122572,-66.6666666666667,4,2,1,80,0,0
122954,-100,4,2,1,80,0,0
123335,-66.6666666666667,4,2,1,80,0,0
123844,-83.3333333333333,4,2,1,70,0,0
124479,-66.6666666666667,4,2,1,70,0,0
124860,-55.5555555555556,4,2,1,70,0,0
125877,677.966101694915,4,2,1,70,1,0
126554,-100,4,2,1,60,0,0
127232,-100,4,2,1,50,0,0
127910,-100,4,2,1,40,0,0
128588,869.565217391304,4,2,1,60,1,0
128696,-100,4,2,1,30,0,0

[Colours]
Combo1 : 128,255,128
Combo2 : 255,128,128
Combo3 : 128,128,255
Combo4 : 255,255,128

[HitObjects]
256,192,20074,6,0,L|256:162,2,26.6666666666667,2|2|2,0:0|0:0|0:0,0:0:0:0:
256,192,20290,12,2,21714,0:0:0:0:
256,192,21791,12,0,24028,0:0:0:0:
364,123,24183,6,0,P|229:129|119:205,1,272.000005187988,6|0,1:0|0:0,0:0:0:0:
89,299,24564,2,0,P|28:305|26:244,1,136.000002593994,2|8,0:0|0:0,0:0:0:0:
279,152,24945,6,0,P|273:210|305:260,1,120.000004577637,2|0,0:0|0:0,0:0:0:0:
385,207,25199,1,0,1:0:0:0:
311,356,25327,2,0,P|392:314|392:223,1,191.999994140625,2|0,0:0|0:0,0:0:0:0:
512,0,25708,5,8,0:0:0:0:
446,69,25835,1,2,0:0:0:0:
471,161,25962,1,0,0:0:0:0:
428,74,26089,1,2,0:0:0:0:
327,57,26216,6,0,P|193:62|83:138,1,272.000005187988,2|0,1:2|0:0,0:0:0:0:
4,210,26598,2,0,B|33:233|30:269|30:269|55:239|90:241,1,136.000002593994,2|8,0:0|0:0,0:0:0:0:
23,44,26979,6,0,P|69:80|82:137,1,120.000004577637,2|0,0:0|0:0,0:0:0:0:
186,231,27233,1,0,1:0:0:0:
258,132,27360,2,0,P|192:174|176:250,1,160,10|0,0:0|0:0,0:0:0:0:
0,364,27742,6,0,B|116:345|116:345|141:328|141:328|166:338|166:338|278:321,1,287.999991210938,8|0,0:0|0:0,0:0:0:0:
406,292,28123,1,2,0:0:0:0:
505,195,28250,6,0,P|389:255|364:384,1,272.000005187988,2|0,1:0|0:0,0:0:0:0:
414,184,28632,2,0,P|412:121|473:105,1,136.000002593994,2|8,0:0|0:0,0:0:0:0:
467,383,29013,6,0,P|453:327|402:291,1,120.000004577637,2|0,0:0|0:0,0:0:0:0:
224,193,29267,2,0,P|270:199|300:235,1,95.9999970703126,2|0,1:2|0:0,0:0:0:0:
428,183,29521,5,2,0:3:0:0:
412,195,29606,1,2,0:3:0:0:
405,177,29691,1,2,0:3:0:0:
414,184,29776,6,0,P|298:202|220:290,1,240.000009155274,10|0,0:0|0:0,0:0:0:0:
30,306,30157,1,2,0:0:0:0:
137,382,30284,6,0,B|89:310|114:232|114:232|75:288|21:292,1,272.000005187988,2|0,1:2|0:0,0:0:0:0:
29,104,30666,2,0,B|58:129|56:161|56:161|85:134|121:141,1,136.000002593994,2|8,0:0|0:0,0:0:0:0:
329,347,31047,6,0,P|285:296|219:288,1,136.000002593994,2|0,0:0|0:0,0:0:0:0:
173,58,31301,5,2,1:2:0:0:
215,135,31428,1,10,0:0:0:0:
324,191,31555,1,8,0:0:0:0:
478,179,31682,1,10,0:0:0:0:
410,244,31810,6,0,L|405:229,2,15.0000005722046,4|2|2,1:2|0:3|0:3,0:0:0:0:
320,210,31937,2,0,L|323:190,2,20,0|2|2,1:0|0:3|0:3,0:0:0:0:
303,104,32064,2,0,L|318:79,2,25,8|2|2,0:0|0:3|0:3,0:0:0:0:
408,17,32191,2,0,L|445:-2,2,30.0000011444092,8|2|2,0:0|0:3|0:3,0:0:0:0:
398,137,32318,6,0,P|301:40|164:39,1,280.000002670288,6|0,1:0|0:0,0:0:0:0:
62,83,32699,2,0,P|68:145|131:140,1,140.000001335144,2|8,0:0|0:0,0:0:0:0:
0,384,33081,6,0,P|6:325|51:288,1,120.000004577637,2|0,0:0|0:0,0:0:0:0:
131,139,33335,2,0,P|157:177|202:190,1,95.9999970703126,2|0,1:2|0:0,0:0:0:0:
185,315,33589,5,2,0:3:0:0:
160,304,33674,1,2,0:3:0:0:
182,287,33759,1,2,0:3:0:0:
177,304,33844,6,0,P|289:270|407:239,1,240.000009155274,10|0,0:0|0:0,0:0:0:0:
503,179,34225,1,2,0:0:0:0:
467,328,34352,6,0,B|442:258|405:176|405:176|451:189|512:193,1,272.000005187988,2|0,1:2|0:0,0:0:0:0:
397,66,34733,2,0,B|434:61|456:33|456:33|447:67|464:96,1,136.000002593994,2|8,0:0|0:0,0:0:0:0:
467,328,35115,6,0,P|409:334|364:372,1,120.000004577637,2|0,0:0|0:0,0:0:0:0:
248,304,35369,5,0,1:0:0:0:
319,205,35496,2,0,P|249:239|232:314,1,160,2|0,3:2|0:0,0:0:0:0:
109,153,35877,6,0,P|102:211|132:262,1,120.000004577637,10|0,0:0|0:0,0:0:0:0:
221,125,36132,5,8,0:0:0:0:
213,104,36259,1,8,0:0:0:0:
4,150,36386,6,0,P|93:124|133:40,1,191.999994140625,6|0,1:0|0:0,0:0:0:0:
56,313,36767,2,0,P|40:269|0:245,1,95.9999970703126,2|8,0:0|0:0,0:0:0:0:
220,125,37021,2,0,P|167:232|144:349,1,240.000009155274,2|0,0:0|0:0,0:0:0:0:
390,110,37403,6,0,B|350:128|319:109|319:109|328:143|304:175,1,143.999995605469,2|0,1:2|0:0,0:0:0:0:
500,250,37657,2,0,B|504:206|535:189|535:189|502:179|485:143,1,143.999995605469,10|0,0:2|0:0,0:0:0:0:
322,269,37911,2,0,B|357:294|356:329|356:329|381:306|421:309,1,143.999995605469,10|0,0:2|0:0,0:0:0:0:
404,212,38166,5,4,0:3:0:0:
405,217,38229,5,4,0:3:0:0:
411,217,38293,5,4,0:3:0:0:
411,210,38356,5,4,0:3:0:0:
410,213,38420,6,0,P|369:103|270:39,1,240.000009155274,6|0,1:0|0:0,0:0:0:0:
269,38,38801,1,2,0:0:0:0:
402,6,38928,6,0,B|445:5|470:24|470:24|462:66|476:98,1,136.000002593994,10|0,0:0|0:0,0:0:0:0:
307,209,39182,2,0,B|264:210|239:191|239:191|247:149|233:117,1,136.000002593994,2|0,0:0|0:0,0:0:0:0:
236,127,39437,1,0,1:0:0:0:
355,105,39564,6,0,B|289:129|228:80|228:80|177:25|104:51,1,272.000005187988,2|0,0:2|0:0,0:0:0:0:
59,139,39945,2,0,P|-1:144|-1:84,1,136.000002593994,10|0,0:0|0:0,0:0:0:0:
147,193,40199,1,2,0:0:0:0:
162,175,40327,1,2,0:0:0:0:
103,51,40454,6,0,P|176:145|197:262,1,240,6|0,1:0|0:0,0:0:0:0:
472,332,40962,6,0,P|411:243|304:243,1,223.999993164063,8|0,3:3|0:0,0:0:0:0:
469,154,41344,6,0,P|424:169|398:209,1,95.9999970703126,4|0,3:0|0:0,0:0:0:0:
247,326,41598,5,0,3:0:0:0:
197,261,41725,2,0,P|200:299|229:326,1,80,8|0,3:0|0:0,0:0:0:0:
334,73,41979,5,0,1:0:0:0:
175,39,42106,1,8,0:0:0:0:
85,136,42233,1,8,0:0:0:0:
101,227,42360,1,8,0:0:0:0:
115,214,42488,5,6,1:0:0:0:
93,210,42996,6,0,P|72:243|70:282,1,80,2|0,0:0|0:0,0:0:0:0:
0,384,43505,2,0,P|86:303|203:285,1,240,2|0,0:0|0:0,0:0:0:0:
202,284,44521,1,2,0:0:0:0:
463,352,44903,5,0,0:0:0:0:
438,348,45030,2,0,P|430:330|425:311,1,40,2|0,0:0|0:0,0:0:0:0:
364,246,45284,2,0,P|372:228|385:212,1,40,2|0,0:0|0:0,0:0:0:0:
471,193,45538,1,2,0:0:0:0:
240,45,45920,5,2,0:0:0:0:
246,25,46047,1,0,0:0:0:0:
234,67,46174,1,2,0:0:0:0:
280,58,46555,6,0,P|201:56|138:103,1,160,2|0,0:0|0:0,0:0:0:0:
116,196,47318,1,0,0:0:0:0:
0,22,47572,2,0,P|100:80|116:195,1,240,2|0,0:0|0:0,0:0:0:0:
30,247,48589,1,2,0:0:0:0:
26,234,48716,1,0,0:0:0:0:
310,292,48971,5,0,0:0:0:0:
301,278,49098,2,0,P|282:283|265:293,1,40,2|0,0:0|0:0,0:0:0:0:
184,270,49352,2,0,P|170:284|164:303,1,40,2|0,0:0|0:0,0:0:0:0:
183,384,49606,1,2,0:0:0:0:
121,178,49988,5,2,0:0:0:0:
116,195,50115,1,0,0:0:0:0:
160,186,50242,1,2,0:0:0:0:
175,144,50369,2,0,P|171:114|156:88,1,60.0000022888184,2|0,0:3|0:0,0:0:0:0:
111,0,50623,6,0,P|169:65|256:64,1,180.000006866455,2|2,0:0|0:0,0:0:0:0:
351,44,51132,1,0,0:0:0:0:
337,31,51259,2,0,P|299:75|306:133,1,120.000004577637,2|0,0:0|0:0,0:0:0:0:
211,175,51640,6,0,P|289:100|399:97,1,223.999993164063,2|0,0:0|0:0,0:0:0:0:
463,165,52403,1,2,0:0:0:0:
491,70,52657,2,0,P|499:123|464:164,1,111.999996582031,2|0,0:0|0:0,0:0:0:0:
438,256,53038,2,0,P|387:236|369:185,1,111.999996582031,2|0,0:0|0:0,0:0:0:0:
399,97,53420,1,0,0:0:0:0:
399,97,53674,6,0,B|335:112|295:64|295:64|258:18|198:32,1,223.999993164063,2|0,0:0|0:0,0:0:0:0:
130,103,54437,1,2,0:0:0:0:
105,4,54691,2,0,P|98:58|130:103,1,111.999996582031,2|0,0:0|0:0,0:0:0:0:
323,226,55199,5,2,0:0:0:0:
328,206,55327,1,0,0:0:0:0:
218,128,55581,1,0,0:0:0:0:
213,148,55708,2,0,L|223:159,5,15.9999995117188,2|2|2|2|2|2,0:0|0:3|0:3|0:3|0:3|0:3,0:0:0:0:
304,126,56216,5,2,0:0:0:0:
244,64,56344,5,2,0:0:0:0:
127,50,56534,5,2,0:0:0:0:
14,97,56725,6,0,L|24:143,1,47.9999985351563,2|0,0:0|0:0,0:0:0:0:
85,309,57233,6,0,B|85:254|36:232|36:232|81:226|101:186,1,180.000006866455,2|0,1:3|0:0,0:0:0:0:
14,97,57742,6,0,L|24:143,1,47.9999985351563,10|0,0:0|0:0,0:0:0:0:
158,347,58081,6,0,P|90:284|1:305,1,191.999994140625,4|0,1:2|0:0,0:0:0:0:
0,317,58420,6,0,P|110:297|220:275,1,223.999993164063,4|0,1:2|3:0,0:0:0:0:
232,278,59098,1,0,3:0:0:0:
244,280,59182,1,0,3:0:0:0:
256,282,59267,6,0,P|297:323|304:382,1,120.000004577637,6|0,3:1|0:0,0:0:0:0:
442,147,59776,1,2,3:2:0:0:
378,270,60030,5,2,0:0:0:0:
383,251,60157,1,0,0:0:0:0:
451,311,60284,1,2,3:2:0:0:
314,191,60538,5,2,0:0:0:0:
319,172,60666,1,0,0:0:0:0:
387,232,60793,1,2,3:2:0:0:
250,113,61047,5,2,0:0:0:0:
255,94,61174,1,0,0:0:0:0:
323,154,61301,1,2,3:2:0:0:
188,34,61555,5,2,0:0:0:0:
193,15,61683,1,0,0:0:0:0:
260,74,61810,2,0,L|249:112,1,40,2|0,3:2|0:0,0:0:0:0:
331,18,62064,6,0,B|268:0|225:66|225:66|188:119|126:107,1,240.000009155274,2|0,0:0|0:0,0:0:0:0:
139,305,62827,2,0,P|228:231|220:116,1,240.000009155274,2|2,3:2|3:2,0:0:0:0:
408,17,63589,5,2,0:0:0:0:
400,39,63716,1,0,0:0:0:0:
320,125,63844,6,0,L|379:114,1,60.0000022888184,2|0,3:2|0:0,0:0:0:0:
465,273,64098,6,0,P|437:266|432:238,1,60.0000022888184,2|0,0:2|0:0,0:0:0:0:
378,114,64352,6,0,L|363:172,1,60.0000022888184,2|0,3:2|0:0,0:0:0:0:
248,237,64606,5,2,0:0:0:0:
255,217,64733,1,0,0:0:0:0:
336,267,64860,6,0,P|219:264|132:342,1,240,2|0,3:2|0:2,0:0:0:0:
87,230,65369,2,0,P|126:234|156:260,1,80,2|0,3:2|0:0,0:0:0:0:
295,129,65623,5,2,0:0:0:0:
276,135,65750,1,0,0:0:0:0:
188,170,65877,6,0,L|205:91,1,80,2|0,3:2|0:0,0:0:0:0:
17,26,66132,6,0,P|4:59|37:75,1,80,2|0,0:0|0:0,0:0:0:0:
204,91,66386,6,0,L|127:109,1,80,2|0,3:2|0:0,0:0:0:0:
87,230,66640,5,2,0:0:0:0:
110,223,66767,1,0,0:0:0:0:
6,158,66894,6,0,B|-1:222|64:246|64:246|138:270|130:338,1,240,2|0,3:2|0:0,0:0:0:0:
54,384,67403,2,0,P|36:360|38:331,1,60.0000022888184,2|0,3:2|0:0,0:0:0:0:
210,232,67657,5,2,0:0:0:0:
206,251,67784,1,0,0:0:0:0:
130,338,67911,6,0,L|189:327,1,60.0000022888184,2|0,3:2|0:0,0:0:0:0:
372,297,68166,6,0,P|370:225|297:223,1,160,2|0,0:0|3:0,0:0:0:0:
297,237,68547,2,0,P|372:230|394:158,1,160,2|0,0:0|0:0,0:0:0:0:
335,5,68928,2,0,P|303:22|316:57,1,80,2|0,3:2|0:0,0:0:0:0:
409,73,69182,5,2,0:0:0:0:
416,54,69310,1,0,0:0:0:0:
502,103,69437,6,0,P|403:118|305:140,1,200,2|0,3:2|0:0,0:0:0:0:
187,162,69818,1,2,0:0:0:0:
202,173,69945,2,0,P|210:133|222:95,1,80,2|0,3:2|0:0,0:0:0:0:
11,123,70199,2,0,P|38:150|77:147,1,80,2|0,0:0|0:0,0:0:0:0:
153,16,70454,6,0,B|136:28|136:28|107:118|88:242,1,240,2|0,3:2|0:0,0:0:0:0:
33,349,70962,6,0,P|89:271|185:275,1,200,2|0,3:2|0:0,0:0:0:0:
278,252,71344,1,2,0:0:0:0:
286,273,71471,2,0,P|283:312|258:346,1,80,2|0,3:2|0:0,0:0:0:0:
453,362,71725,5,2,0:0:0:0:
469,356,71852,1,0,0:0:0:0:
485,350,71979,6,0,P|452:363|474:340,1,80,2|0,3:2|0:0,0:0:0:0:
392,252,72233,6,0,P|361:269|380:246,1,95.9999970703126,2|0,0:0|0:0,0:0:0:0:
308,155,72488,6,0,P|268:167|298:146,1,111.999996582031,2|0,3:2|0:0,0:0:0:0:
216,40,72742,6,0,P|170:49|212:27,1,128,2|0,0:0|0:0,0:0:0:0:
334,44,72996,6,0,P|197:89|72:160,1,287.999991210938,2|2,3:2|0:0,0:0:0:0:
0,217,73505,2,0,P|17:268|68:250,1,120.000004577637,2|0,3:2|0:0,0:0:0:0:
186,226,73759,5,0,0:0:0:0:
197,220,73822,5,0,0:0:0:0:
186,217,73886,5,0,0:0:0:0:
193,210,73949,5,0,0:0:0:0:
185,203,74013,6,0,P|168:313|270:358,1,240.000009155274,8|0,1:3|0:0,0:0:0:0:
411,261,74394,1,8,0:0:0:0:
361,384,74521,2,0,P|372:325|389:267,1,120.000004577637,8|0,0:0|0:0,0:0:0:0:
371,67,74776,2,0,P|425:69|430:124,1,120.000004577637,4|0,1:3|0:0,0:0:0:0:
268,264,75030,6,0,P|382:228|500:204,1,240.000009155274,6|2,3:1|0:0,0:0:0:0:
430,304,75666,1,2,0:0:0:0:
413,309,75793,2,0,P|419:279|429:251,1,60.0000022888184,2|0,0:0|0:0,0:0:0:0:
333,150,76047,6,0,P|324:92|285:48,1,120.000004577637,8|0,0:0|0:0,0:0:0:0:
373,4,76428,2,0,P|353:115|243:142,1,240,2|0,0:0|0:0,0:0:0:0:
150,76,76937,1,2,3:2:0:0:
170,65,77064,6,0,P|145:140|125:218,1,160,2|0,3:2|0:0,0:0:0:0:
70,333,77445,2,0,P|102:345|106:310,1,80,2|0,3:2|0:0,0:0:0:0:
39,123,77699,1,2,0:0:0:0:
27,131,77827,2,0,P|21:164|54:155,1,80,2|0,3:2|0:0,0:0:0:0:
201,195,78081,6,0,P|162:204|124:218,1,80,10|0,0:0|0:0,0:0:0:0:
331,381,78335,2,0,P|324:341|315:302,1,80,2|0,0:0|0:0,0:0:0:0:
315,28,78589,5,2,0:0:0:0:
361,115,78716,1,2,0:0:0:0:
431,158,78844,1,2,0:0:0:0:
479,154,78971,1,2,0:0:0:0:
490,136,79098,6,0,P|413:139|361:197,1,160,2|0,3:2|0:0,0:0:0:0:
315,302,79479,2,0,P|352:292|332:283,1,80,2|0,0:0|0:0,0:0:0:0:
315,28,79860,6,0,P|366:54|379:111,1,120.000004577637,2|8,0:0|0:0,0:0:0:0:
269,158,80242,1,2,0:0:0:0:
278,171,80369,2,0,P|285:141|293:113,1,60.0000022888184,2|0,0:0|0:0,0:0:0:0:
93,239,80623,5,2,3:2:0:0:
99,259,80750,1,2,0:0:0:0:
130,283,80877,1,2,0:0:0:0:
223,286,81005,1,2,0:0:0:0:
278,171,81132,6,0,P|219:170|172:205,1,120.000004577637,2|2,3:2|0:0,0:0:0:0:
179,216,81513,2,0,P|202:161|180:106,1,120.000004577637,2|0,3:2|0:0,0:0:0:0:
106,6,81894,5,2,0:0:0:0:
101,26,82021,1,2,0:0:0:0:
4,64,82149,6,0,P|50:53|98:45,1,95.9999970703126,10|0,0:0|0:0,0:0:0:0:
78,160,82403,5,0,0:0:0:0:
84,154,82466,5,0,0:0:0:0:
83,147,82530,5,0,0:0:0:0:
76,142,82594,5,0,0:0:0:0:
69,153,82657,6,0,P|73:200|81:248,1,95.9999970703126,10|0,0:0|0:0,0:0:0:0:
270,40,82911,5,4,3:0:0:0:
265,18,83038,1,4,3:0:0:0:
181,106,83166,6,0,B|252:116|283:58|283:58|313:-6|378:5,1,240.000009155274,6|0,3:1|0:0,0:0:0:0:
490,7,83801,1,2,0:0:0:0:
476,0,83928,2,0,P|464:27|457:56,1,60.0000022888184,2|0,0:0|0:0,0:0:0:0:
432,189,84182,5,8,0:0:0:0:
366,102,84437,2,0,P|418:134|431:193,1,120.000004577637,2|0,0:0|0:0,0:0:0:0:
376,292,84818,1,2,0:0:0:0:
386,276,84945,2,0,P|417:283|447:291,1,60.0000022888184,2|0,0:0|0:0,0:0:0:0:
320,384,85199,6,0,B|316:333|272:316|272:316|217:294|224:232,1,180.000006866455,2|0,3:2|0:0,0:0:0:0:
322,184,85708,1,2,0:0:0:0:
318,201,85835,1,2,0:0:0:0:
315,218,85962,1,2,0:0:0:0:
311,235,86089,1,2,0:0:0:0:
223,245,86216,6,0,B|176:248|152:208|152:208|130:169|76:180,1,160,12|0,0:0|3:0,0:0:0:0:
68,183,86555,1,4,3:0:0:0:
59,200,86640,1,4,3:0:0:0:
68,221,86725,5,8,3:0:0:0:
110,199,86810,1,4,3:0:0:0:
123,153,86894,1,4,3:0:0:0:
97,111,86979,5,8,3:0:0:0:
99,62,87064,1,4,3:0:0:0:
137,33,87149,1,4,3:0:0:0:
184,29,87233,6,0,P|176:53|170:80,2,40,6|0|0,3:1|0:0|0:0,0:0:0:0:
101,297,87615,5,2,0:0:0:0:
15,361,87742,2,0,P|54:317|113:311,1,120.000004577637,2|0,3:2|0:0,0:0:0:0:
219,364,88123,1,2,0:0:0:0:
205,345,88250,1,2,3:2:0:0:
205,345,88505,6,0,P|211:315|220:286,1,60.0000022888184,2|0,0:0|0:0,0:0:0:0:
360,225,88759,1,2,3:2:0:0:
360,225,89013,6,0,P|366:195|375:166,1,60.0000022888184,2|0,0:0|0:0,0:0:0:0:
512,45,89267,2,0,P|423:62|336:86,1,180.000006866455,2|2,3:2|0:0,0:0:0:0:
247,72,89776,5,2,3:2:0:0:
305,0,90030,1,2,0:0:0:0:
275,235,90284,5,2,3:2:0:0:
160,200,90538,1,2,0:0:0:0:
439,101,90793,5,2,3:2:0:0:
497,308,91047,1,2,0:0:0:0:
479,296,91174,6,0,L|490:250,1,44.0000013427735,2|0,3:2|0:0,0:0:0:0:
479,161,91301,6,0,P|495:56|389:51,1,240.000009155274,12|0,0:0|0:0,0:0:0:0:
255,100,91682,2,0,P|293:2|388:51,1,240.000009155274,12|8,0:0|3:0,0:0:0:0:
479,161,92318,2,0,B|390:146|335:229|335:229|342:129|254:99,1,335.999989746094,4|0,3:2|0:0,0:0:0:0:
255,99,93335,1,4,3:2:0:0:
256,192,93399,12,14,94860,0:0:0:0:
58,197,95369,6,0,P|177:213|289:254,1,240.000009155274,6|2,1:0|0:3,0:0:0:0:
398,250,95750,1,2,0:0:0:0:
410,366,95877,2,0,B|400:342|370:325|370:325|374:299|393:268,1,120.000004577637,10|0,0:0|0:0,0:0:0:0:
335,81,96132,5,2,0:3:0:0:
338,99,96259,1,2,0:0:0:0:
458,127,96386,6,0,B|548:131|550:233|515:269|435:281|341:254|430:177|389:150|293:137|293:137|328:110|321:70,1,480.000018310548,2|10,1:2|0:0,0:0:0:0:
120,12,97149,5,2,0:3:0:0:
137,30,97233,1,2,0:3:0:0:
115,37,97318,1,2,0:3:0:0:
124,28,97403,6,0,P|182:27|225:67,1,120.000004577637,2|0,1:2|0:0,0:0:0:0:
115,225,97657,2,0,P|56:224|13:264,1,120.000004577637,2|0,0:3|0:0,0:0:0:0:
238,330,97911,2,0,B|243:260|183:234|183:234|117:195|141:133,1,240.000009155274,10|2,0:0|0:3,0:0:0:0:
343,218,98293,1,2,0:0:0:0:
145,319,98420,5,2,1:2:0:0:
139,334,98547,2,0,B|201:357|240:292|240:292|266:232|335:237,1,240.000009155274,0|0,3:0|0:0,0:0:0:0:
405,47,98928,2,0,P|350:69|326:123,1,120.000004577637,10|0,0:0|0:0,0:0:0:0:
477,237,99182,5,2,0:3:0:0:
497,230,99310,1,2,0:0:0:0:
462,360,99437,6,0,B|304:324|304:160|440:133|477:196|456:245,1,360.000013732911,2|0,1:2|0:0,0:0:0:0:
326,121,99945,2,0,P|288:76|292:19,1,120.000004577637,10|0,0:0|0:0,0:0:0:0:
443,61,100199,5,2,0:3:0:0:
405,47,100284,1,2,0:3:0:0:
437,22,100369,1,2,0:3:0:0:
427,40,100454,6,0,P|311:66|200:112,1,240.000009155274,2|2,1:2|0:3,0:0:0:0:
186,124,100835,1,2,0:0:0:0:
76,0,100962,2,0,B|82:22|112:40|112:40|121:68|89:96,1,120.000004577637,10|0,0:0|0:0,0:0:0:0:
293,181,101216,2,0,B|261:209|270:237|270:237|300:255|307:276,1,120.000004577637,2|0,0:3|0:0,0:0:0:0:
19,349,101471,6,0,P|41:307|85:294,1,95.9999970703126,2|0,1:2|0:0,0:0:0:0:
223,324,101725,2,0,L|105:299,1,120.000004577637,12|0,0:0|0:0,0:0:0:0:
324,280,101979,6,0,L|418:298,1,95.9999970703126,2|0,1:2|0:0,0:0:0:0:
281,141,102233,1,2,0:3:0:0:
287,162,102360,1,2,0:0:0:0:
89,206,102488,6,0,P|111:164|155:151,1,95.9999970703126,2|0,1:2|0:0,0:0:0:0:
293,181,102742,2,0,L|175:156,1,120.000004577637,12|0,0:0|0:0,0:0:0:0:
368,6,102996,5,10,0:0:0:0:
455,45,103123,1,8,0:0:0:0:
497,131,103250,2,0,P|507:176|482:216,1,95.9999970703126,8|0,0:0|0:0,0:0:0:0:
298,380,103505,6,0,B|280:317|338:276|338:276|405:236|387:177,1,240.000009155274,6|2,1:0|0:3,0:0:0:0:
336,83,103886,1,2,0:0:0:0:
455,45,104013,2,0,B|422:43|403:60|403:60|389:94|352:93,1,120.000004577637,10|0,0:0|0:0,0:0:0:0:
134,60,104267,5,2,0:3:0:0:
143,39,104394,1,2,0:0:0:0:
292,9,104521,6,0,B|233:21|219:95|254:141|254:141|216:98|194:78|131:41|10:100|54:201|106:225,1,480.000018310548,2|10,1:2|0:0,0:0:0:0:
422,374,105284,5,2,0:3:0:0:
409,337,105369,1,2,0:3:0:0:
382,367,105454,1,2,0:3:0:0:
407,359,105538,6,0,P|453:324|466:266,1,120.000004577637,2|2,1:2|0:3,0:0:0:0:
337,86,105793,2,0,P|383:121|396:179,1,120.000004577637,2|2,0:3|0:3,0:0:0:0:
512,172,106047,6,0,B|375:206|375:206|359:221|359:221|333:216|333:216|284:228,1,240.000009155274,10|2,0:0|0:3,0:0:0:0:
205,142,106428,1,2,0:0:0:0:
245,332,106555,5,2,1:2:0:0:
226,324,106682,2,0,B|275:159|275:159|216:125,1,240.000009155274,0|0,3:0|0:0,0:0:0:0:
124,89,107064,6,0,P|128:0|213:27,1,207.999990478516,10|2,0:0|0:3,0:0:0:0:
131,200,107445,1,2,0:0:0:0:
303,73,107572,6,0,P|189:84|134:185,1,240.000009155274,2|2,1:2|0:3,0:0:0:0:
382,148,107954,1,2,0:0:0:0:
41,231,108081,6,0,B|394:164,1,360.000013732911,12|0,0:0|0:0,0:0:0:0:
500,133,108589,5,4,0:3:0:0:
486,137,108674,1,4,0:3:0:0:
482,150,108759,1,4,0:3:0:0:
489,162,108844,5,4,0:3:0:0:
501,164,108928,1,4,0:3:0:0:
512,154,109013,1,4,0:3:0:0:
509,141,109098,6,0,P|496:105|465:84,1,75.9999979705811,12|0,0:0|0:0,0:0:0:0:
384,0,109225,6,0,B|368:103|368:103|374:117|374:117|364:130|364:130|347:232,1,240.000009155274,2|0,0:0|0:0,0:0:0:0:
180,272,109606,6,0,L|259:260,1,80,4|0,1:2|0:0,0:0:0:0:
487,350,109988,2,0,L|408:362,1,80,4|0,1:2|0:0,0:0:0:0:
332,315,110369,5,4,1:2:0:0:
256,192,110432,12,8,111132,0:0:0:0:
332,315,111259,6,0,P|296:270|302:212,1,120.000004577637,0|0,1:0|0:0,0:0:0:0:
164,354,111640,6,0,P|266:267|399:245,1,272.000005187988,6|0,1:0|0:0,0:0:0:0:
433,339,112021,2,0,P|494:345|496:284,1,136.000002593994,2|8,0:0|0:0,0:0:0:0:
197,263,112403,6,0,P|160:219|163:160,1,120.000004577637,2|0,0:0|0:0,0:0:0:0:
213,37,112657,1,0,1:0:0:0:
256,144,112784,2,0,P|201:70|110:79,1,191.999994140625,10|0,0:0|0:0,0:0:0:0:
12,320,113165,5,8,0:0:0:0:
78,251,113292,1,2,0:0:0:0:
53,159,113419,1,0,0:0:0:0:
96,246,113546,1,2,0:0:0:0:
197,263,113674,6,0,P|329:258|422:163,1,272.000005187988,2|0,1:2|0:0,0:0:0:0:
495,92,114055,2,0,B|466:69|469:33|469:33|444:63|409:61,1,136.000002593994,2|8,0:0|0:0,0:0:0:0:
241,363,114437,6,0,P|287:327|300:270,1,120.000004577637,2|0,0:0|0:0,0:0:0:0:
121,144,114691,1,0,1:0:0:0:
196,262,114818,2,0,P|131:221|121:144,1,160,2|0,0:0|0:0,0:0:0:0:
42,40,115199,6,0,B|158:59|158:59|183:76|183:76|208:66|208:66|320:83,1,287.999991210938,8|0,0:0|0:0,0:0:0:0:
441,107,115581,1,2,0:0:0:0:
481,0,115708,6,0,P|365:60|348:192,1,272.000005187988,2|0,1:0|0:0,0:0:0:0:
375,280,116089,2,0,P|437:279|443:217,1,136.000002593994,2|8,0:0|0:0,0:0:0:0:
249,0,116471,6,0,P|300:27|320:83,1,120.000004577637,2|0,0:0|0:0,0:0:0:0:
171,265,116725,2,0,P|207:235|213:188,1,95.9999970703126,2|0,1:2|0:0,0:0:0:0:
347,193,116979,5,2,0:3:0:0:
331,181,117064,1,2,0:3:0:0:
324,199,117149,1,2,0:3:0:0:
332,193,117233,6,0,B|257:202|229:144|229:144|194:82|126:94,1,240.000009155274,10|0,0:0|0:0,0:0:0:0:
16,109,117615,1,2,0:0:0:0:
134,3,117742,6,0,B|86:75|111:153|111:153|75:95|19:93,1,272.000005187988,2|0,1:2|0:0,0:0:0:0:
0,281,118123,2,0,B|36:274|65:301|65:301|63:269|92:244,1,136.000002593994,2|8,0:0|0:0,0:0:0:0:
368,0,118505,6,0,P|317:43|308:109,1,136.000002593994,2|0,0:0|0:0,0:0:0:0:
378,384,118759,5,2,1:2:0:0:
341,305,118886,1,10,0:0:0:0:
383,198,119013,1,8,0:0:0:0:
512,145,119140,1,10,0:0:0:0:
471,226,119267,6,0,L|464:211,2,15.0000005722046,4|2|2,1:2|0:3|0:3,0:0:0:0:
381,217,119394,2,0,L|383:197,2,20,0|2|2,1:0|0:3|0:3,0:0:0:0:
289,155,119521,2,0,L|304:133,2,25,8|2|2,0:0|0:3|0:3,0:0:0:0:
240,35,119649,2,0,L|266:20,2,30.0000011444092,8|2|2,0:0|0:3|0:3,0:0:0:0:
406,86,119776,6,0,P|272:109|188:217,1,280.000002670288,6|0,1:0|0:0,0:0:0:0:
124,301,120157,2,0,P|160:352|213:317,1,140.000001335144,2|8,0:0|0:0,0:0:0:0:
10,12,120538,6,0,P|69:18|106:63,1,120.000004577637,2|0,0:0|0:0,0:0:0:0:
188,217,120793,2,0,P|142:204|115:166,1,95.9999970703126,2|0,1:2|0:0,0:0:0:0:
212,64,121047,5,2,0:3:0:0:
244,52,121132,1,2,0:3:0:0:
220,27,121216,1,2,0:3:0:0:
228,48,121301,6,0,P|262:154|293:278,1,240.000009155274,10|0,0:0|0:0,0:0:0:0:
404,244,121682,1,2,0:0:0:0:
321,380,121810,6,0,B|381:336|468:340|468:340|395:318|391:251,1,272.000005187988,2|0,1:2|0:0,0:0:0:0:
407,157,122191,2,0,B|444:152|466:124|466:124|457:158|474:187,1,136.000002593994,2|8,0:0|0:0,0:0:0:0:
84,222,122572,6,0,P|142:228|187:266,1,120.000004577637,2|0,0:0|0:0,0:0:0:0:
291,198,122827,5,0,1:0:0:0:
220,99,122954,2,0,P|290:133|307:208,1,160,2|0,3:2|0:0,0:0:0:0:
430,47,123335,6,0,P|437:105|407:156,1,120.000004577637,10|0,0:0|0:0,0:0:0:0:
422,348,123589,5,8,0:0:0:0:
429,364,123716,1,8,0:0:0:0:
312,341,123844,6,0,P|370:267|462:250,1,191.999994140625,6|0,1:0|0:0,0:0:0:0:
440,10,124225,2,0,P|485:21|516:59,1,95.9999970703126,2|8,0:0|0:0,0:0:0:0:
511,332,124479,2,0,P|481:216|438:105,1,240.000009155274,2|0,0:0|0:0,0:0:0:0:
270,92,124860,6,0,B|310:110|341:91|341:91|332:125|356:157,1,143.999995605469,2|0,1:2|0:0,0:0:0:0:
160,232,125115,2,0,B|156:188|125:171|125:171|158:161|175:125,1,143.999995605469,10|0,0:2|0:0,0:0:0:0:
338,251,125369,2,0,B|303:276|304:311|304:311|279:288|239:291,1,143.999995605469,10|0,0:2|0:0,0:0:0:0:
257,197,125623,5,4,0:3:0:0:
251,195,125687,5,4,0:3:0:0:
251,188,125750,5,4,0:3:0:0:
257,186,125814,5,4,0:3:0:0:
262,192,125877,5,6,1:0:0:0:
256,192,125961,12,4,128588,1:2:0:0:
256,192,128696,12,0,132066,0:0:0:0:
