osu file format v14

[General]
AudioFilename: audio.mp3
AudioLeadIn: 0
PreviewTime: 94733
Countdown: 0
SampleSet: Soft
StackLeniency: 0.7
Mode: 0
LetterboxInBreaks: 0
WidescreenStoryboard: 1

[Editor]
DistanceSpacing: 1
BeatDivisor: 4
GridSize: 8
TimelineZoom: 1

[Metadata]
Title:Asterlore (Game Ver.)
TitleUnicode:アスタロア (Game Ver.)
Artist:Suzuki Konomi
ArtistUnicode:鈴木このみ
Creator:Lize
Version:Easy
Source:Summer Pockets REFLECTION BLUE
Tags:Opening Key Visual Novel VN Japanese Pop J-Pop Jpop Video Game Garden Necho Skystar 魁 Kai 折戸伸治 Orito Shinji 塚越雄一朗 Tsukagoshi Yuichiro NanosizeMir visualarts arts galgame version サマーポケッツ Amamiya Yuko
BeatmapID:2922333
BeatmapSetID:1418402

[Difficulty]
HPDrainRate:2
CircleSize:2
OverallDifficulty:2
ApproachRate:4
SliderMultiplier:1.1
SliderTickRate:1

[Events]
//Background and Video events
0,0,"main (2).jpg",0,0
//Break Periods
2,42688,56422
//Storyboard Layer 0 (Background)
//Storyboard Layer 1 (Fail)
//Storyboard Layer 2 (Pass)
//Storyboard Layer 3 (Foreground)
//Storyboard Layer 4 (Overlay)
//Storyboard Sound Samples

[TimingPoints]
1200,677.966101694915,4,2,1,30,1,0
1888,641.711229946524,4,2,1,30,1,0
12155,655.737704918033,4,2,1,30,1,0
17400,666.666666666667,4,2,1,30,1,0
18733,731.707317073171,4,2,1,30,1,0
20196,759.493670886076,4,2,1,30,1,0
21714,617.283950617284,4,2,1,30,1,0
24183,508.474576271186,4,2,1,70,1,0
42488,-125,4,2,1,40,0,0
57742,-111.111111111111,4,2,1,50,0,0
59267,-111.111111111111,4,2,1,55,0,0
74013,-111.111111111111,4,2,1,60,0,0
75030,-111.111111111111,4,2,1,65,0,0
91301,-111.111111111111,4,2,1,75,0,0
92064,-111.111111111111,4,2,1,65,0,0
93335,-125,4,2,1,65,0,0
95369,-100,4,2,1,80,0,1
111640,-100,4,2,1,70,0,0
125877,677.966101694915,4,2,1,70,1,0
126554,-100,4,2,1,60,0,0
127232,-100,4,2,1,50,0,0
127910,-100,4,2,1,40,0,0
128588,869.565217391304,4,2,1,60,1,0
128805,-100,4,2,1,30,0,0

[Colours]
Combo1 : 128,255,128
Combo2 : 255,128,128
Combo3 : 128,128,255
Combo4 : 255,255,128

[HitObjects]
390,292,24183,6,0,P|346:260|291:257,1,110,6|8,1:0|0:0,0:0:0:0:
239,276,24945,2,0,L|264:113,1,165,2|8,0:0|0:0,0:0:0:0:
167,62,26216,2,0,P|86:53|23:102,2,165,2|2|8,1:2|0:0|0:0,0:0:0:0:
264,112,28250,5,2,1:0:0:0:
425,79,29013,2,0,L|444:242,1,165,2|10,0:0|0:0,0:0:0:0:
366,320,30284,2,0,L|257:337,1,110,2|8,1:2|0:0,0:0:0:0:
203,348,31047,2,0,P|246:280|222:204,1,165,2|4,0:0|1:2,0:0:0:0:
123,157,32318,5,6,1:0:0:0:
194,73,32827,1,8,0:0:0:0:
194,73,33081,2,0,L|302:55,1,110,2|2,0:0|0:3,0:0:0:0:
357,47,33844,1,10,0:0:0:0:
450,104,34352,1,2,1:2:0:0:
378,188,34860,1,8,0:0:0:0:
378,188,35114,2,0,L|214:213,1,165,2|10,0:0|0:0,0:0:0:0:
121,156,36386,6,0,P|100:206|111:259,1,110,6|8,1:0|0:0,0:0:0:0:
206,316,37403,2,0,P|226:266|215:213,1,110,2|10,1:2|0:2,0:0:0:0:
121,156,38420,1,6,1:0:0:0:
256,192,38674,12,6,40454,1:0:0:0:
256,192,40581,12,6,42488,1:0:0:0:
113,301,57742,6,0,L|47:309,2,65.9999979858399,10|4|4,0:0|1:2|1:2,0:0:0:0:
277,276,59267,5,6,3:1:0:0:
189,228,59776,2,0,P|152:165|172:96,1,148.49999546814,2|2,3:2|0:0,0:0:0:0:
210,65,60793,1,2,3:2:0:0:
269,151,61301,1,2,3:2:0:0:
269,151,61555,2,0,L|416:131,1,148.49999546814,2|0,0:0|3:0,0:0:0:0:
495,192,62827,5,2,3:2:0:0:
430,266,63335,2,0,L|332:280,1,98.9999969787599,2|2,3:2|3:2,0:0:0:0:
264,353,64352,1,2,3:2:0:0:
178,303,64860,2,0,L|190:204,1,98.9999969787599,2|2,3:2|3:2,0:0:0:0:
197,155,65623,1,2,0:0:0:0:
296,156,66132,2,0,L|308:57,1,98.9999969787599,2|0,0:2|0:2,0:0:0:0:
282,16,66894,6,0,P|209:12|158:63,2,148.49999546814,2|2|2,3:2|0:0|3:2,0:0:0:0:
370,60,68928,2,0,L|357:158,1,98.9999969787599,2|2,3:2|3:2,0:0:0:0:
402,192,69691,1,2,0:0:0:0:
402,192,69945,2,0,P|411:239|391:284,1,98.9999969787599,2|2,3:2|3:2,0:0:0:0:
294,269,70962,6,0,L|196:284,1,98.9999969787599,2|2,3:2|3:2,0:0:0:0:
151,296,71725,1,2,0:0:0:0:
151,296,71979,2,0,L|165:198,1,98.9999969787599,2|2,3:2|3:2,0:0:0:0:
180,100,72996,2,0,L|326:76,1,148.49999546814,2|0,3:2|0:0,0:0:0:0:
375,68,74013,1,8,1:3:0:0:
456,124,74521,1,8,0:0:0:0:
386,194,75030,6,0,P|345:281|389:366,2,197.99999395752,6|8|2,3:1|0:0|3:2,0:0:0:0:
512,43,78081,1,10,0:0:0:0:
320,91,79098,6,0,L|123:71,2,197.99999395752,2|8|2,3:2|0:0|3:2,0:0:0:0:
372,282,82149,2,0,L|274:273,1,98.9999969787599,10|10,0:0|0:0,0:0:0:0:
230,183,83166,6,0,P|172:259|203:349,2,197.99999395752,6|8|2,3:1|0:0|3:2,0:0:0:0:
31,190,86216,2,0,L|47:92,1,98.9999969787599,12|8,0:0|3:0,0:0:0:0:
64,48,86979,1,8,3:0:0:0:
64,48,87233,6,0,L|211:29,1,148.49999546814,6|0,3:1|0:0,0:0:0:0:
260,22,88250,1,2,3:2:0:0:
356,42,88759,1,2,3:2:0:0:
452,62,89267,2,0,L|436:160,1,98.9999969787599,2|2,3:2|3:2,0:0:0:0:
337,172,90284,2,0,L|321:270,1,98.9999969787599,2|2,3:2|3:2,0:0:0:0:
401,327,91301,6,0,L|474:314,2,74.2499977340699,12|12|8,0:0|0:0|3:0,0:0:0:0:
363,359,92318,2,0,L|265:375,1,98.9999969787599,4|0,3:2|0:0,0:0:0:0:
155,372,93335,2,0,P|72:281|134:174,1,264,4|14,3:2|0:0,0:0:0:0:
243,165,95369,6,0,L|229:55,1,110,6|10,1:0|0:0,0:0:0:0:
225,5,96132,1,2,0:3:0:0:
225,5,96386,1,2,1:2:0:0:
116,23,96894,2,0,L|122:77,1,55,10|2,0:0|0:3,0:0:0:0:
128,132,97403,2,0,P|74:127|28:157,1,110,2|10,1:2|0:0,0:0:0:0:
6,263,98420,1,2,1:2:0:0:
74,349,98928,6,0,P|127:353|173:323,1,110,10|2,0:0|1:2,0:0:0:0:
203,217,99945,2,0,L|256:204,1,55,10|2,0:0|0:3,0:0:0:0:
304,231,100454,1,2,1:2:0:0:
393,167,100962,1,10,0:0:0:0:
484,231,101471,2,0,P|504:280|492:334,2,110,2|2|2,1:2|1:2|1:2,0:0:0:0:
393,167,102996,2,0,L|399:112,1,55,10|8,0:0|0:0,0:0:0:0:
405,57,103505,5,6,1:0:0:0:
309,0,104013,2,0,P|288:51|301:104,1,110,10|2,0:2|1:2,0:0:0:0:
393,167,105030,1,10,0:0:0:0:
343,265,105538,2,0,P|290:277|239:257,1,110,2|10,1:2|0:0,0:0:0:0:
144,201,106555,2,0,B|102:101|102:101|126:50,1,165,2|2,1:2|0:3,0:0:0:0:
155,3,107572,5,2,1:2:0:0:
245,74,108081,1,12,0:0:0:0:
245,74,108335,2,0,L|351:47,1,110,2|4,0:0|0:3,0:0:0:0:
405,36,109098,1,12,0:0:0:0:
496,96,109606,2,0,L|486:177,2,82.5,4|4|4,1:2|1:2|1:2,0:0:0:0:
493,370,111640,6,0,P|439:375|394:344,1,110,6|8,1:0|0:0,0:0:0:0:
379,291,112403,2,0,L|216:261,1,165,2|8,0:0|0:0,0:0:0:0:
108,243,113674,1,2,1:2:0:0:
112,77,114437,2,0,L|274:106,1,165,2|8,0:0|0:0,0:0:0:0:
365,44,115708,6,0,P|443:27|512:70,2,165,2|2|10,1:0|0:0|0:0,0:0:0:0:
274,106,117742,2,0,L|290:214,1,110,2|8,1:2|0:0,0:0:0:0:
324,258,118505,2,0,P|296:303|244:318,1,110,2|10,0:0|0:2,0:0:0:0:
193,300,119267,1,4,1:2:0:0:
129,210,119776,6,0,L|108:46,2,165,6|2|10,1:0|0:0|0:0,0:0:0:0:
37,271,121810,2,0,P|28:323|59:367,1,110,2|8,1:2|0:0,0:0:0:0:
113,378,122572,2,0,L|277:354,1,165,2|10,0:0|0:0,0:0:0:0:
335,348,123589,1,8,0:0:0:0:
335,348,123844,5,6,1:0:0:0:
421,280,124352,1,10,0:0:0:0:
339,206,124860,2,0,L|175:230,1,165,2|4,1:2|0:3,0:0:0:0:
124,238,125877,1,6,1:0:0:0:
256,192,126215,12,4,128588,1:2:0:0:
256,192,128805,12,0,132066,0:0:0:0:
