osu file format v14

[General]
AudioFilename: AS.mp3
AudioLeadIn: 1500
PreviewTime: 63344
Countdown: 0
SampleSet: Soft
StackLeniency: 0.7
Mode: 0
LetterboxInBreaks: 0
WidescreenStoryboard: 0

[Editor]
Bookmarks: 20265,22978,30478,31914,32553,33031,37659,37898,38138,42765,43005,43244,43404,52978,53297,55691,55851,58244,59521,60797,62393
DistanceSpacing: 1.2
BeatDivisor: 4
GridSize: 4
TimelineZoom: 3.019999

[Metadata]
Title:Absolute Soul
TitleUnicode:Absolute Soul
Artist:Suzuki Konomi
ArtistUnicode:鈴木このみ
Creator:Owntrolf
Version:theramdans' Hard
Source:アブソリュート・デュオ
Tags:Duo Opening theramdans tv size meme
BeatmapID:649228
BeatmapSetID:255287

[Difficulty]
HPDrainRate:5
CircleSize:4
OverallDifficulty:6
ApproachRate:7.5
SliderMultiplier:1.4
SliderTickRate:1

[Events]
//Background and Video events
Video,233,"Secondoptrymute_xvid.avi"
0,0,"newbg.png",0,0
//Break Periods
//Storyboard Layer 0 (Background)
//Storyboard Layer 1 (Fail)
//Storyboard Layer 2 (Pass)
//Storyboard Layer 3 (Foreground)
//Storyboard Sound Samples

[TimingPoints]
233,319.148936170213,4,2,1,55,1,0
552,-100,4,2,1,55,0,0
2147,-100,4,2,2,55,0,0
2626,-100,4,2,1,55,0,1
2945,-100,4,2,1,55,0,0
11562,-100,4,2,2,55,0,0
12520,-100,4,2,2,25,0,0
12998,-133.333333333333,4,2,1,50,0,0
21775,-133.333333333333,4,2,2,55,0,0
22094,-133.333333333333,4,2,2,60,0,0
22413,-133.333333333333,4,2,2,50,0,0
23211,-100,4,2,1,55,0,0
34062,-100,4,2,2,55,0,0
43637,-111.111111111111,4,2,2,55,0,0
44594,-125,4,2,0,40,0,0
51296,-100,4,2,1,40,0,0
52413,-100,4,2,1,40,0,0
53211,-100,4,2,0,40,0,0
53850,-125,4,2,1,45,0,0
58796,-100,4,2,1,55,0,0
61350,-100,4,2,1,65,0,0
62945,-100,4,2,0,25,0,0
63264,-100,4,2,0,5,0,0
63424,-100,4,2,0,40,0,0
63903,-100,4,2,1,70,0,1
73477,-100,4,2,1,70,0,0
74115,-100,4,2,1,70,0,1
85924,-100,4,2,2,80,0,1
86881,-74.0740740740741,4,2,2,80,0,0

[Colours]
Combo1 : 228,228,228
Combo2 : 251,70,134
Combo3 : 245,226,169
Combo4 : 4,131,179

[HitObjects]
237,117,233,5,2,0:0:0:0:
161,84,392,1,2,0:0:0:0:
80,108,552,2,0,B|73:177,1,70,12|2,0:0|0:0,0:0:0:0:
65,261,871,1,2,0:0:0:0:
100,336,1030,2,0,P|129:352|169:354,1,70,12|2,0:0|0:0,0:0:0:0:
242,320,1350,1,2,0:0:0:0:
324,334,1509,5,8,0:3:0:0:
429,184,1828,1,8,0:3:0:0:
316,39,2147,1,8,0:0:0:0:
316,39,2307,1,8,0:0:0:0:
168,118,2626,6,0,P|140:181|156:247,1,140,6|2,0:0|0:0,0:0:0:0:
219,303,3105,1,8,0:0:0:0:
297,331,3264,1,2,0:0:0:0:
370,289,3424,2,0,P|390:252|391:217,1,70,2|0,0:0|0:0,0:0:0:0:
382,141,3743,2,0,L|314:118,1,70,8|0,0:0|0:0,0:0:0:0:
342,38,4062,2,0,L|408:60,2,70,2|2|8,0:0|0:0|0:0,0:0:0:0:
257,35,4541,2,0,B|214:51|161:31|161:31|150:69|113:77,1,140,2|2,0:0|0:0,0:0:0:0:
105,142,5020,1,8,0:0:0:0:
138,218,5179,6,0,P|192:243|266:208,1,140,6|2,0:0|0:0,0:0:0:0:
309,284,5658,1,8,0:0:0:0:
249,343,5818,1,0,0:0:0:0:
166,355,5977,2,0,P|128:356|94:334,1,70,2|2,0:0|0:0,0:0:0:0:
49,274,6296,1,8,0:0:0:0:
55,190,6456,2,0,B|78:146|78:146|124:162|165:144,1,140,2|2,0:0|0:0,0:0:0:0:
217,86,6935,1,8,0:0:0:0:
217,86,7094,2,0,P|199:154|219:220,1,140,2|2,0:0|0:0,0:0:0:0:
289,264,7573,1,8,0:0:0:0:
323,187,7733,6,0,P|372:140|440:148,1,140,6|2,0:0|0:0,0:0:0:0:
476,224,8211,1,8,0:0:0:0:
448,303,8371,1,0,0:0:0:0:
371,337,8530,2,0,B|334:340|334:340|301:334,1,70,2|2,0:0|0:0,0:0:0:0:
220,316,8850,1,8,0:0:0:0:
220,316,9009,1,0,0:0:0:0:
142,273,9169,2,0,P|134:325|142:349,2,70,2|2|8,0:0|0:0|0:0,0:0:0:0:
167,193,9647,2,0,B|186:154|176:109|176:109|210:123|244:109,1,140,2|2,0:0|0:0,0:0:0:0:
283,49,10126,1,8,0:0:0:0:
365,65,10286,6,0,B|442:86|442:86|481:132,1,140,6|2,0:0|0:0,0:0:0:0:
452,211,10764,1,8,0:0:0:0:
372,239,10924,1,2,0:0:0:0:
308,185,11084,2,0,P|271:164|238:161,1,70,2|0,0:0|0:0,0:0:0:0:
160,171,11403,1,8,0:0:0:0:
83,204,11562,2,0,P|58:271|90:329,1,140,2|2,0:0|0:0,0:0:0:0:
256,313,12201,2,0,B|294:326|294:326|307:300|307:300|380:308|444:268,1,210
438,59,12998,6,0,L|331:39,1,105.000004005432,6|2,0:0|0:0,0:0:0:0:
264,16,13477,1,2,0:3:0:0:
206,64,13637,2,0,P|161:89|109:85,1,105.000004005432,2|0,0:0|0:0,0:0:0:0:
65,27,14115,2,0,P|38:70|45:121,1,105.000004005432,2|2,0:3|0:3,0:0:0:0:
37,193,14594,2,0,B|78:202|106:166|106:166|154:166|177:193,1,157.500006008148,2|0,0:0|0:0,0:0:0:0:
183,267,15233,2,0,P|179:292|156:317,1,52.5000020027161,2|2,0:0|0:3,0:0:0:0:
306,286,15711,6,0,L|306:346,2,52.5000020027161,2|2|2,0:3|0:0|0:3,0:0:0:0:
325,214,16190,2,0,P|375:226|424:210,1,105.000004005432,2|2,0:0|0:0,0:0:0:0:
497,224,16669,2,0,P|492:183|434:136,1,105.000004005432,2|2,0:3|0:3,0:0:0:0:
379,115,17147,1,2,0:0:0:0:
237,155,17467,1,2,0:0:0:0:
170,122,17626,2,0,P|165:173|194:215,1,105.000004005432,2|2,0:3|0:3,0:0:0:0:
287,102,18264,6,0,L|281:42,2,52.5000020027161,2|2|2,0:3|0:0|0:3,0:0:0:0:
336,156,18743,2,0,P|385:146|437:160,1,105.000004005432,2|2,0:0|0:0,0:0:0:0:
476,222,19222,2,0,B|488:273|488:273|479:326,1,105.000004005432,2|2,0:3|0:3,0:0:0:0:
406,326,19701,1,2,0:0:0:0:
248,356,20020,1,2,0:0:0:0:
248,356,20179,1,2,0:3:0:0:
109,307,20498,6,0,P|98:256|101:204,1,105.000004005432,2|2,0:3|0:3,0:0:0:0:
118,131,20977,1,2,0:0:0:0:
216,21,21296,1,2,0:0:0:0:
355,66,21615,1,2,0:0:0:0:
355,66,21775,6,0,L|375:182,1,105.000004005432,8|8,0:3|0:3,0:0:0:0:
257,293,22413,2,0,L|239:189,1,105.000004005432,8|8,0:3|0:3,0:0:0:0:
221,48,23052,1,8,0:0:0:0:
221,48,23131,1,8,0:0:0:0:
221,48,23211,6,0,P|190:33|153:40,1,70,6|2,0:0|0:0,0:0:0:0:
90,91,23530,1,8,0:0:0:0:
56,168,23690,1,2,0:0:0:0:
93,243,23850,2,0,B|162:247|162:247|228:225,1,140,2|8,0:0|0:0,0:0:0:0:
260,147,24328,2,0,P|258:214|302:267,1,140,2|2,0:0|0:0,0:0:0:0:
382,293,24807,2,0,P|314:298|269:349,1,140,8|2,0:0|0:0,0:0:0:0:
197,306,25286,2,0,P|162:303|127:308,1,70,2|8,0:0|0:0,0:0:0:0:
63,253,25605,1,2,0:0:0:0:
78,170,25764,1,2,0:0:0:0:
130,104,25924,6,0,P|160:99|202:123,1,70,2|8,0:0|0:0,0:0:0:0:
260,168,26243,1,2,0:0:0:0:
329,120,26403,2,0,P|391:91|460:98,1,140,2|8,0:0|0:0,0:0:0:0:
476,180,26881,2,0,B|484:251|484:251|465:331,1,140,2|0,0:0|0:0,0:0:0:0:
384,315,27360,2,0,B|376:244|376:244|395:164,1,140,8|2,0:0|0:0,0:0:0:0:
329,120,27839,2,0,B|295:107|254:119|254:119|222:102|214:41,1,140,8|8,0:0|0:0,0:0:0:0:
137,92,28318,1,2,0:0:0:0:
59,60,28477,6,0,L|30:123,2,70,2|8|2,0:0|0:0|0:0,0:0:0:0:
137,92,28956,2,0,B|128:131|131:161|131:161|160:188|152:224,1,140,2|8,0:0|0:0,0:0:0:0:
96,288,29435,2,0,P|152:259|239:271,1,140,2|2,0:0|0:0,0:0:0:0:
251,345,29913,1,8,0:0:0:0:
407,280,30233,1,2,0:0:0:0:
407,280,30392,1,0,0:0:0:0:
210,202,30711,6,0,B|175:175|175:175|71:190,1,140,6|2,0:0|0:0,0:0:0:0:
31,119,31190,2,0,L|170:99,1,140,8|2,0:0|0:0,0:0:0:0:
249,73,31669,2,0,P|274:54|306:11,1,70,2|8,0:0|0:0,0:0:0:0:
368,73,31988,1,2,0:0:0:0:
368,73,32147,6,2,P|356:143|390:218,1,140,6|2,0:0|0:0,0:0:0:0:
453,357,32786,2,0,P|358:313|259:343,1,210,2|2,0:3|0:3,0:0:0:0:
177,336,33424,1,6,0:0:0:0:
124,271,33584,6,0,L|50:284,2,70,8|2|8,0:0|0:0|0:0,0:0:0:0:
163,197,34062,2,0,P|150:147|149:94,2,105,8|8|8,0:3|0:3|0:3,0:0:0:0:
222,256,34701,1,2,0:0:0:0:
302,279,34860,6,0,P|370:289|435:252,1,140,8|8,0:0|0:0,0:0:0:0:
451,174,35339,2,0,L|457:64,2,105,8|8|8,0:3|0:3|0:3,0:0:0:0:
368,188,35977,1,2,0:0:0:0:
291,152,36137,6,0,B|252:131|252:131|153:131,1,140,8|8,0:0|0:0,0:0:0:0:
78,161,36615,2,0,B|69:222|69:222|78:265,2,105,8|8|8,0:3|0:3|0:3,0:0:0:0:
84,75,37254,6,0,P|124:44|176:43,2,105,8|2|2,0:0|0:3|0:3,0:0:0:0:
78,161,37892,1,8,0:0:0:0:
158,255,38131,1,2,0:3:0:0:
87,359,38371,1,2,0:3:0:0:
194,346,38530,6,0,B|231:324|231:324|272:339|331:324,1,140,6|8,0:0|0:0,0:0:0:0:
398,280,39009,1,2,0:0:0:0:
436,205,39169,2,0,L|433:88,2,105,8|8|8,0:3|0:3|0:3,0:0:0:0:
353,223,39807,1,2,0:0:0:0:
271,197,39967,6,0,P|264:129|295:67,1,140,12|8,0:0|0:0,0:0:0:0:
374,38,40445,2,0,P|424:45|486:22,2,105,8|8|8,0:3|0:3|0:3,0:0:0:0:
357,121,41084,1,2,0:0:0:0:
273,129,41243,6,0,B|201:125|201:125|121:145,1,140,12|8,0:0|0:0,0:0:0:0:
82,206,41722,2,0,P|85:258|100:308,2,105,8|8|0,0:3|0:3|0:3,0:0:0:0:
56,125,42360,6,0,P|52:72|37:22,2,105,12|2|2,0:2|0:3|0:3,0:0:0:0:
82,206,42998,1,10,0:0:0:0:
191,143,43238,1,2,0:3:0:0:
285,226,43477,1,2,0:3:0:0:
315,129,43637,6,0,B|367:145|409:66|409:66|468:113|466:171|466:171|430:238|363:241,1,377.999988464356,6|0,0:0|0:0,0:0:0:0:
226,318,44913,2,0,L|88:323,1,112
15,200,45552,2,0,L|126:195,1,112,2|0,0:0|0:0,0:0:0:0:
231,78,46190,6,0,P|296:119|305:206,1,168,2|2,0:0|0:0,0:0:0:0:
76,244,47147,1,0,0:0:0:0:
76,244,47307,1,0,0:0:0:0:
76,244,47467,2,0,P|57:192|54:137,1,112
175,34,48105,1,2,0:0:0:0:
482,95,48743,6,0,P|445:120|370:104,1,112,2|0,0:0|0:0,0:0:0:0:
308,83,49222,2,0,L|189:106,1,112,2|0,0:0|0:0,0:0:0:0:
138,155,49701,2,0,P|141:259|241:291,1,224,2|0,0:0|0:0,0:0:0:0:
397,267,50658,2,0,L|431:316,2,56,2|0|2,0:3|0:0|0:3,0:0:0:0:
350,204,51137,1,4,0:3:0:0:
309,130,51296,6,0,B|287:94|287:94|248:112|191:93,1,140,6|0,0:0|0:0,0:0:0:0:
152,18,51775,2,0,P|158:87|136:152,1,140,8|8,0:0|0:0,0:0:0:0:
88,224,52254,1,2,0:0:0:0:
178,365,52573,1,2,0:0:0:0:
296,248,52892,1,2,0:0:0:0:
220,96,53211,2,0,B|288:81|288:81|360:93,1,140
455,184,53690,1,0,0:0:0:0:
455,184,53850,6,0,P|417:223|354:237,1,112,6|0,0:0|0:0,0:0:0:0:
301,285,54328,1,2,0:0:0:0:
227,256,54488,2,0,B|193:212|211:148,1,112,8|0,0:0|0:0,0:0:0:0:
266,93,54967,2,0,P|214:108|154:82,1,112,8|8,0:3|0:3,0:0:0:0:
84,97,55445,1,2,0:0:0:0:
56,170,55605,2,0,P|43:225|63:280,1,112,2|0,0:0|0:0,0:0:0:0:
123,323,56084,2,0,P|158:324|187:341,1,56,2|8,0:0|0:0,0:0:0:0:
255,343,56403,6,0,P|337:333|402:282,1,168,2|2,0:0|0:0,0:0:0:0:
431,208,57041,2,0,P|441:154|418:103,1,112,8|0,0:0|0:0,0:0:0:0:
359,51,57520,2,0,B|315:35|277:60|277:60|201:17|144:36,1,224,8|2,0:3|0:0,0:0:0:0:
69,58,58318,1,8,0:0:0:0:
9,108,58477,2,0,L|26:174,1,56,2|8,0:0|0:0,0:0:0:0:
53,240,58796,6,0,P|111:321|211:311,1,210,6|2,0:0|0:0,0:0:0:0:
237,230,59435,1,8,0:3:0:0:
280,67,59754,2,0,P|314:59|353:69,1,70,2|8,0:0|0:0,0:0:0:0:
426,95,60073,2,0,B|418:149|447:175|447:175|427:201|427:201|466:233|453:297,1,210,6|2,0:0|0:0,0:0:0:0:
431,363,60711,1,8,0:3:0:0:
263,356,61030,2,0,B|224:365|224:365|184:356,1,70,2|8,0:0|0:0,0:0:0:0:
146,288,61350,6,0,L|133:148,1,140,6|2,0:0|0:0,0:0:0:0:
200,99,61828,1,8,0:0:0:0:
282,114,61988,1,8,0:0:0:0:
361,86,62147,2,0,P|395:85|429:64,2,70,2|2|8,0:0|0:0|0:3,0:0:0:0:
358,170,62626,6,0,P|326:317|197:241,1,350
290,234,63584,1,0,0:0:0:0:
249,71,63903,6,0,B|168:80|168:80|87:56,1,140,6|2,0:0|0:0,0:0:0:0:
30,43,64381,2,0,P|16:84|17:116,1,70,8|0,0:0|0:0,0:0:0:0:
87,157,64701,2,0,L|171:182,2,70,2|0|8,0:0|0:0|0:0,0:0:0:0:
22,211,65179,6,0,B|17:258|35:281|35:281|76:270|116:297,1,140,2|2,0:0|0:0,0:0:0:0:
179,316,65658,1,8,0:0:0:0:
258,288,65818,2,0,B|287:262|287:262|333:277|387:261,1,140,2|2,0:0|0:0,0:0:0:0:
441,198,66296,1,8,0:0:0:0:
468,117,66456,6,0,P|401:124|358:178,1,140,6|2,0:0|0:0,0:0:0:0:
326,256,66935,2,0,P|292:313|225:310,1,140,8|2,0:0|0:0,0:0:0:0:
148,275,67413,1,2,0:0:0:0:
126,193,67573,1,8,0:0:0:0:
157,114,67733,6,0,L|299:110,1,140,2|2,0:0|0:0,0:0:0:0:
366,63,68211,1,8,0:0:0:0:
296,15,68371,2,0,L|156:18,1,140,2|2,0:0|0:0,0:0:0:0:
85,63,68850,1,8,0:0:0:0:
36,131,69009,6,0,P|13:193|37:270,1,140,6|2,0:0|0:0,0:0:0:0:
67,338,69488,1,8,0:0:0:0:
150,348,69647,2,0,P|185:344|217:357,2,70,0|2|2,0:0|0:0|0:0,0:0:0:0:
120,269,70126,1,8,0:0:0:0:
179,213,70286,6,0,P|116:187|55:217,1,140,2|2,0:0|0:0,0:0:0:0:
120,269,70764,1,8,0:0:0:0:
107,110,70924,2,0,P|178:120|241:162,1,140,2|2,0:0|0:0,0:0:0:0:
274,230,71403,1,8,0:0:0:0:
355,210,71562,6,0,B|360:271|319:297|319:297|350:352,1,140,6|2,0:0|0:0,0:0:0:0:
416,365,72041,1,8,0:0:0:0:
477,307,72201,2,0,L|478:166,1,140,2|2,0:0|0:0,0:0:0:0:
444,90,72679,1,8,0:0:0:0:
378,36,72839,6,0,B|326:19|326:19|239:33,1,140,2|2,0:0|0:0,0:0:0:0:
159,49,73318,1,8,0:0:0:0:
97,105,73477,1,8,0:3:0:0:
90,357,73956,1,0,0:0:0:0:
145,295,74115,6,0,P|218:283|268:323,1,140,6|2,0:0|0:0,0:0:0:0:
348,300,74594,2,0,P|364:268|365:234,1,70,8|0,0:0|0:0,0:0:0:0:
418,170,74913,2,0,P|443:124|466:110,1,70,2|2,0:0|0:0,0:0:0:0:
414,41,75233,1,8,0:0:0:0:
414,41,75392,6,0,P|365:90|334:152,1,140,2|2,0:0|0:0,0:0:0:0:
256,187,75871,1,8,0:0:0:0:
181,149,76030,2,0,P|116:133|58:177,1,140,2|2,0:0|0:0,0:0:0:0:
132,216,76509,1,8,0:0:0:0:
205,256,76669,6,0,P|274:272|331:229,1,140,6|2,0:0|0:0,0:0:0:0:
256,187,77147,1,8,0:0:0:0:
256,187,77307,2,0,L|290:342,1,140,2|2,0:0|0:0,0:0:0:0:
365,352,77786,1,8,0:0:0:0:
422,291,77945,6,0,B|431:223|431:223|409:151,1,140,2|2,0:0|0:0,0:0:0:0:
357,88,78424,1,8,0:0:0:0:
284,44,78584,2,0,P|220:66|146:44,1,140,8|8,0:0|0:0,0:0:0:0:
54,184,79222,6,0,P|40:249|92:290,1,140,6|2,0:0|0:0,0:0:0:0:
172,319,79701,1,8,0:0:0:0:
240,270,79860,1,0,0:0:0:0:
323,271,80020,2,0,P|357:279|387:297,1,70,2|2,0:0|0:0,0:0:0:0:
465,329,80339,1,8,0:0:0:0:
461,245,80498,6,0,P|399:199|332:186,1,140,6|2,0:0|0:0,0:0:0:0:
255,199,80977,1,8,0:0:0:0:
179,162,81137,2,0,B|157:117|157:117|112:135|70:110,1,140,2|2,0:0|0:0,0:0:0:0:
121,44,81615,1,8,0:0:0:0:
205,35,81775,6,0,B|257:65|306:38|306:38|358:69|353:131,1,210,6|8,0:0|0:0,0:0:0:0:
365,207,82413,2,0,B|338:224|338:224|305:210|305:210|246:242|163:211,1,210,2|8,0:0|0:0,0:0:0:0:
87,185,83052,2,0,P|44:189|14:208,2,70,2|2|8,0:0|0:0|0:0,0:0:0:0:
173,329,83690,5,10,0:0:0:0:
289,208,84009,1,10,0:0:0:0:
413,320,84328,1,8,0:3:0:0:
417,152,84647,6,0,P|430:113|429:84,1,70,2|8,0:0|0:0,0:0:0:0:
367,26,84967,1,8,0:3:0:0:
286,48,85126,2,0,L|191:58,1,70,8|8,0:0|0:0,0:0:0:0:
142,95,85445,1,8,0:3:0:0:
97,166,85605,2,0,P|72:227|100:303,1,140,8|8,0:3|0:3,0:0:0:0:
172,266,86084,5,8,0:0:0:0:
194,347,86243,1,8,0:0:0:0:
267,306,86403,2,0,L|281:235,2,70,8|8|8,0:3|0:0|0:0,0:0:0:0:
344,358,86881,6,0,B|371:324|431:337|431:337|407:283|433:229|433:229|389:241|353:223,1,283.500001081467,8|2,0:3|0:0,0:0:0:0:
