osu file format v14

[General]
AudioFilename: AS.mp3
AudioLeadIn: 1500
PreviewTime: 63344
Countdown: 0
SampleSet: Soft
StackLeniency: 0.7
Mode: 0
LetterboxInBreaks: 0
WidescreenStoryboard: 0

[Editor]
DistanceSpacing: 1
BeatDivisor: 4
GridSize: 4
TimelineZoom: 2.3

[Metadata]
Title:Absolute Soul
TitleUnicode:Absolute Soul
Artist:Suzuki Konomi
ArtistUnicode:鈴木このみ
Creator:Owntrolf
Version:Easy
Source:アブソリュート・デュオ
Tags:Duo Opening theramdans tv size meme
BeatmapID:585277
BeatmapSetID:255287

[Difficulty]
HPDrainRate:2
CircleSize:3
OverallDifficulty:2
ApproachRate:3
SliderMultiplier:0.799999999999999
SliderTickRate:1

[Events]
//Background and Video events
Video,233,"Secondoptrymute_xvid.avi"
0,0,"newbg.png",0,0
//Break Periods
//Storyboard Layer 0 (Background)
//Storyboard Layer 1 (Fail)
//Storyboard Layer 2 (Pass)
//Storyboard Layer 3 (Foreground)
//Storyboard Sound Samples

[TimingPoints]
233,319.148936170213,4,2,1,55,1,0
2147,-100,4,2,2,55,0,0
2626,-100,4,2,1,55,0,0
11562,-100,4,2,2,55,0,0
12998,-100,4,2,1,60,0,0
21775,-100,4,2,2,55,0,0
22094,-100,4,2,2,60,0,0
22413,-100,4,2,2,50,0,0
23211,-100,4,2,1,55,0,0
34062,-100,4,2,2,55,0,0
44594,-100,4,2,0,40,0,0
52413,-100,4,3,1,40,0,0
53211,-100,4,2,0,40,0,0
53850,-100,4,3,0,45,0,0
58796,-100,4,3,0,55,0,0
61350,-100,4,3,0,65,0,0
63424,-100,4,2,0,40,0,0
63903,-100,4,2,1,70,0,1
72839,-100,4,2,0,70,0,1
73158,-100,4,2,1,70,0,1
73477,-100,4,2,1,70,0,0
74115,-100,4,2,1,70,0,1
84647,-100,4,2,1,80,0,1
85924,-100,4,2,2,80,0,1
86881,-100,4,2,0,80,0,0
87041,-100,4,2,2,70,0,0

[Colours]
Combo1 : 228,228,228
Combo2 : 251,70,134
Combo3 : 245,226,169
Combo4 : 4,131,179

[HitObjects]
30,231,233,6,0,P|74:239|118:227,1,79.9999999999999,0|4,1:0|1:2,0:0:0:0:
222,193,1030,1,4,1:2:0:0:
219,72,1509,2,0,L|146:39,2,79.9999999999999,0|0|4,1:0|1:0|0:0,0:0:0:0:
320,136,2626,6,0,P|334:185|318:255,1,120,4|0,0:0|1:0,0:0:0:0:
268,312,3424,2,0,B|216:320|188:296|188:296|160:268|104:268,2,160,0|0|0,0:0|0:0|0:0,0:0:0:0:
348,300,5020,2,0,L|384:268,1,40,0|4,1:0|0:0,0:0:0:0:
396,156,5658,5,0,1:0:0:0:
427,82,5977,2,0,P|357:84|337:99,1,79.9999999999999,0|0,0:0|1:0,0:0:0:0:
285,43,6615,2,0,P|271:84|317:161,1,120,0|0,0:0|0:0,0:0:0:0:
424,252,7733,6,0,P|488:216|512:172,1,120,4|0,0:0|1:0,0:0:0:0:
496,100,8530,2,0,P|461:75|418:62,1,79.9999999999999,0|0,0:0|1:0,0:0:0:0:
352,92,9169,2,0,P|326:160|336:209,1,120,0|0,0:0|1:0,0:0:0:0:
372,276,9967,2,0,P|336:284|280:264,1,79.9999999999999,0|4,1:0|0:0,0:0:0:0:
184,232,10764,5,0,1:0:0:0:
184,152,11084,2,0,P|220:108|296:104,1,120,0|4,0:0|0:0,0:0:0:0:
352,130,11881,1,4,0:0:0:0:
399,194,12201,1,4,0:0:0:0:
279,353,12998,5,2,0:0:0:0:
253,194,13637,1,2,0:0:0:0:
107,128,14275,1,2,0:0:0:0:
16,261,14913,2,0,B|77:333|162:285,1,160,2|2,0:0|0:0,0:0:0:0:
292,204,16190,5,2,0:0:0:0:
400,84,16828,2,0,B|485:125|461:229,2,160,2|2|2,0:0|0:0|0:0,0:0:0:0:
248,140,18743,5,2,0:0:0:0:
240,300,19381,2,0,P|288:340|388:336,2,160,2|2|2,0:0|0:0|0:0,0:0:0:0:
200,232,20977,1,0,0:0:0:0:
80,336,21615,6,0,L|56:300,1,40,0|12,0:0|0:0,0:0:0:0:
28,228,22094,2,0,P|35:171|56:146,1,79.9999999999999,12|12,0:0|0:0,0:0:0:0:
120,121,22733,1,12,0:0:0:0:
176,228,23211,5,0,0:0:0:0:
332,187,23850,2,0,B|395:175|404:132|404:132|439:134|439:134|460:97,2,160,0|0|0,0:0|0:0|0:0,0:0:0:0:
292,344,25764,1,0,0:0:0:0:
172,256,26403,2,0,P|95:224|52:156,1,160,0|0,0:0|0:0,0:0:0:0:
200,96,27679,1,0,1:0:0:0:
306,215,28318,6,0,L|350:383,2,160
144,228,30233,2,0,P|104:272|4:248,1,160,0|0,0:0|0:0,0:0:0:0:
69,201,31190,2,0,P|50:144|121:69,1,160,0|0,1:0|1:0,0:0:0:0:
130,149,32147,2,0,P|188:161|217:260,1,160,4|8,0:0|0:0,0:0:0:0:
122,374,33424,5,8,0:0:0:0:
69,223,34062,1,12,0:0:0:0:
225,189,34701,2,0,L|321:336,2,160,0|12|4,0:0|0:0|3:0,0:0:0:0:
282,39,36615,5,12,0:0:0:0:
440,60,37254,2,0,B|464:104|436:142|436:142|408:184|436:232,1,160,12|12,0:0|0:0,0:0:0:0:
313,324,38530,1,0,0:0:0:0:
199,210,39169,1,12,0:0:0:0:
85,323,39807,6,0,P|37:272|41:185,2,160,0|12|0,0:0|0:0|0:0,0:0:0:0:
199,210,41722,1,12,0:0:0:0:
312,96,42360,2,0,P|359:146|355:233,1,160,12|12,0:0|0:0,0:0:0:0:
256,192,43637,12,2,46190,0:0:0:0:
52,116,47467,6,0,P|104:184|188:188,1,160,2|2,0:0|0:0,0:0:0:0:
328,148,48743,2,0,P|376:128|456:144,1,120,2|2,0:0|0:0,0:0:0:0:
396,248,49701,2,0,B|376:288|340:304|340:304|276:256|276:256|240:272|200:256,1,240,2|4,0:0|3:0,0:0:0:0:
124,112,51296,6,0,P|78:60|1:42,2,120,4|4|4,0:0|0:0|0:0,0:0:0:0:
166,179,52573,2,0,P|211:187|246:179,1,79.9999999999999,4|4,0:0|0:0,0:0:0:0:
316,144,53211,2,0,P|323:182|313:221,1,79.9999999999999,8|8,0:0|0:0,0:0:0:0:
276,292,53850,5,4,0:0:0:0:
120,268,54488,1,4,0:0:0:0:
164,116,55126,2,0,P|216:58|294:60,1,160,2|4,0:3|0:0,0:0:0:0:
352,208,56403,2,0,P|299:265|221:263,2,160,4|4|0,0:0|0:0|0:0,0:0:0:0:
272,72,58318,1,0,0:0:0:0:
268,192,58796,6,0,L|336:344,1,160,4|0,0:0|0:0,0:0:0:0:
464,244,60073,2,0,L|396:96,1,160,4|0,0:0|0:0,0:0:0:0:
252,26,61350,6,0,P|197:68|196:127,1,120,4|0,0:0|0:0,0:0:0:0:
271,129,62147,2,0,P|240:179|183:194,1,120,0|4,0:0|0:0,0:0:0:0:
474,305,63903,6,0,L|355:305,1,120,6|8,0:0|0:0,0:0:0:0:
282,266,64701,2,0,P|280:200|311:169,1,79.9999999999999,2|8,0:0|0:0,0:0:0:0:
348,140,65339,6,0,P|350:74|319:43,1,79.9999999999999,2|8,0:0|0:0,0:0:0:0:
272,32,65977,2,0,P|211:58|198:100,1,79.9999999999999,0|8,0:0|0:0,0:0:0:0:
196,148,66615,2,0,P|241:195|285:193,2,79.9999999999999,2|8|2,0:0|0:0|0:0,0:0:0:0:
132,100,67573,1,8,0:0:0:0:
84,36,67892,6,0,P|58:65|52:112,1,79.9999999999999,2|10,0:0|0:0,0:0:0:0:
56,184,68530,2,0,B|64:244|64:244|36:304,2,120,0|6|8,0:0|0:0|0:0,0:0:0:0:
124,144,69807,2,0,P|166:174|182:205,1,79.9999999999999,2|8,0:0|0:0,0:0:0:0:
216,272,70445,6,0,B|232:324|272:324|272:324|304:324|332:292|392:304,1,200,2|2,0:0|0:0,0:0:0:0:
468,304,71562,2,0,P|492:224|472:140,1,160,6|2,0:0|0:0,0:0:0:0:
424,88,72520,1,2,0:0:0:0:
396,164,72839,2,0,B|340:180|340:180|332:224|332:224|276:240,1,160,2|4,0:0|0:3,0:0:0:0:
117,229,74115,6,0,P|97:167|110:106,1,120,4|8,0:0|0:0,0:0:0:0:
146,44,74913,2,0,P|180:34|238:52,1,79.9999999999999,2|8,0:0|0:0,0:0:0:0:
244,119,75552,1,2,0:0:0:0:
322,102,75871,6,0,P|378:166|398:242,2,160,8|8|8,0:0|0:0|0:0,0:0:0:0:
250,64,77467,1,0,0:0:0:0:
170,52,77786,2,0,P|127:60|97:87,1,79.9999999999999,8|2,0:0|0:0,0:0:0:0:
89,162,78424,2,0,P|121:210|189:232,1,120,8|0,0:0|0:0,0:0:0:0:
257,238,79222,6,0,L|377:270,1,120,4|8,0:0|0:0,0:0:0:0:
373,349,80020,2,0,L|249:378,2,120,0|4|8,0:0|0:0|0:0,0:0:0:0:
373,269,81296,1,2,0:0:0:0:
373,189,81615,2,0,P|289:168|178:202,1,200,8|2,0:0|0:0,0:0:0:0:
80,320,83052,6,0,L|44:364,2,40,2|2|2,0:0|0:0|0:0,0:0:0:0:
76,240,83690,2,0,P|48:194|36:152,2,79.9999999999999,8|8|8,0:0|0:0|0:0,0:0:0:0:
148,276,84647,2,0,P|197:276|345:148,1,240,2|2,0:0|0:0,0:0:0:0:
419,180,85924,6,0,P|352:284|244:348,1,240,0|0,3:0|0:0,0:0:0:0:
184,308,87201,2,0,L|184:260,1,40,0|4,3:0|3:0,0:0:0:0:
