osu file format v14

[General]
AudioFilename: AS.mp3
AudioLeadIn: 1500
PreviewTime: 63344
Countdown: 0
SampleSet: Soft
StackLeniency: 0.7
Mode: 0
LetterboxInBreaks: 0
WidescreenStoryboard: 0

[Editor]
Bookmarks: 20265,22978,30478,31914,32553,33031,37659,37898,38138,42765,43005,43244,43404,45957,52978,53297,55691,55851,58244,59521,60797,62393
DistanceSpacing: 1.2
BeatDivisor: 4
GridSize: 4
TimelineZoom: 2.3

[Metadata]
Title:Absolute Soul
TitleUnicode:Absolute Soul
Artist:Suzuki Konomi
ArtistUnicode:鈴木このみ
Creator:Owntrolf
Version:Normal
Source:アブソリュート・デュオ
Tags:Duo Opening theramdans tv size meme
BeatmapID:593653
BeatmapSetID:255287

[Difficulty]
HPDrainRate:4
CircleSize:3
OverallDifficulty:4
ApproachRate:5
SliderMultiplier:0.9
SliderTickRate:1

[Events]
//Background and Video events
Video,233,"Secondoptrymute_xvid.avi"
0,0,"newbg.png",0,0
//Break Periods
//Storyboard Layer 0 (Background)
//Storyboard Layer 1 (Fail)
//Storyboard Layer 2 (Pass)
//Storyboard Layer 3 (Foreground)
//Storyboard Sound Samples

[TimingPoints]
233,319.148936170213,4,2,1,55,1,0
2147,-100,4,2,2,55,0,0
2626,-100,4,2,1,55,0,0
11562,-100,4,2,2,55,0,0
12998,-100,4,2,1,60,0,0
21775,-100,4,2,2,55,0,0
22094,-100,4,2,2,60,0,0
22413,-100,4,2,2,50,0,0
23211,-100,4,2,1,55,0,0
34062,-100,4,2,2,55,0,0
44594,-100,4,2,0,40,0,0
52413,-100,4,3,1,40,0,0
53211,-100,4,2,0,40,0,0
53850,-100,4,3,0,45,0,0
58796,-100,4,3,0,55,0,0
61350,-100,4,3,0,65,0,0
63424,-100,4,2,0,40,0,0
63903,-100,4,2,1,70,0,1
72839,-100,4,2,0,70,0,1
73158,-100,4,2,1,70,0,1
73477,-100,4,2,1,70,0,0
74115,-100,4,2,1,70,0,1
84647,-100,4,2,1,80,0,1
85924,-100,4,2,2,80,0,1
86881,-100,4,2,0,80,0,0
87041,-100,4,2,2,70,0,0

[Colours]
Combo1 : 228,228,228
Combo2 : 251,70,134
Combo3 : 245,226,169
Combo4 : 4,131,179

[HitObjects]
373,58,233,5,0,1:0:0:0:
373,164,552,2,0,P|359:206|324:233,1,90,4|0,1:2|0:0,0:0:0:0:
271,235,1030,2,0,P|236:207|222:165,1,90,4|0,1:2|0:0,0:0:0:0:
222,111,1509,1,0,1:0:0:0:
298,34,1829,1,0,1:0:0:0:
374,110,2147,2,0,L|374:175,1,45,4|4,0:0|0:0,0:0:0:0:
336,256,2626,6,0,P|286:305|218:313,1,135,4|0,0:0|1:0,0:0:0:0:
116,312,3424,1,0,0:0:0:0:
68,215,3743,1,0,1:0:0:0:
176,216,4062,2,0,P|220:196|252:132,2,90,0|0|0,0:0|1:0|0:0,0:0:0:0:
68,216,5020,1,0,1:0:0:0:
72,268,5179,6,0,P|116:313|184:331,1,135,4|0,0:0|1:0,0:0:0:0:
275,271,5977,1,0,0:0:0:0:
364,332,6296,2,0,P|431:348|478:328,2,90,0|0|0,1:0|0:0|1:0,0:0:0:0:
317,305,7094,2,0,L|241:253,1,90,0|0,0:0|0:0,0:0:0:0:
184,164,7733,6,0,P|228:96|296:80,1,135,4|0,0:0|1:0,0:0:0:0:
384,88,8530,1,0,0:0:0:0:
464,160,8850,1,0,1:0:0:0:
472,268,9169,1,0,0:0:0:0:
364,260,9488,2,0,L|324:237,1,45,0|0,1:0|1:0,0:0:0:0:
224,196,9967,1,0,1:0:0:0:
144,268,10286,6,0,P|203:299|270:293,1,135,4|0,0:0|1:0,0:0:0:0:
364,240,11084,1,0,0:0:0:0:
380,132,11403,1,0,1:0:0:0:
408,88,11562,2,0,P|444:72|500:88,2,90,4|4|4,0:0|0:0|0:0,0:0:0:0:
231,144,12998,5,2,0:0:0:0:
132,188,13318,1,2,0:0:0:0:
220,256,13637,2,0,P|160:296|128:300,1,90,2|2,0:0|0:0,0:0:0:0:
44,256,14275,2,0,P|20:196|28:152,1,90,2|2,0:0|0:0,0:0:0:0:
76,72,14913,2,0,P|116:44|172:32,1,90,2|2,0:0|0:0,0:0:0:0:
260,52,15552,5,2,0:0:0:0:
292,156,15871,1,2,0:0:0:0:
278,263,16190,2,0,P|238:287|187:285,1,90,2|2,0:0|0:0,0:0:0:0:
100,240,16828,2,0,P|82:196|93:147,1,90,2|2,0:0|0:0,0:0:0:0:
98,47,17467,2,0,L|146:35,2,45,2|0|2,0:0|0:0|0:0,0:0:0:0:
7,105,18105,5,2,0:0:0:0:
48,204,18424,1,2,0:0:0:0:
124,284,18743,2,0,P|178:305|216:301,1,90,2|2,0:0|0:0,0:0:0:0:
316,284,19381,2,0,P|341:247|382:229,1,90,2|2,0:0|0:0,0:0:0:0:
460,156,20020,2,0,P|457:97|419:54,1,90,2|2,0:0|0:0,0:0:0:0:
356,136,20658,6,0,P|320:163|276:168,1,90,2|0,0:0|0:0,0:0:0:0:
280,60,21296,1,2,0:0:0:0:
382,26,21615,2,0,L|413:67,1,45,0|12,0:0|0:0,0:0:0:0:
460,156,22094,2,0,P|458:209|427:257,2,90,12|12|12,0:0|0:0|0:0,0:0:0:0:
292,72,23371,5,0,0:0:0:0:
237,71,23530,2,0,P|194:81|157:107,1,90,0|0,1:0|0:0,0:0:0:0:
158,216,24169,1,0,1:0:0:0:
189,259,24328,2,0,P|233:288|302:290,1,90,0|0,0:0|0:0,0:0:0:0:
320,312,24807,2,0,B|344:360|408:364|408:364|412:256,1,180,0|0,1:0|1:0,0:0:0:0:
456,192,25764,6,0,L|490:162,2,45,0|0|0,0:0|0:0|1:0,0:0:0:0:
370,125,26403,2,0,P|310:131|278:156,1,90,0|0,0:0|1:0,0:0:0:0:
239,178,26881,2,0,P|195:186|160:213,1,90,0|0,0:0|0:0,0:0:0:0:
164,268,27360,2,0,P|53:268|24:250,2,135,0|0|0,1:0|1:0|0:0,0:0:0:0:
228,180,28637,5,0,1:0:0:0:
324,232,28956,2,0,P|388:263|424:260,1,90,0|0,0:0|1:0,0:0:0:0:
460,260,29435,2,0,P|482:192|464:134,1,135,0|0,0:0|1:0,0:0:0:0:
392,52,30233,6,0,P|352:84|260:96,1,135,0|0,0:0|0:0,0:0:0:0:
168,128,31030,1,0,0:0:0:0:
114,133,31190,2,0,P|33:166|4:259,1,180,0|0,1:0|1:0,0:0:0:0:
108,240,32147,2,0,P|188:208|212:168,1,135,4|0,0:0|0:0,0:0:0:0:
240,120,32786,2,0,P|279:67|343:48,1,135,8|8,0:0|0:0,0:0:0:0:
343,156,33584,6,0,L|431:204,1,90,0|0,0:0|0:0,0:0:0:0:
422,252,34062,2,0,P|384:296|296:304,1,135,12|12,0:0|0:0,0:0:0:0:
258,215,34860,2,0,P|221:176|178:159,1,90,4|0,3:0|0:0,0:0:0:0:
136,160,35339,2,0,P|155:88|218:47,1,135,12|12,0:0|0:0,0:0:0:0:
309,52,36137,6,0,P|351:64|379:99,1,90,0|0,0:0|0:0,0:0:0:0:
400,149,36615,2,0,L|436:219,2,67.5,12|12|12,0:0|0:0|0:0,0:0:0:0:
450,129,37254,6,0,L|491:195,2,67.5,12|12|8,0:0|3:2|3:2,0:0:0:0:
465,77,37892,2,0,L|424:11,2,67.5,12|12|12,0:0|0:0|0:0,0:0:0:0:
375,138,38690,6,0,P|346:173|307:194,1,90,2|2,0:3|0:3,0:0:0:0:
256,212,39169,2,0,P|199:215|160:201,2,90,12|0|0,0:0|0:0|0:0,0:0:0:0:
280,260,39967,2,0,P|316:308|384:324,1,90,4|0,3:0|0:0,0:0:0:0:
392,303,40445,2,0,P|418:266|425:222,1,90,12|0,0:0|0:0,0:0:0:0:
424,116,41084,6,0,P|414:63|375:1,2,90,0|0|12,0:0|0:0|0:0,0:0:0:0:
332,172,42041,1,0,0:0:0:0:
260,92,42360,2,0,P|211:69|138:65,1,90,12|0,0:0|0:0,0:0:0:0:
68,71,42998,2,0,P|32:95|53:178,1,135,12|12,0:0|0:0,0:0:0:0:
100,192,43637,6,0,B|100:236|100:236|92:364|268:364|260:236|260:236|260:192|260:192|316:192|360:148|360:80,1,540,12|2,0:0|0:0,0:0:0:0:
180,72,46190,6,0,L|180:272,1,180,2|0,0:0|0:0,0:0:0:0:
234,344,47147,1,2,0:0:0:0:
342,344,47467,2,0,B|432:344|432:344|432:255,1,180,2|2,0:0|0:0,0:0:0:0:
448,34,48743,6,0,P|393:57|365:120,1,90,2|2,0:0|0:0,0:0:0:0:
393,132,49222,2,0,P|349:172|281:172,1,90,2|2,0:0|0:0,0:0:0:0:
280,216,49701,2,0,P|236:256|83:156,1,270,2|4,0:0|3:0,0:0:0:0:
68,60,50977,1,2,0:0:0:0:
176,64,51296,6,0,P|192:116|240:144,1,90,4|0,0:0|0:0,0:0:0:0:
244,184,51775,2,0,P|253:226|233:266,1,90,4|0,0:0|0:0,0:0:0:0:
216,320,52254,2,0,P|286:339|340:256,1,180,4|4,0:0|0:0,0:0:0:0:
338,152,53211,2,0,P|302:112|250:96,1,90,8|8,0:0|0:0,0:0:0:0:
168,140,53850,6,0,P|204:184|249:191,1,90,4|0,0:0|0:0,0:0:0:0:
336,228,54488,2,0,P|367:258|373:302,2,90,4|2|2,0:0|0:0|0:3,0:0:0:0:
336,120,55445,2,0,P|367:90|373:46,1,90,8|4,0:0|0:0,0:0:0:0:
476,13,56084,1,0,0:0:0:0:
456,120,56403,6,0,B|442:183|490:224|432:300,1,180,4|4,0:0|0:0,0:0:0:0:
356,220,57360,1,0,0:0:0:0:
266,279,57679,2,0,L|266:376,2,90,0|0|0,0:0|0:0|0:0,0:0:0:0:
188,204,58637,1,0,0:0:0:0:
228,168,58796,6,0,P|288:168|388:40,1,225,4|2,0:0|0:0,0:0:0:0:
464,128,59913,1,0,0:0:0:0:
452,180,60073,2,0,P|383:245|260:284,1,225,4|6,0:0|0:0,0:0:0:0:
208,272,61030,6,0,L|152:316,2,45,4|0|4,0:0|0:0|0:0,0:0:0:0:
180,168,61669,2,0,L|232:184,2,45,0|0|0,0:0|0:0|0:0,0:0:0:0:
130,148,62147,2,0,P|83:100|75:34,1,135,0|4,0:0|0:0,0:0:0:0:
471,160,63903,6,0,P|450:213|421:235,1,90,6|0,0:0|0:0,0:0:0:0:
371,244,64381,1,8,0:0:0:0:
347,140,64701,1,2,0:0:0:0:
347,140,64860,1,2,0:0:0:0:
316,36,65179,6,0,P|271:53|248:104,1,90,2|0,0:0|0:0,0:0:0:0:
237,144,65658,1,8,0:0:0:0:
224,196,65818,2,0,P|182:207|136:200,1,90,0|0,0:0|0:0,0:0:0:0:
142,308,66456,2,0,P|168:342|345:333,1,225,4|2,0:0|0:0,0:0:0:0:
396,255,67573,1,8,0:0:0:0:
396,200,67733,6,0,P|388:148|352:104,1,90,2|2,0:0|0:0,0:0:0:0:
328,80,68211,1,10,0:0:0:0:
276,76,68371,2,0,L|184:92,1,90,2|2,0:0|0:0,0:0:0:0:
181,201,69009,2,0,P|198:257|292:274,1,135,6|8,0:0|0:0,0:0:0:0:
320,276,69647,6,0,L|376:264,2,45,0|2|0,0:0|0:0|0:0,0:0:0:0:
280,176,70286,2,0,B|302:130|302:130|334:108,1,90,2|0,0:0|0:0,0:0:0:0:
384,88,70764,1,8,0:0:0:0:
435,108,70924,2,0,P|469:137|487:178,2,90,2|2|6,0:0|0:0|0:0,0:0:0:0:
334,67,71881,5,2,0:0:0:0:
232,30,72201,2,0,L|140:72,1,90,2|2,0:0|0:0,0:0:0:0:
55,112,72839,2,0,P|103:186|188:207,1,180,2|4,0:0|0:3,0:0:0:0:
328,292,73956,1,8,0:0:0:0:
282,320,74115,6,0,L|140:328,1,135,4|8,0:0|0:0,0:0:0:0:
43,344,74913,2,0,P|51:281|78:249,1,90,2|8,0:0|0:0,0:0:0:0:
65,152,75552,2,0,P|42:113|41:68,1,90,2|8,0:0|0:0,0:0:0:0:
148,84,76190,6,0,L|180:40,2,45,2|2|8,0:0|0:0|0:0,0:0:0:0:
148,138,76669,2,0,P|180:203|252:216,1,135,4|8,0:0|0:0,0:0:0:0:
344,219,77467,2,0,P|420:225|456:211,2,90,0|8|2,0:0|0:0|0:0,0:0:0:0:
240,256,78424,1,8,0:0:0:0:
203,296,78584,2,0,P|147:304|99:288,1,90,2|0,0:0|0:0,0:0:0:0:
84,192,79222,6,0,P|176:148|188:108,1,135,4|8,0:0|0:0,0:0:0:0:
289,88,80019,2,0,L|395:88,1,90,0|8,0:0|0:0,0:0:0:0:
404,136,80498,6,0,P|388:177|312:224,1,135,4|8,0:0|0:0,0:0:0:0:
218,172,81296,1,2,0:0:0:0:
119,218,81615,1,8,0:0:0:0:
128,272,81775,6,0,P|182:318|268:322,1,135,2|8,0:0|0:0,0:0:0:0:
292,304,82413,2,0,P|356:274|389:281,1,90,2|0,0:0|0:0,0:0:0:0:
378,168,83052,6,0,L|440:192,2,45,2|2|2,0:0|0:0|0:0,0:0:0:0:
288,108,83690,1,8,0:0:0:0:
180,116,84009,1,8,0:0:0:0:
240,204,84328,1,8,0:0:0:0:
304,292,84647,6,0,L|248:304,2,45,2|2|2,0:0|0:0|0:0,0:0:0:0:
336,248,85126,2,0,L|392:252,2,45,2|2|2,0:0|0:0|0:0,0:0:0:0:
327,195,85605,6,0,P|168:187|195:29,1,360,2|0,0:0|0:0,0:0:0:0:
285,89,87201,2,0,L|252:120,1,45,0|4,3:0|3:0,0:0:0:0:
