osu file format v14

[General]
AudioFilename: AS.mp3
AudioLeadIn: 1500
PreviewTime: 63344
Countdown: 0
SampleSet: Soft
StackLeniency: 0.7
Mode: 0
LetterboxInBreaks: 0
WidescreenStoryboard: 0

[Editor]
Bookmarks: 17068,20265,22978,30478,31914,32553,33031,37659,37898,38138,42765,43005,43244,43404,46589,52978,53297,55691,55851,58244,59521,60797,62393
DistanceSpacing: 1.9
BeatDivisor: 4
GridSize: 4
TimelineZoom: 2.1

[Metadata]
Title:Absolute Soul
TitleUnicode:Absolute Soul
Artist:Suzuki Konomi
ArtistUnicode:鈴木このみ
Creator:Owntrolf
Version:Light Insane
Source:アブソリュート・デュオ
Tags:Duo Opening theramdans tv size meme
BeatmapID:833409
BeatmapSetID:255287

[Difficulty]
HPDrainRate:5
CircleSize:4
OverallDifficulty:6.5
ApproachRate:8
SliderMultiplier:1.6
SliderTickRate:1

[Events]
//Background and Video events
Video,233,"Secondoptrymute_xvid.avi"
0,0,"newbg.png",0,0
//Break Periods
//Storyboard Layer 0 (Background)
//Storyboard Layer 1 (Fail)
//Storyboard Layer 2 (Pass)
//Storyboard Layer 3 (Foreground)
//Storyboard Sound Samples

[TimingPoints]
233,319.148936170213,4,2,1,55,1,0
552,-100,4,2,1,55,0,0
2147,-100,4,2,2,55,0,0
2626,-100,4,2,1,55,0,0
11562,-100,4,2,2,55,0,0
11881,-100,4,2,2,55,0,0
12201,-100,4,2,2,55,0,0
12998,-100,4,2,1,60,0,0
21775,-100,4,2,2,55,0,0
22094,-100,4,2,2,60,0,0
22413,-100,4,2,2,50,0,0
23211,-100,4,2,1,55,0,0
26403,-100,4,2,1,55,0,0
26881,-100,4,2,1,55,0,0
27839,-100,4,2,1,55,0,0
28477,-100,4,2,1,55,0,0
33264,-100,4,2,1,55,0,0
34062,-100,4,2,2,55,0,0
34541,-100,4,2,2,55,0,0
37892,-100,4,2,2,55,0,0
38131,-100,4,2,2,55,0,0
38371,-100,4,2,2,55,0,0
42360,-100,4,2,2,55,0,0
43637,-111.111111111111,4,2,2,55,0,0
44594,-125,4,2,0,40,0,0
49701,-125,4,2,0,40,0,0
51296,-100,4,2,0,40,0,0
51775,-100,4,2,0,40,0,0
52094,-100,4,2,0,40,0,0
52413,-100,4,3,1,40,0,0
53211,-100,4,2,0,40,0,0
53850,-125,4,3,0,45,0,0
57041,-125,4,3,0,45,0,0
58796,-111.111111111111,4,3,0,55,0,0
60073,-100,4,3,0,55,0,0
61350,-100,4,3,0,65,0,0
62626,-83.3333333333333,4,3,0,65,0,0
63264,-100,4,3,0,65,0,0
63424,-100,4,2,0,40,0,0
63903,-100,4,2,1,70,0,1
72839,-100,4,2,0,70,0,1
73158,-100,4,2,1,70,0,1
73477,-100,4,2,1,70,0,0
74115,-100,4,2,1,70,0,1
79222,-111.111111111111,4,2,1,70,0,1
84647,-111.111111111111,4,2,1,80,0,1
85924,-111.111111111111,4,2,2,80,0,1
86881,-111.111111111111,4,2,0,80,0,0
87041,-111.111111111111,4,2,2,70,0,0

[Colours]
Combo1 : 228,228,228
Combo2 : 251,70,134
Combo3 : 245,226,169
Combo4 : 4,131,179

[HitObjects]
80,148,233,5,0,1:0:0:0:
111,240,392,1,0,1:0:0:0:
220,152,552,2,0,L|336:43,1,160,4|0,1:2|0:0,0:0:0:0:
448,42,1030,2,0,P|480:130|452:198,1,160,4|0,1:2|0:0,0:0:0:0:
266,263,1509,2,0,L|346:287,1,80,0|0,1:0|0:0,0:0:0:0:
333,125,1828,2,0,L|252:100,1,80,0|0,1:0|0:0,0:0:0:0:
169,286,2147,5,4,0:0:0:0:
92,336,2307,1,4,0:0:0:0:
48,120,2626,6,0,B|56:65|56:65|153:24,1,160,4|0,0:0|0:0,0:0:0:0:
256,168,3105,2,0,B|289:190|345:180,1,80,0|0,1:0|0:0,0:0:0:0:
433,47,3424,1,0,0:0:0:0:
265,33,3584,1,0,0:0:0:0:
412,184,3743,2,0,B|408:224|368:256,1,80,0|0,1:0|0:0,0:0:0:0:
210,296,4062,5,0,0:0:0:0:
91,176,4222,1,0,0:0:0:0:
251,223,4381,1,0,1:0:0:0:
132,103,4541,2,0,P|137:62|160:28,1,80,0|0,1:0|0:0,0:0:0:0:
277,150,4860,2,0,P|271:190|248:224,1,80,0|0,1:0|0:0,0:0:0:0:
215,90,5179,6,0,P|301:67|351:109,1,160,4|0,0:0|0:0,0:0:0:0:
352,208,5658,2,0,P|364:240|408:272,2,80,0|0|0,1:0|0:0|0:0,0:0:0:0:
418,80,6137,1,0,0:0:0:0:
495,201,6296,1,0,1:0:0:0:
416,344,6456,6,0,B|395:364|371:376|316:368,1,80
218,261,6775,1,0,0:0:0:0:
352,208,6935,1,0,1:0:0:0:
242,116,7094,2,0,P|161:117|98:187,1,160
218,261,7573,1,0,1:0:0:0:
368,260,7733,6,0,L|438:218,1,80,4|0,0:0|0:0,0:0:0:0:
504,101,8052,1,0,0:0:0:0:
368,101,8211,2,0,L|294:144,2,80,0|0|0,1:0|0:0|0:0,0:0:0:0:
482,175,8690,1,0,0:0:0:0:
361,239,8850,1,0,1:0:0:0:
400,109,9009,1,0,0:0:0:0:
452,272,9169,6,0,P|440:309|393:354,2,80,0|0|0,0:0|0:0|1:0,0:0:0:0:
356,40,9647,2,0,P|330:70|318:108,1,80,0|0,1:0|0:0,0:0:0:0:
318,245,9967,2,0,P|306:282|259:327,1,80,0|0,1:0|0:0,0:0:0:0:
92,264,10286,6,0,P|83:210|152:132,1,160,4|0,0:0|0:0,0:0:0:0:
281,133,10764,2,0,B|309:136|369:85,2,80,0|0|0,1:0|0:0|0:0,0:0:0:0:
164,61,11243,1,0,0:0:0:0:
288,4,11403,1,0,1:0:0:0:
352,200,11562,6,0,P|353:238|324:312,1,80,4|0,0:0|0:0,0:0:0:0:
160,184,11881,2,0,P|159:146|188:72,1,80,4|0,0:0|0:0,0:0:0:0:
375,79,12201,2,0,P|415:173|332:282,1,240,4|0,0:0|0:0,0:0:0:0:
120,160,12998,6,0,P|131:129|168:92,2,80,2|0|2,0:0|0:0|0:0,0:0:0:0:
184,280,13477,1,0,0:0:0:0:
312,232,13637,2,0,P|340:204|354:167,1,80,2|0,0:0|0:0,0:0:0:0:
327,34,13956,1,2,0:0:0:0:
456,76,14115,6,0,P|483:106|497:141,1,80,0|2,0:0|0:0,0:0:0:0:
487,279,14435,1,0,0:0:0:0:
353,298,14594,2,0,P|325:267|311:232,1,80,0|2,0:0|0:0,0:0:0:0:
96,256,14913,2,0,B|15:269,1,80,2|0,0:0|0:0,0:0:0:0:
174,131,15233,2,0,B|263:116,1,80,2|0,0:0|0:0,0:0:0:0:
404,240,15552,5,2,0:0:0:0:
220,224,15711,1,0,0:0:0:0:
380,116,15871,1,2,0:0:0:0:
304,300,16030,1,0,0:0:0:0:
253,118,16190,6,0,P|213:112|174:119,1,80,2|0,0:0|0:0,0:0:0:0:
92,228,16509,1,2,0:0:0:0:
228,244,16669,2,0,P|267:249|306:242,1,80,2|0,0:0|0:0,0:0:0:0:
395,138,16988,1,0,0:0:0:0:
452,260,17147,2,0,P|437:292|403:324,1,80,2|0,0:0|0:0,0:0:0:0:
319,341,17467,1,2,0:0:0:0:
231,335,17626,1,0,0:0:0:0:
144,318,17786,2,0,P|114:291|97:255,1,80,2|0,0:0|0:0,0:0:0:0:
228,208,18105,1,2,0:0:0:0:
144,126,18264,6,0,P|116:152|70:163,1,80,0|2,0:0|0:0,0:0:0:0:
88,37,18584,1,0,0:0:0:0:
7,133,18743,2,0,P|7:192|25:218,1,80,2|0,0:0|0:0,0:0:0:0:
102,290,19062,1,2,0:0:0:0:
194,212,19222,6,0,P|251:212|282:232,1,80,0|2,0:0|0:0,0:0:0:0:
331,326,19541,1,0,0:0:0:0:
400,220,19701,2,0,P|408:186|400:136,1,80,2|0,0:0|0:0,0:0:0:0:
228,100,20020,6,0,P|190:138|152:152,2,80,2|0|2,0:0|0:0|0:0,0:0:0:0:
320,52,20498,2,0,P|395:74|448:132,1,160
308,192,20977,2,0,P|347:239|450:265,1,160,0|2,0:0|0:0,0:0:0:0:
200,360,21615,5,0,0:0:0:0:
215,233,21775,2,0,P|178:248|157:281,1,80,12|0,0:0|0:0,0:0:0:0:
92,185,22094,2,0,P|74:220|74:259,1,80,12|0,0:0|0:0,0:0:0:0:
176,152,22413,2,0,P|174:112|157:77,1,80,12|0,0:0|0:0,0:0:0:0:
44,32,22733,2,0,P|45:71|62:106,1,80,12|0,0:0|0:0,0:0:0:0:
170,155,23052,1,0,0:0:0:0:
176,152,23131,1,0,0:0:0:0:
183,149,23211,1,0,0:0:0:0:
273,22,23371,5,0,0:0:0:0:
157,76,23530,1,0,1:0:0:0:
262,148,23690,1,0,0:0:0:0:
381,195,23850,2,0,B|377:201|392:154|392:154|386:119,1,80
303,21,24169,1,0,1:0:0:0:
184,68,24328,6,0,B|187:61|167:104|176:147,1,80
220,248,24647,1,0,0:0:0:0:
320,297,24807,2,0,P|332:238|284:155,1,160,0|0,1:0|0:0,0:0:0:0:
220,248,25286,1,0,0:0:0:0:
247,356,25445,2,0,P|186:352|114:281,1,160,0|0,1:0|0:0,0:0:0:0:
60,181,25924,5,0,0:0:0:0:
108,103,26084,1,0,1:0:0:0:
196,83,26243,1,0,0:0:0:0:
304,136,26403,2,0,B|324:153|324:153|378:153,1,80
462,228,26722,1,0,1:0:0:0:
356,264,26881,6,0,B|332:296|332:296|332:344,1,80
220,323,27201,1,0,0:0:0:0:
128,258,27360,2,0,B|156:220|156:220|156:185,1,80,0|0,1:0|0:0,0:0:0:0:
165,93,27679,1,0,1:0:0:0:
108,10,27839,2,0,P|68:115|155:186,1,240,0|0,1:0|0:0,0:0:0:0:
275,203,28477,5,0,0:0:0:0:
349,109,28637,1,0,1:0:0:0:
232,96,28796,1,0,0:0:0:0:
155,186,28956,2,0,B|150:241|180:284,1,80
275,203,29275,1,0,1:0:0:0:
374,270,29435,2,0,B|379:325|352:360,2,80
168,263,29913,6,0,P|108:231|100:203,1,80,0|0,1:0|0:0,0:0:0:0:
96,107,30233,1,0,0:0:0:0:
222,136,30392,2,0,P|261:146|303:146,1,80,0|0,0:0|1:0,0:0:0:0:
432,96,30711,6,0,P|447:164|400:240,1,160
300,147,31190,2,0,P|182:147|96:225,1,240,0|0,1:0|0:0,0:0:0:0:
100,306,31828,1,0,1:0:0:0:
169,345,31988,1,0,0:0:0:0:
244,372,32147,6,0,P|345:359|413:248,1,240,4|0,0:0|0:0,0:0:0:0:
340,56,32786,2,0,B|392:86|392:86|390:147|390:147|417:178,1,160,8|8,0:0|0:0,0:0:0:0:
485,229,33264,2,0,P|455:250|404:243,1,80,8|8,0:0|0:0,0:0:0:0:
289,213,33584,6,0,P|231:159|223:81,1,160
102,37,34062,2,0,P|103:83|82:128,1,80,12|0,0:0|0:0,0:0:0:0:
60,147,34302,2,0,P|47:184|49:224,1,80,12|0,0:0|0:0,0:0:0:0:
92,252,34541,2,0,P|128:238|158:210,1,80,12|0,0:0|0:0,0:0:0:0:
224,82,34860,6,0,P|278:140|358:153,1,160,4|0,3:0|0:0,0:0:0:0:
477,15,35339,2,0,B|470:52|470:52|448:87,1,80,12|0,0:0|0:0,0:0:0:0:
404,93,35578,2,0,B|373:116|373:116|353:154,1,80,12|0,0:0|0:0,0:0:0:0:
364,197,35818,2,0,B|380:231|380:231|376:273,1,80,12|4,0:0|3:0,0:0:0:0:
233,284,36137,6,0,P|163:242|138:167,1,160
208,20,36615,2,0,B|236:51|236:51|243:87,1,80,12|0,0:0|0:0,0:0:0:0:
249,131,36855,2,0,B|257:171|257:171|281:201,1,80,12|0,0:0|0:0,0:0:0:0:
314,231,37094,1,0,0:0:0:0:
270,308,37254,2,0,P|319:319|385:286,2,120,12|12|8,0:0|3:2|3:2,0:0:0:0:
128,240,37892,6,0,P|88:216|73:187,1,80,12|0,0:0|0:0,0:0:0:0:
82,143,38131,2,0,P|121:120|137:91,1,80,12|0,0:0|0:0,0:0:0:0:
146,47,38371,2,0,P|189:30|220:37,1,80,12|0,0:0|0:0,0:0:0:0:
333,81,38690,5,2,0:3:0:0:
260,176,38849,1,2,0:3:0:0:
372,224,39009,1,2,0:3:0:0:
308,324,39169,2,0,P|255:345|180:336,2,120,12|12|12,0:0|0:0|0:0,0:0:0:0:
400,247,39807,1,0,0:0:0:0:
396,127,39967,6,0,P|370:87|264:43,1,160,4|0,3:0|0:0,0:0:0:0:
150,43,40445,2,0,P|90:57|39:98,2,120,12|12|12,0:0|0:0|0:0,0:0:0:0:
208,149,41084,1,0,0:0:0:0:
327,149,41243,6,0,P|351:230|307:299,1,160,4|0,0:3|0:0,0:0:0:0:
196,292,41722,2,0,P|137:282|92:244,2,120,12|12|12,0:0|0:0|0:0,0:0:0:0:
316,292,42360,2,0,P|374:282|419:244,2,120,12|12|12,0:0|0:0|0:0,0:0:0:0:
256,143,42998,5,12,0:0:0:0:
369,53,43238,1,12,0:0:0:0:
481,143,43477,1,12,0:0:0:0:
481,229,43637,2,0,P|416:320|244:256,1,287.999991210938,12|0,0:0|0:0,0:0:0:0:
187,34,44594,5,2,0:0:0:0:
126,100,44913,2,0,P|121:163|157:216,1,128,2|2,0:0|0:0,0:0:0:0:
243,235,45552,2,0,P|295:200|315:140,1,128,2|2,0:0|0:0,0:0:0:0:
225,141,46190,2,0,P|228:111|325:53,1,128,2|0,0:0|0:0,0:0:0:0:
343,55,46669,2,0,P|394:90|406:151,1,128,2|0,0:0|0:0,0:0:0:0:
387,191,47147,5,2,0:0:0:0:
362,228,47307,1,2,0:0:0:0:
328,258,47467,2,0,P|220:268|144:152,1,256,2|2,0:0|0:0,0:0:0:0:
143,66,48424,1,2,0:0:0:0:
50,228,48743,6,0,L|88:279,1,64,2|0,0:0|0:0,0:0:0:0:
161,238,49062,1,0,0:0:0:0:
234,279,49222,2,0,L|276:335,1,64,2|0,0:0|0:0,0:0:0:0:
355,330,49541,1,2,0:0:0:0:
399,259,49701,2,0,B|428:198|499:195|499:195|460:135|484:68|484:68|415:76|370:14,1,384,2|4,0:0|3:0,0:0:0:0:
228,112,50977,5,2,0:0:0:0:
212,216,51137,1,2,0:0:0:0:
212,216,51296,2,0,L|117:226,1,80,4|0,0:0|0:0,0:0:0:0:
228,112,51615,1,0,0:0:0:0:
228,112,51775,2,0,L|314:101,1,80,4|0,0:0|0:0,0:0:0:0:
411,93,52094,1,0,0:0:0:0:
500,147,52254,6,0,P|478:176|421:196,1,80,4|4,0:0|0:0,0:0:0:0:
364,266,52573,2,0,P|360:304|378:339,2,80,4|4|4,0:0|0:0|0:0,0:0:0:0:
340,160,53052,1,4,0:0:0:0:
340,160,53211,2,0,P|307:137|268:134,1,80,8|0,0:0|0:0,0:0:0:0:
215,223,53530,1,8,0:0:0:0:
215,223,53690,1,0,0:0:0:0:
164,88,53850,6,0,P|120:46|44:44,1,128,4|0,0:0|0:0,0:0:0:0:
84,124,54328,1,8,0:0:0:0:
113,208,54488,2,0,L|177:228,1,64,4|0,0:0|0:0,0:0:0:0:
255,188,54807,1,2,0:0:0:0:
318,124,54967,6,0,P|339:215|312:260,1,128
246,282,55445,1,8,0:0:0:0:
174,227,55605,2,0,P|142:217|111:221,1,64,2|4,0:0|0:0,0:0:0:0:
97,310,55924,2,0,P|123:317|150:314,1,56,2|4,0:0|0:0,0:0:0:0:
246,282,56243,1,0,0:0:0:0:
328,152,56403,6,0,P|298:106|224:100,1,128,4|0,0:0|0:0,0:0:0:0:
162,156,56881,1,4,0:0:0:0:
86,203,57041,2,0,P|52:171|44:134,2,64,4|0|0,0:0|0:0|0:0,0:0:0:0:
166,242,57520,2,0,P|197:243|226:230,1,64,4|0,0:0|0:0,0:0:0:0:
271,152,57839,5,0,0:0:0:0:
349,195,57998,1,0,0:0:0:0:
312,276,58158,2,0,P|355:304|397:307,1,64,4|0,0:0|0:0,0:0:0:0:
433,246,58477,1,0,0:0:0:0:
433,246,58637,1,0,0:0:0:0:
433,246,58796,6,0,P|421:198|334:136,1,143.999995605469,4|0,0:0|0:0,0:0:0:0:
272,176,59275,1,0,0:0:0:0:
202,124,59435,2,0,P|225:103|271:90,1,71.9999978027344,0|2,0:0|0:0,0:0:0:0:
340,220,59754,5,0,0:0:0:0:
204,224,59913,1,0,0:0:0:0:
276,332,60073,2,0,P|240:360|132:316,1,160,4|0,0:0|0:0,0:0:0:0:
80,224,60552,1,0,0:0:0:0:
204,224,60711,2,0,P|241:208|272:164,1,80,0|6,0:0|0:0,0:0:0:0:
296,32,61030,5,4,0:0:0:0:
296,32,61190,1,0,0:0:0:0:
412,132,61350,2,0,P|385:158|324:176,1,80,4|0,0:0|0:0,0:0:0:0:
236,192,61669,2,0,P|201:211|177:243,2,80,4|0|0,0:0|0:0|0:0,0:0:0:0:
346,173,62147,1,0,0:0:0:0:
362,63,62307,1,4,0:0:0:0:
265,5,62467,1,4,0:0:0:0:
184,82,62626,6,0,P|171:132|404:200,1,383.99998828125,4|0,0:0|0:0,0:0:0:0:
362,131,63424,5,0,0:0:0:0:
444,268,63584,1,0,0:0:0:0:
228,336,63903,6,0,P|166:360|130:353,1,80,6|2,0:0|0:0,0:0:0:0:
69,274,64222,1,0,0:0:0:0:
120,165,64381,2,0,P|116:98|101:69,1,80,8|0,0:0|0:0,0:0:0:0:
34,9,64701,1,2,0:0:0:0:
16,116,64860,2,0,P|20:183|35:212,1,80,8|0,0:0|0:0,0:0:0:0:
208,232,65179,6,0,P|218:270|216:310,2,80,8|0|0,0:0|0:0|0:0,0:0:0:0:
120,165,65658,1,8,0:0:0:0:
224,120,65818,2,0,B|307:116|307:116|322:193,1,160
308,324,66296,1,8,0:0:0:0:
221,228,66456,6,0,L|122:176,1,80,4|2,0:0|0:0,0:0:0:0:
1,114,66775,2,0,L|76:149,1,80,0|8,0:0|0:0,0:0:0:0:
93,302,67094,2,0,L|73:191,1,80,0|2,0:0|0:0,0:0:0:0:
126,39,67413,2,0,L|143:122,1,80,0|8,0:0|0:0,0:0:0:0:
204,312,67733,6,0,P|241:339|356:308,1,160,2|2,0:0|0:0,0:0:0:0:
407,111,68211,1,10,0:0:0:0:
376,216,68371,2,0,P|309:229|280:212,1,80,2|0,0:0|0:0,0:0:0:0:
196,76,68690,1,2,0:0:0:0:
196,76,68850,1,8,0:0:0:0:
104,228,69009,6,0,P|105:305|163:357,1,160,6|2,0:0|0:0,0:0:0:0:
256,279,69488,1,8,0:0:0:0:
347,357,69647,2,0,P|380:346|414:304,2,80,0|2|0,0:0|0:0|0:0,0:0:0:0:
256,192,70126,1,8,0:0:0:0:
148,243,70286,6,0,P|140:171|192:91,1,160,2|0,0:0|0:0,0:0:0:0:
256,279,70764,1,8,0:0:0:0:
329,97,70924,2,0,P|370:164|364:243,2,160,2|0|0,0:0|0:0|0:0,0:0:0:0:
256,192,71722,1,0,0:0:0:0:
183,97,71881,6,0,L|87:97,2,80,2|8|2,0:0|0:0|0:0,0:0:0:0:
183,217,72360,1,0,0:0:0:0:
294,261,72520,2,0,P|327:225|328:165,1,80,2|0,0:0|0:0,0:0:0:0:
244,36,72839,1,2,0:0:0:0:
168,188,72998,5,2,0:0:0:0:
332,84,73158,1,0,0:3:0:0:
164,92,73318,1,4,0:3:0:0:
252,236,73477,1,4,0:3:0:0:
344,88,73956,5,8,0:0:0:0:
240,72,74115,2,0,P|186:137|184:222,1,160,4|2,0:0|0:0,0:0:0:0:
144,288,74594,2,0,P|98:300|54:275,1,80,8|0,0:0|0:0,0:0:0:0:
98,190,74913,2,0,P|56:165|43:118,1,80,2|0,0:0|0:0,0:0:0:0:
138,94,75233,1,8,0:0:0:0:
240,72,75392,2,0,P|253:26|228:-17,2,80,2|2|0,0:0|0:0|0:0,0:0:0:0:
204,170,75871,1,8,0:0:0:0:
256,260,76030,6,0,L|256:340,2,80,0|2|2,0:0|0:0|0:0,0:0:0:0:
308,170,76509,1,8,0:0:0:0:
252,80,76669,2,0,P|288:63|355:81,1,80
406,133,76988,1,0,0:0:0:0:
387,234,77147,1,0,0:0:0:0:
308,170,77307,2,0,P|272:160|228:168,1,80,2|8,0:0|0:0,0:0:0:0:
144,225,77626,2,0,P|104:232|66:221,1,80,2|8,0:0|0:0,0:0:0:0:
109,126,77945,5,2,0:0:0:0:
109,126,78105,1,2,0:0:0:0:
49,46,78264,1,0,0:0:0:0:
49,46,78424,1,8,0:0:0:0:
153,54,78584,2,0,L|225:98,1,80,2|2,0:0|0:0,0:0:0:0:
237,266,78903,2,0,L|157:222,1,80,0|8,0:0|0:0,0:0:0:0:
277,40,79222,6,0,P|295:120|249:169,1,143.999995605469,4|2,0:0|0:0,0:0:0:0:
128,128,79701,1,8,0:0:0:0:
162,259,79860,2,0,P|186:279|254:293,2,71.9999978027344,8|2|0,0:0|0:0|0:0,0:0:0:0:
259,163,80339,1,8,0:0:0:0:
362,74,80498,6,0,P|423:112|440:192,1,143.999995605469,4|2,0:0|0:0,0:0:0:0:
369,294,80977,1,0,0:0:0:0:
369,294,81137,1,0,0:0:0:0:
248,230,81296,2,0,L|176:218,1,71.9999978027344
156,84,81615,1,8,0:0:0:0:
44,268,81775,6,0,P|80:336|220:336,1,215.999993408203,2|8,0:0|0:0,0:0:0:0:
304,248,82413,2,0,P|369:219|440:260,1,143.999995605469,2|0,0:0|0:0,0:0:0:0:
370,371,82892,1,8,0:0:0:0:
207,345,83052,2,0,P|167:353|123:337,2,71.9999978027344,2|2|2,0:0|0:0|0:0,0:0:0:0:
255,68,83690,5,8,0:0:0:0:
139,248,84009,1,8,0:0:0:0:
353,248,84328,1,8,0:0:0:0:
157,156,84647,6,0,L|79:151,2,71.9999978027344,2|2|2,0:0|0:0|0:0,0:0:0:0:
191,274,85126,1,2,0:0:0:0:
314,279,85286,1,2,0:0:0:0:
356,163,85445,1,2,0:0:0:0:
256,84,85605,6,0,L|256:228,1,143.999995605469,2|0,0:0|3:0,0:0:0:0:
116,184,86084,2,0,L|39:167,2,71.9999978027344,0|0|0,3:0|3:0|3:0,0:0:0:0:
184,100,86562,1,0,3:0:0:0:
290,79,86722,1,0,3:0:0:0:
356,163,86881,6,0,P|373:226|363:328,1,143.999995605469,0|0,0:0|3:0,0:0:0:0:
370,303,87280,1,0,3:0:0:0:
370,303,87360,1,4,3:0:0:0:
