osu file format v14

[General]
AudioFilename: AS.mp3
AudioLeadIn: 1500
PreviewTime: 63344
Countdown: 0
SampleSet: Soft
StackLeniency: 0.7
Mode: 0
LetterboxInBreaks: 0
WidescreenStoryboard: 0

[Editor]
Bookmarks: 20265,22978,30478,31914,32553,33031,37659,37898,38138,42765,43005,43244,43404,52978,53297,55691,55851,58244,59521,60797,62393
DistanceSpacing: 1
BeatDivisor: 4
GridSize: 4
TimelineZoom: 1.9

[Metadata]
Title:Absolute Soul
TitleUnicode:Absolute Soul
Artist:Suzuki Konomi
ArtistUnicode:鈴木このみ
Creator:Owntrolf
Version:Insane
Source:アブソリュート・デュオ
Tags:Duo Opening theramdans tv size meme
BeatmapID:594541
BeatmapSetID:255287

[Difficulty]
HPDrainRate:6
CircleSize:4
OverallDifficulty:7
ApproachRate:9
SliderMultiplier:1.8
SliderTickRate:1

[Events]
//Background and Video events
Video,233,"Secondoptrymute_xvid.avi"
0,0,"newbg.png",0,0
//Break Periods
//Storyboard Layer 0 (Background)
//Storyboard Layer 1 (Fail)
//Storyboard Layer 2 (Pass)
//Storyboard Layer 3 (Foreground)
//Storyboard Sound Samples

[TimingPoints]
233,319.148936170213,4,2,1,55,1,0
2147,-100,4,2,2,55,0,0
2626,-100,4,2,1,55,0,0
11562,-100,4,2,2,55,0,0
11881,-100,4,2,2,55,0,0
12201,-100,4,2,2,55,0,0
12998,-100,4,2,1,60,0,0
21775,-100,4,2,2,55,0,0
22094,-100,4,2,2,60,0,0
22413,-100,4,2,2,50,0,0
23211,-100,4,2,1,55,0,0
26403,-100,4,2,1,55,0,0
26881,-100,4,2,1,55,0,0
27839,-100,4,2,1,55,0,0
28477,-100,4,2,1,55,0,0
33264,-100,4,2,1,55,0,0
34062,-100,4,2,2,55,0,0
34541,-100,4,2,2,55,0,0
37892,-100,4,2,2,55,0,0
38131,-100,4,2,2,55,0,0
38371,-100,4,2,2,55,0,0
42360,-100,4,2,2,55,0,0
43637,-125,4,2,2,55,0,0
44594,-125,4,2,0,40,0,0
49701,-125,4,2,0,40,0,0
51296,-100,4,2,0,40,0,0
51775,-100,4,2,0,40,0,0
52094,-100,4,2,0,40,0,0
52413,-100,4,3,1,40,0,0
53211,-100,4,2,0,40,0,0
53850,-125,4,3,0,45,0,0
58796,-100,4,3,0,55,0,0
60073,-100,4,3,0,55,0,0
61350,-100,4,3,0,65,0,0
63264,-100,4,3,0,65,0,0
63424,-100,4,2,0,40,0,0
63903,-83.3333333333333,4,2,1,70,0,1
72839,-83.3333333333333,4,2,0,70,0,1
73158,-83.3333333333333,4,2,1,70,0,1
73477,-83.3333333333333,4,2,1,70,0,0
74115,-83.3333333333333,4,2,1,70,0,1
84647,-83.3333333333333,4,2,1,80,0,1
85924,-83.3333333333333,4,2,2,80,0,1
86881,-83.3333333333333,4,2,0,80,0,0
87041,-100,4,2,2,70,0,0

[Colours]
Combo1 : 228,228,228
Combo2 : 251,70,134
Combo3 : 245,226,169
Combo4 : 4,131,179

[HitObjects]
196,251,233,5,0,1:0:0:0:
213,259,392,1,0,1:0:0:0:
229,267,552,5,4,1:2:0:0:
307,222,711,1,0,0:0:0:0:
229,177,871,1,0,0:0:0:0:
255,284,1030,1,4,1:2:0:0:
309,191,1190,1,0,0:0:0:0:
201,191,1350,1,0,0:0:0:0:
293,288,1509,6,0,L|387:259,1,90,0|0,1:0|0:0,0:0:0:0:
218,95,1828,2,0,L|124:124,1,90,0|0,1:0|0:0,0:0:0:0:
164,274,2147,1,4,0:0:0:0:
348,110,2307,1,4,0:0:0:0:
378,127,2626,6,0,L|395:218,1,90,4|0,0:0|0:0,0:0:0:0:
411,293,2945,1,0,0:0:0:0:
255,274,3105,1,0,1:0:0:0:
349,149,3264,1,0,0:0:0:0:
327,328,3424,1,0,0:0:0:0:
255,274,3584,1,0,0:0:0:0:
423,205,3743,1,0,1:0:0:0:
411,293,3903,1,0,0:0:0:0:
267,185,4062,5,0,0:0:0:0:
423,205,4221,1,0,0:0:0:0:
255,274,4381,1,0,1:0:0:0:
384,126,4541,2,0,P|360:54|252:38,1,180,0|0,1:0|1:0,0:0:0:0:
169,123,5020,1,0,1:0:0:0:
293,163,5179,6,0,L|304:257,1,90,4|0,0:0|0:0,0:0:0:0:
202,350,5498,1,0,0:0:0:0:
122,221,5658,1,0,1:0:0:0:
262,279,5818,1,0,0:0:0:0:
114,313,5977,1,0,0:0:0:0:
214,199,6137,1,0,0:0:0:0:
202,350,6296,1,0,1:0:0:0:
122,221,6456,6,0,P|126:168|156:126,1,90,0|0,0:0|0:0,0:0:0:0:
331,163,6775,1,0,0:0:0:0:
202,350,6934,1,0,1:0:0:0:
195,124,7094,2,0,P|239:52|351:26,1,180,0|0,0:0|0:0,0:0:0:0:
416,178,7573,1,0,1:0:0:0:
269,229,7733,6,0,L|155:234,1,90,4|0,0:0|0:0,0:0:0:0:
60,164,8052,1,0,0:0:0:0:
130,34,8211,1,0,1:0:0:0:
158,215,8371,1,0,0:0:0:0:
45,185,8530,1,0,0:0:0:0:
188,170,8690,1,0,0:0:0:0:
30,209,8850,1,0,1:0:0:0:
173,194,9010,1,0,0:0:0:0:
93,266,9169,5,0,0:0:0:0:
78,140,9328,1,0,0:0:0:0:
15,230,9488,1,0,1:0:0:0:
173,296,9647,2,0,P|238:303|316:215,1,180,0|0,1:0|1:0,0:0:0:0:
274,39,10126,1,0,0:0:0:0:
203,147,10286,6,0,L|317:140,1,90,4|0,0:0|0:0,0:0:0:0:
461,84,10605,1,0,0:0:0:0:
302,20,10764,1,0,1:0:0:0:
391,223,10924,1,0,0:0:0:0:
433,103,11084,1,0,0:0:0:0:
283,199,11243,1,0,0:0:0:0:
202,36,11403,1,0,1:0:0:0:
146,163,11562,6,0,L|181:272,1,90,4|0,0:0|0:0,0:0:0:0:
87,379,11881,2,0,L|60:294,1,90,4|0,0:0|0:0,0:0:0:0:
236,338,12201,2,0,B|274:335|288:290|288:290|310:295|310:295|327:211|442:211|457:298,1,270,4|0,0:0|0:0,0:0:0:0:
289,292,12998,6,0,L|177:292,1,90,2|0,0:0|0:0,0:0:0:0:
134,228,13318,2,0,P|181:173|186:129,1,90,2|0,0:0|0:0,0:0:0:0:
135,52,13637,2,0,P|88:107|83:151,1,90,2|0,0:0|0:0,0:0:0:0:
111,208,13956,1,2,0:0:0:0:
190,250,14115,6,0,L|306:249,1,90,0|2,0:0|0:0,0:0:0:0:
352,106,14435,1,0,0:0:0:0:
234,281,14594,2,0,L|350:280,1,90,2|0,0:0|0:0,0:0:0:0:
408,351,14913,1,2,0:0:0:0:
471,240,15073,1,0,0:0:0:0:
512,379,15233,1,2,0:0:0:0:
447,221,15392,1,0,0:0:0:0:
366,312,15552,6,0,L|277:313,1,90,2|0,0:0|0:0,0:0:0:0:
142,364,15871,1,2,0:0:0:0:
196,170,16030,1,0,0:0:0:0:
115,240,16190,2,0,P|155:272|198:279,1,90,2|0,0:0|0:0,0:0:0:0:
338,158,16509,1,2,0:0:0:0:
390,231,16669,6,0,L|366:327,1,90,0|2,0:0|0:0,0:0:0:0:
214,266,16988,1,0,0:0:0:0:
145,330,17147,2,0,P|83:340|36:313,1,90,2|0,0:0|0:0,0:0:0:0:
271,196,17467,1,2,0:0:0:0:
340,132,17626,2,0,P|436:130|493:196,1,180,0|0,0:0|0:0,0:0:0:0:
457,344,18105,5,2,0:0:0:0:
390,231,18264,2,0,L|290:231,1,90,0|2,0:0|0:0,0:0:0:0:
192,122,18584,1,0,0:0:0:0:
110,164,18743,2,0,P|94:217|124:271,1,90,2|0,0:0|0:0,0:0:0:0:
176,370,19062,1,2,0:0:0:0:
258,258,19222,6,0,P|230:223|188:211,1,90,0|2,0:0|0:0,0:0:0:0:
54,208,19541,1,0,0:0:0:0:
102,340,19701,2,0,P|145:333|178:302,1,90,2|0,0:0|0:0,0:0:0:0:
239,191,20020,1,2,0:0:0:0:
297,263,20179,2,0,L|397:260,1,90,0|2,0:0|0:0,0:0:0:0:
444,163,20498,6,0,P|462:113|435:60,1,90,0|2,0:0|0:0,0:0:0:0:
341,28,20818,1,0,0:0:0:0:
363,203,20977,2,0,P|397:243|456:246,1,90,0|0,0:0|0:0,0:0:0:0:
369,113,21296,2,0,P|316:122|284:172,1,90,2|0,0:0|0:0,0:0:0:0:
249,325,21615,1,0,0:0:0:0:
180,265,21775,6,0,L|80:283,1,90,12|0,0:0|0:0,0:0:0:0:
227,168,22094,2,0,L|138:183,1,90,12|0,0:0|0:0,0:0:0:0:
274,71,22413,2,0,L|174:89,1,90,12|0,0:0|0:0,0:0:0:0:
32,78,22733,2,0,B|57:136|57:136|46:191|46:191|73:252,1,180,12|0,0:0|0:0,0:0:0:0:
79,249,23131,1,0,0:0:0:0:
87,251,23211,5,0,0:0:0:0:
273,317,23371,1,0,0:0:0:0:
398,231,23530,1,0,1:0:0:0:
198,254,23690,1,0,0:0:0:0:
421,208,23850,2,0,P|432:150|413:106,1,90,0|0,0:0|0:0,0:0:0:0:
277,69,24169,1,0,1:0:0:0:
229,145,24328,6,0,L|113:171,1,90,0|0,0:0|0:0,0:0:0:0:
150,330,24647,1,0,0:0:0:0:
198,254,24807,2,0,L|314:228,1,90,0|0,1:0|0:0,0:0:0:0:
439,260,25126,1,0,0:0:0:0:
337,160,25286,1,0,1:0:0:0:
263,250,25445,2,0,P|257:302|299:358,1,90,0|0,1:0|0:0,0:0:0:0:
400,379,25764,6,0,L|493:385,1,90,0|0,0:0|0:0,0:0:0:0:
512,298,26084,2,0,L|419:292,1,90,0|0,1:0|0:0,0:0:0:0:
286,234,26403,2,0,L|266:146,1,90,0|0,0:0|0:0,0:0:0:0:
110,57,26722,1,0,1:0:0:0:
55,128,26881,6,0,P|59:178|116:217,1,90,0|0,0:0|0:0,0:0:0:0:
205,110,27201,1,0,0:0:0:0:
33,262,27360,2,0,P|78:283|140:253,1,90,0|0,1:0|0:0,0:0:0:0:
283,146,27679,1,0,1:0:0:0:
209,205,27839,2,0,L|226:387,1,180,0|0,1:0|0:0,0:0:0:0:
374,279,28318,5,0,0:0:0:0:
283,146,28477,2,0,P|235:113|171:120,2,90,0|0|0,0:0|1:0|0:0,0:0:0:0:
388,260,28956,2,0,L|432:163,1,90,0|0,0:0|0:0,0:0:0:0:
412,12,29275,1,0,1:0:0:0:
499,47,29435,6,0,P|464:90|398:98,1,90,0|0,0:0|0:0,0:0:0:0:
293,209,29754,1,0,0:0:0:0:
380,174,29914,2,0,P|354:137|313:120,1,90,0|0,1:0|0:0,0:0:0:0:
175,106,30233,1,0,0:0:0:0:
232,37,30392,2,0,L|339:24,1,90,0|0,0:0|1:0,0:0:0:0:
458,33,30711,6,0,P|495:79|494:130,1,90,0|0,0:0|0:0,0:0:0:0:
430,259,31030,1,0,0:0:0:0:
370,191,31190,2,0,L|271:191,1,90,0|0,1:0|0:0,0:0:0:0:
167,164,31509,1,0,0:0:0:0:
202,63,31669,1,0,0:0:0:0:
232,241,31828,1,0,1:0:0:0:
146,142,31988,1,0,0:0:0:0:
284,162,32147,5,4,0:0:0:0:
308,185,32226,1,0,0:0:0:0:
322,215,32306,1,0,0:0:0:0:
325,248,32386,1,0,0:0:0:0:
316,281,32466,1,0,0:0:0:0:
297,308,32545,1,0,0:0:0:0:
269,327,32625,1,0,0:0:0:0:
236,335,32705,1,0,0:0:0:0:
203,330,32786,6,0,L|184:359,6,22.5,8|0|8|0|8|0|8,0:0|0:0|0:0|0:0|0:0|0:0|0:0,0:0:0:0:
176,243,33105,2,0,L|195:214,6,22.5,8|0|8|0|8|0|8,0:0|0:0|0:0|0:0|0:0|0:0|0:0,0:0:0:0:
95,281,33424,6,0,L|23:218,1,90,8|0,0:0|0:0,0:0:0:0:
53,135,33743,2,0,L|125:198,1,90,0|0,0:0|0:0,0:0:0:0:
238,299,34062,1,12,0:0:0:0:
283,300,34142,1,0,0:0:0:0:
375,194,34302,1,12,0:0:0:0:
330,195,34382,1,0,0:0:0:0:
228,133,34541,1,12,0:0:0:0:
327,301,34701,5,0,0:0:0:0:
449,249,34860,2,0,P|468:194|450:144,2,90,4|0|0,3:0|0:0|0:0,0:0:0:0:
371,302,35339,1,12,0:0:0:0:
332,326,35419,1,0,0:0:0:0:
191,311,35578,1,12,0:0:0:0:
230,287,35658,1,0,0:0:0:0:
351,157,35818,1,12,0:0:0:0:
293,350,35977,5,4,3:0:0:0:
154,336,36137,2,0,P|98:310|78:265,1,90,0|0,0:0|0:0,0:0:0:0:
89,151,36456,1,0,0:0:0:0:
221,186,36615,1,12,0:0:0:0:
221,186,36695,1,0,0:0:0:0:
188,51,36855,1,12,0:0:0:0:
188,51,36935,1,0,0:0:0:0:
114,193,37094,5,12,0:0:0:0:
246,158,37254,1,12,0:0:0:0:
246,158,37333,1,0,0:0:0:0:
150,57,37493,1,12,3:2:0:0:
150,57,37573,1,0,0:0:0:0:
157,218,37733,5,8,3:2:0:0:
254,121,37892,2,0,B|302:112|302:112|333:120|333:120|395:108,2,135,12|12|12,0:0|0:0|0:0,0:0:0:0:
60,169,38530,6,0,L|86:287,1,90,0|2,0:0|0:3,0:0:0:0:
268,310,38850,1,2,0:3:0:0:
157,218,39009,1,2,0:3:0:0:
143,375,39169,2,0,L|38:386,1,90,12|0,0:0|0:0,0:0:0:0:
0,290,39488,2,0,L|89:280,1,90,2|8,0:0|0:0,0:0:0:0:
199,218,39807,6,0,L|288:208,1,90,6|4,0:0|3:0,0:0:0:0:
403,275,40126,1,0,0:0:0:0:
445,63,40286,1,0,0:0:0:0:
336,89,40445,2,0,B|312:128|312:128|266:132,1,90,12|0,0:0|0:0,0:0:0:0:
151,139,40764,2,0,B|106:142|106:142|82:181,1,90,2|8,0:0|0:0,0:0:0:0:
65,377,41084,5,6,0:0:0:0:
143,333,41243,2,0,L|157:228,2,90,4|0|0,0:3|0:0|0:0,0:0:0:0:
287,246,41722,1,12,0:0:0:0:
134,77,41962,1,12,0:0:0:0:
62,294,42201,1,12,0:0:0:0:
162,206,42360,5,12,0:0:0:0:
315,374,42600,1,8,0:0:0:0:
386,157,42839,1,8,0:0:0:0:
287,246,42998,1,12,0:0:0:0:
359,29,43237,1,12,0:0:0:0:
512,198,43477,1,12,0:0:0:0:
468,277,43637,6,0,P|408:296|225:107,1,360,12|0,0:0|0:0,0:0:0:0:
237,10,44594,1,2,0:0:0:0:
52,118,44913,5,2,0:0:0:0:
188,284,45233,1,2,0:0:0:0:
67,245,45552,2,0,P|170:159|308:244,1,288,2|2,0:0|0:0,0:0:0:0:
354,280,46350,6,0,L|348:354,1,72,2|0,0:0|0:0,0:0:0:0:
439,316,46669,2,0,L|451:160,1,144,2|2,0:0|0:0,0:0:0:0:
366,113,47147,2,0,L|361:185,1,72,2|2,0:0|0:0,0:0:0:0:
274,152,47467,6,0,P|199:185|116:79,1,216,2|0,0:0|0:0,0:0:0:0:
206,50,48105,2,0,L|286:25,1,72,2|2,0:0|0:0,0:0:0:0:
346,87,48424,2,0,L|426:62,1,72,2|2,0:0|0:0,0:0:0:0:
391,178,48743,6,0,L|370:271,1,72,2|0,0:0|0:0,0:0:0:0:
233,264,49062,1,2,0:0:0:0:
363,200,49222,2,0,L|342:293,1,72,2|0,0:0|0:0,0:0:0:0:
205,286,49541,1,2,0:0:0:0:
312,354,49701,6,0,B|360:375|397:347|397:347|424:349|424:349|434:315|459:318|459:318|511:262|460:198,1,288,2|0,0:0|0:0,0:0:0:0:
251,152,50658,2,0,L|295:231,1,72,4|0,0:0|0:0,0:0:0:0:
240,213,50897,1,0,0:0:0:0:
228,192,50976,1,2,0:0:0:0:
216,171,51056,1,0,0:0:0:0:
205,151,51136,1,2,0:0:0:0:
109,26,51296,6,0,L|22:75,1,90,4|0,0:0|0:0,0:0:0:0:
240,69,51615,1,0,0:0:0:0:
100,69,51775,2,0,L|13:118,1,90,4|0,0:0|0:0,0:0:0:0:
231,112,52094,1,0,0:0:0:0:
91,112,52254,2,0,L|4:161,1,90,4|4,0:0|0:0,0:0:0:0:
204,169,52573,6,0,L|117:218,1,90,4|4,0:0|0:0,0:0:0:0:
225,275,52892,2,0,P|287:309|389:263,1,180,4|8,0:0|0:0,0:0:0:0:
456,131,53371,1,0,0:0:0:0:
303,200,53530,1,8,0:0:0:0:
371,102,53690,1,0,0:0:0:0:
447,215,53850,6,0,B|473:260|473:260|436:355,1,144,4|0,0:0|0:0,0:0:0:0:
328,384,54328,1,8,0:0:0:0:
289,282,54488,2,0,L|381:274,1,72,4|0,0:0|0:0,0:0:0:0:
210,198,54807,2,0,L|302:190,1,72,2|0,0:0|0:0,0:0:0:0:
360,13,55126,6,0,B|330:101|330:101|266:107,1,144,2|8,0:3|0:0,0:0:0:0:
160,63,55605,1,2,0:0:0:0:
101,126,55764,2,0,L|126:215,2,72,4|0|0,0:0|0:0|0:0,0:0:0:0:
224,140,56243,1,0,0:0:0:0:
300,181,56403,6,0,B|312:232|312:232|304:277|304:277|319:331,1,144,4|0,0:0|0:0,0:0:0:0:
397,274,56881,1,4,0:0:0:0:
221,227,57041,2,0,L|129:250,1,72,4|0,0:0|0:0,0:0:0:0:
152,340,57360,2,0,L|244:317,1,72,0|4,0:0|0:0,0:0:0:0:
316,321,57679,6,0,B|304:277|304:277|312:232|312:232|300:181,1,144,0|0,0:0|0:0,0:0:0:0:
194,105,58158,1,4,0:0:0:0:
131,164,58318,2,0,L|154:256,1,72,0|0,0:0|0:0,0:0:0:0:
236,291,58637,1,0,0:0:0:0:
335,264,58796,6,0,P|418:231|441:125,1,180,4|0,0:0|0:0,0:0:0:0:
304,57,59275,1,0,0:0:0:0:
223,211,59435,2,0,P|210:299|290:372,1,180,0|0,0:0|0:0,0:0:0:0:
417,287,59913,1,0,0:0:0:0:
324,140,60073,6,0,P|253:84|150:117,1,180,4|0,0:0|0:0,0:0:0:0:
161,270,60551,1,0,0:0:0:0:
334,262,60711,2,0,P|416:229|440:122,1,180,0|4,0:0|0:0,0:0:0:0:
304,57,61190,1,0,0:0:0:0:
229,135,61350,6,0,L|126:167,1,90,4|0,0:0|0:0,0:0:0:0:
110,255,61669,1,0,0:0:0:0:
240,240,61828,1,0,0:0:0:0:
161,136,61988,1,0,0:0:0:0:
181,299,62147,5,0,0:0:0:0:
331,85,62307,1,4,0:0:0:0:
363,267,62467,1,4,0:0:0:0:
149,117,62626,1,4,0:0:0:0:
256,192,62706,12,0,63424,0:0:0:0:
294,290,63903,6,0,L|408:247,1,107.999996704102,6|2,0:0|0:0,0:0:0:0:
462,95,64222,1,0,0:0:0:0:
308,253,64381,2,0,L|422:210,1,107.999996704102,8|0,0:0|0:0,0:0:0:0:
476,58,64700,1,2,0:0:0:0:
395,251,64860,2,0,L|294:290,1,107.999996704102,2|8,0:0|0:0,0:0:0:0:
162,277,65179,6,0,P|196:336|189:378,1,107.999996704102,2|2,0:0|0:0,0:0:0:0:
60,323,65498,1,0,0:0:0:0:
44,188,65658,1,8,0:0:0:0:
147,200,65818,2,0,L|263:189,1,107.999996704102,0|0,0:0|0:0,0:0:0:0:
413,117,66137,2,0,L|297:106,1,107.999996704102,0|8,0:0|0:0,0:0:0:0:
161,84,66456,6,0,P|69:130|48:240,1,215.999993408203,4|0,0:0|0:0,0:0:0:0:
263,267,66935,2,0,L|381:282,1,107.999996704102,8|0,0:0|0:0,0:0:0:0:
212,176,67254,2,0,L|330:191,1,107.999996704102,2|0,0:0|0:0,0:0:0:0:
161,85,67574,2,0,L|279:100,1,107.999996704102,8|2,0:0|0:0,0:0:0:0:
375,108,67892,5,2,0:0:0:0:
308,193,68052,2,0,P|284:244|297:302,1,107.999996704102,2|10,0:0|0:0,0:0:0:0:
393,364,68371,2,0,L|423:241,1,107.999996704102,2|0,0:0|0:0,0:0:0:0:
463,55,68690,2,0,L|493:178,1,107.999996704102,2|8,0:0|0:0,0:0:0:0:
384,266,69009,6,0,P|310:298|203:208,1,215.999993408203,6|2,0:0|0:0,0:0:0:0:
193,119,69488,2,0,L|77:125,1,107.999996704102,8|0,0:0|0:0,0:0:0:0:
14,216,69807,1,2,0:0:0:0:
211,31,69967,2,0,P|264:62|280:124,1,107.999996704102,0|8,0:0|0:0,0:0:0:0:
310,214,70286,6,0,P|371:251|492:191,1,215.999993408203,2|0,0:0|0:0,0:0:0:0:
352,55,70764,1,8,0:0:0:0:
209,173,70924,2,0,L|220:280,1,107.999996704102,2|0,0:0|0:0,0:0:0:0:
142,384,71243,2,0,L|131:277,1,107.999996704102,2|8,0:0|0:0,0:0:0:0:
122,133,71562,6,0,B|116:186|116:186|66:210,1,107.999996704102,6|0,0:0|0:0,0:0:0:0:
123,25,71881,1,2,0:0:0:0:
293,98,72041,1,8,0:0:0:0:
266,240,72201,2,0,P|202:261|151:233,1,107.999996704102,2|0,0:0|0:0,0:0:0:0:
105,132,72520,2,0,P|169:111|220:139,1,107.999996704102,2|0,0:0|0:0,0:0:0:0:
360,164,72839,6,0,P|387:110|376:54,1,107.999996704102,2|2,0:0|0:0,0:0:0:0:
156,27,73158,1,0,0:3:0:0:
293,98,73318,1,4,0:3:0:0:
76,106,73477,1,4,0:3:0:0:
444,180,73956,5,0,0:0:0:0:
399,313,74115,2,0,L|264:338,1,107.999996704102,4|2,0:0|0:0,0:0:0:0:
162,384,74435,1,2,0:0:0:0:
101,220,74594,2,0,P|149:150|215:140,1,107.999996704102,8|0,0:0|0:0,0:0:0:0:
300,254,74913,2,0,P|215:247|173:195,1,107.999996704102,2|0,0:0|0:0,0:0:0:0:
229,64,75233,2,0,P|265:140|241:202,1,107.999996704102,8|2,0:0|0:0,0:0:0:0:
199,235,75552,6,0,L|247:353,2,107.999996704102,2|0|8,0:0|0:0|0:0,0:0:0:0:
165,105,76030,2,0,P|241:72|362:135,1,215.999993408203,0|2,0:0|0:0,0:0:0:0:
385,282,76509,1,8,0:0:0:0:
251,194,76669,6,0,L|150:260,1,107.999996704102,4|0,0:0|0:0,0:0:0:0:
132,379,76988,1,0,0:0:0:0:
33,288,77147,1,8,0:0:0:0:
224,321,77307,2,0,L|314:261,1,107.999996704102,2|0,0:0|0:0,0:0:0:0:
251,194,77626,2,0,L|341:134,1,107.999996704102,0|8,0:0|0:0,0:0:0:0:
278,67,77945,6,0,P|228:28|156:44,1,107.999996704102,2|2,0:0|0:0,0:0:0:0:
85,183,78264,1,0,0:0:0:0:
202,138,78424,1,8,0:0:0:0:
177,350,78584,2,0,L|203:240,1,107.999996704102,2|2,0:0|0:0,0:0:0:0:
335,350,78903,2,0,L|309:240,1,107.999996704102,0|8,0:0|0:0,0:0:0:0:
239,110,79222,6,0,P|195:64|56:117,1,215.999993408203,4|2,0:0|0:0,0:0:0:0:
217,209,79701,2,0,P|264:211|320:166,1,107.999996704102,8|8,0:0|0:0,0:0:0:0:
149,147,80020,2,0,P|123:186|134:257,1,107.999996704102,0|2,0:0|0:0,0:0:0:0:
224,370,80339,1,8,0:0:0:0:
304,298,80498,6,0,L|429:273,1,107.999996704102,4|0,0:0|0:0,0:0:0:0:
512,91,80818,1,0,0:0:0:0:
432,163,80977,2,0,L|307:188,1,107.999996704102,8|2,0:0|0:0,0:0:0:0:
233,127,81296,2,0,L|108:152,1,107.999996704102,2|2,0:0|0:0,0:0:0:0:
56,230,81615,1,8,0:0:0:0:
146,274,81775,6,0,P|183:311|192:363,1,107.999996704102,2|0,0:0|0:0,0:0:0:0:
0,384,82094,1,0,0:0:0:0:
250,243,82253,1,8,0:0:0:0:
104,353,82413,2,0,P|61:304|63:242,1,107.999996704102,2|0,0:0|0:0,0:0:0:0:
97,83,82733,1,0,0:0:0:0:
129,97,82812,1,0,0:0:0:0:
162,112,82892,1,8,0:0:0:0:
195,127,82972,1,0,0:0:0:0:
228,142,83052,1,2,0:0:0:0:
260,157,83131,1,0,0:0:0:0:
293,172,83211,6,0,L|303:239,1,53.9999983520508,2|0,0:0|0:0,0:0:0:0:
313,309,83371,2,0,L|323:376,1,53.9999983520508,2|0,0:0|0:0,0:0:0:0:
352,316,83690,6,0,L|337:210,1,107.999996704102,8|0,0:0|0:0,0:0:0:0:
432,307,84009,2,0,L|417:201,1,107.999996704102,8|0,0:0|0:0,0:0:0:0:
512,298,84328,2,0,L|497:192,1,107.999996704102,8|0,0:0|0:0,0:0:0:0:
319,88,84646,5,2,0:0:0:0:
287,227,84807,1,2,0:0:0:0:
239,70,84967,1,2,0:0:0:0:
343,167,85126,1,2,0:0:0:0:
205,208,85286,1,2,0:0:0:0:
239,70,85445,1,2,0:0:0:0:
103,176,85605,6,0,P|110:255|211:309,1,161.999995056153,2|0,0:0|0:0,0:0:0:0:
224,307,85924,1,0,3:0:0:0:
434,194,86084,1,0,3:0:0:0:
230,212,86243,1,0,3:0:0:0:
384,79,86403,1,0,3:0:0:0:
339,277,86562,1,0,3:0:0:0:
259,90,86722,1,0,3:0:0:0:
223,307,86881,6,0,P|125:276|103:176,1,215.999993408203,0|0,0:0|3:0,0:0:0:0:
103,175,87280,1,0,3:0:0:0:
103,175,87360,1,4,3:0:0:0:
