osu file format v14

[General]
AudioFilename: AS.mp3
AudioLeadIn: 1500
PreviewTime: 63344
Countdown: 0
SampleSet: Soft
StackLeniency: 0.7
Mode: 0
LetterboxInBreaks: 0
WidescreenStoryboard: 0

[Editor]
Bookmarks: 35259
DistanceSpacing: 1.66
BeatDivisor: 4
GridSize: 4
TimelineZoom: 2.100003

[Metadata]
Title:Absolute Soul
TitleUnicode:Absolute Soul
Artist:Suzuki Konomi
ArtistUnicode:鈴木このみ
Creator:Owntrolf
Version:Absolute Duo
Source:アブソリュート・デュオ
Tags:Duo Opening theramdans tv size meme
BeatmapID:593647
BeatmapSetID:255287

[Difficulty]
HPDrainRate:6.5
CircleSize:4.1
OverallDifficulty:8
ApproachRate:9
SliderMultiplier:1.9
SliderTickRate:1

[Events]
//Background and Video events
Video,233,"Secondoptrymute_xvid.avi"
0,0,"newbg.png",0,0
//Break Periods
//Storyboard Layer 0 (Background)
//Storyboard Layer 1 (Fail)
//Storyboard Layer 2 (Pass)
//Storyboard Layer 3 (Foreground)
//Storyboard Sound Samples

[TimingPoints]
233,319.148936170213,4,2,1,55,1,0
552,-100,4,2,1,55,0,0
2147,-100,4,2,2,55,0,0
2626,-100,4,2,1,55,0,0
11562,-100,4,2,2,55,0,0
11881,-90.9090909090909,4,2,2,55,0,0
12201,-83.3333333333333,4,2,2,55,0,0
12998,-90.9090909090909,4,2,1,60,0,0
21775,-90.9090909090909,4,2,2,55,0,0
22094,-90.9090909090909,4,2,2,60,0,0
22413,-90.9090909090909,4,2,2,50,0,0
23211,-90.9090909090909,4,2,1,55,0,0
26403,-100,4,2,1,55,0,0
27839,-90.9090909090909,4,2,1,55,0,0
28477,-90.9090909090909,4,2,1,55,0,0
32786,-90.9090909090909,4,2,1,55,0,0
33264,-80,4,2,1,55,0,0
34062,-100,4,2,2,55,0,0
34302,-86.9565217391304,4,2,2,55,0,0
34541,-76.9230769230769,4,2,2,55,0,0
37892,-111.111111111111,4,2,2,55,0,0
38131,-80,4,2,2,55,0,0
38371,-66.6666666666667,4,2,2,55,0,0
42360,-80,4,2,2,55,0,0
43637,-111.111111111111,4,2,2,55,0,0
44594,-153.846153846154,4,2,0,40,0,0
49701,-200,4,2,0,40,0,0
51296,-111.111111111111,4,2,0,40,0,0
51775,-111.111111111111,4,2,0,40,0,0
52094,-90.9090909090909,4,2,0,40,0,0
52413,-90.9090909090909,4,3,1,40,0,0
53211,-90.9090909090909,4,2,0,40,0,0
53850,-166.666666666667,4,3,0,45,0,0
57041,-142.857142857143,4,3,0,45,0,0
58796,-125,4,3,0,55,0,0
60073,-111.111111111111,4,3,0,55,0,0
61350,-90.9090909090909,4,3,0,65,0,0
63424,-90.9090909090909,4,2,0,40,0,0
63903,-83.3333333333333,4,2,1,70,0,1
72839,-83.3333333333333,4,2,0,70,0,1
73158,-83.3333333333333,4,2,1,70,0,1
73477,-83.3333333333333,4,2,1,70,0,0
74115,-83.3333333333333,4,2,1,70,0,1
84647,-83.3333333333333,4,2,1,80,0,1
85924,-83.3333333333333,4,2,2,80,0,1
86881,-83.3333333333333,4,2,0,80,0,0
87041,-80,4,2,2,70,0,0

[Colours]
Combo1 : 228,228,228
Combo2 : 251,70,134
Combo3 : 245,226,169
Combo4 : 4,131,179

[HitObjects]
161,107,233,5,0,1:0:0:0:
255,271,392,1,0,1:0:0:0:
351,107,552,2,0,P|392:124|443:188,1,95,4|0,1:2|0:0,0:0:0:0:
428,349,871,1,0,0:0:0:0:
255,271,1030,2,0,P|214:288|163:352,1,95,4|0,1:2|0:0,0:0:0:0:
40,177,1350,1,0,0:0:0:0:
205,67,1509,6,0,P|244:56|317:79,1,95,0|0,1:0|0:0,0:0:0:0:
307,317,1828,2,0,P|268:328|195:305,1,95,0|0,1:0|0:0,0:0:0:0:
356,112,2147,1,4,0:0:0:0:
156,272,2307,1,4,0:0:0:0:
433,109,2626,6,0,P|400:174|343:193,1,95,4|0,0:0|0:0,0:0:0:0:
168,152,2945,1,0,0:0:0:0:
308,20,3105,1,0,1:0:0:0:
268,240,3264,1,0,0:0:0:0:
123,71,3424,2,0,P|87:101|73:146,1,95,0|0,0:0|0:0,0:0:0:0:
148,324,3743,1,0,1:0:0:0:
256,167,3903,1,0,0:0:0:0:
364,324,4062,6,0,P|392:336|480:328,2,95,0|0|0,0:0|0:0|1:0,0:0:0:0:
221,120,4541,2,0,P|240:49|293:20,1,95,0|0,1:0|0:0,0:0:0:0:
290,263,4860,2,0,P|285:310|256:347,1,95,0|0,1:0|1:0,0:0:0:0:
208,352,5100,1,0,0:0:0:0:
161,348,5179,6,0,P|132:310|126:264,1,95,4|0,0:0|0:0,0:0:0:0:
248,64,5498,1,0,0:0:0:0:
312,272,5658,1,0,1:0:0:0:
432,96,5818,1,0,0:0:0:0:
488,304,5977,1,0,0:0:0:0:
336,96,6136,1,0,0:0:0:0:
176,264,6296,1,0,1:0:0:0:
37,128,6456,6,0,P|52:84|88:53,1,95,0|0,0:0|0:0,0:0:0:0:
256,140,6775,1,0,0:0:0:0:
425,52,6935,1,0,1:0:0:0:
416,256,7094,2,0,P|401:301|366:332,1,95,0|0,0:0|0:0,0:0:0:0:
224,124,7413,2,0,P|239:79|274:48,1,95,0|0,0:0|1:0,0:0:0:0:
260,296,7733,6,0,L|184:380,1,95,4|0,0:0|0:0,0:0:0:0:
91,366,8052,1,0,0:0:0:0:
35,277,8211,2,0,L|111:193,1,95,0|0,1:0|0:0,0:0:0:0:
203,206,8530,1,0,0:0:0:0:
148,292,8690,1,0,0:0:0:0:
52,124,8850,1,0,1:0:0:0:
241,124,9009,1,0,0:0:0:0:
344,288,9169,6,0,P|372:304|452:296,2,95,0|0|0,0:0|0:0|1:0,0:0:0:0:
208,108,9647,2,0,P|180:92|100:100,1,95,0|0,1:0|0:0,0:0:0:0:
44,312,9967,2,0,P|72:328|152:320,1,95,0|0,1:0|0:0,0:0:0:0:
304,108,10286,6,0,P|332:92|412:100,1,95,4|0,0:0|0:0,0:0:0:0:
442,306,10606,1,0,0:0:0:0:
228,272,10765,1,0,1:0:0:0:
404,168,10924,1,0,0:0:0:0:
190,134,11083,1,0,0:0:0:0:
366,30,11242,1,0,0:0:0:0:
280,224,11403,1,0,1:0:0:0:
124,84,11562,6,0,B|164:208,1,95,4|0,0:0|0:0,0:0:0:0:
256,348,11881,2,0,B|288:248,1,104.500003189087,4|0,0:0|0:0,0:0:0:0:
387,22,12201,2,0,B|492:348,1,341.999989562989,4|0,0:0|0:0,0:0:0:0:
200,72,12999,5,2,0:0:0:0:
148,324,13159,1,0,0:0:0:0:
320,176,13318,1,2,0:0:0:0:
176,192,13478,1,0,0:0:0:0:
324,355,13637,2,0,P|371:336|408:299,1,104.500003189087,2|0,0:0|0:0,0:0:0:0:
240,108,13956,1,2,0:0:0:0:
47,274,14115,6,0,P|69:321|108:356,1,104.500003189087,0|2,0:0|0:0,0:0:0:0:
324,268,14435,1,0,0:0:0:0:
142,125,14595,2,0,B|178:85|250:81,1,104.500003189087,2|0,0:0|0:0,0:0:0:0:
448,124,14914,2,0,B|458:178|458:178|422:232,1,104.500003189087,2|0,0:0|0:0,0:0:0:0:
448,249,15154,1,0,0:0:0:0:
466,277,15233,2,0,B|440:332|356:320,1,104.500003189087,2|0,0:0|0:0,0:0:0:0:
88,240,15552,5,2,0:0:0:0:
247,120,15712,1,0,0:0:0:0:
270,318,15871,1,2,0:0:0:0:
149,159,16031,1,0,0:0:0:0:
346,131,16191,2,0,P|390:163|426:239,1,104.500003189087,2|0,0:0|0:0,0:0:0:0:
256,345,16510,1,2,0:0:0:0:
83,245,16669,6,0,P|73:191|100:111,1,104.500003189087,0|2,0:0|0:0,0:0:0:0:
256,40,16988,1,0,0:0:0:0:
428,142,17147,2,0,P|438:193|429:245,1,104.500003189087,2|0,0:0|0:0,0:0:0:0:
300,136,17467,1,2,0:0:0:0:
174,245,17626,2,0,P|164:296|173:347,1,104.500003189087,0|2,0:0|0:0,0:0:0:0:
392,324,17946,1,0,0:0:0:0:
256,152,18106,1,2,0:0:0:0:
268,272,18265,6,0,P|212:308|156:312,1,104.500003189087,0|2,0:0|0:0,0:0:0:0:
160,92,18584,1,0,0:0:0:0:
0,208,18744,2,0,P|30:266|76:298,1,104.500003189087,2|0,0:0|0:0,0:0:0:0:
268,272,19063,1,2,0:0:0:0:
340,76,19223,2,0,P|381:45|431:33,1,104.500003189087,0|2,0:0|0:0,0:0:0:0:
431,208,19542,1,0,0:0:0:0:
268,272,19701,2,0,P|286:319|325:353,1,104.500003189087,2|0,0:0|0:0,0:0:0:0:
372,126,20020,6,0,P|411:159|430:207,2,104.500003189087,2|0|2,0:0|0:0|0:0,0:0:0:0:
80,52,20499,1,0,0:0:0:0:
139,186,20659,1,2,0:0:0:0:
237,77,20818,1,0,0:0:0:0:
292,268,20978,5,0,0:0:0:0:
251,279,21058,1,0,0:0:0:0:
209,273,21138,1,0,0:0:0:0:
170,258,21217,1,0,0:0:0:0:
142,227,21296,1,2,0:0:0:0:
237,77,21457,1,0,0:0:0:0:
414,77,21616,1,0,0:0:0:0:
366,252,21776,6,0,L|339:357,1,104.500003189087,12|0,0:0|0:0,0:0:0:0:
53,225,22095,2,0,L|80:120,1,104.500003189087,12|0,0:0|0:0,0:0:0:0:
256,200,22414,2,0,L|256:316,1,104.500003189087,12|0,0:0|0:0,0:0:0:0:
460,224,22733,2,0,L|433:119,1,104.500003189087,12|0,0:0|0:0,0:0:0:0:
296,64,23052,1,0,0:0:0:0:
296,64,23132,1,0,0:0:0:0:
296,64,23212,1,0,0:0:0:0:
168,116,23372,5,0,0:0:0:0:
144,192,23531,1,0,1:0:0:0:
168,268,23691,1,0,0:0:0:0:
352,312,23850,2,0,B|384:281|384:281|388:186,1,104.500003189087,0|0,0:0|0:0,0:0:0:0:
280,76,24169,1,0,1:0:0:0:
144,192,24329,6,0,P|196:256|244:260,1,104.500003189087,0|0,0:0|0:0,0:0:0:0:
328,104,24648,1,0,0:0:0:0:
488,224,24808,2,0,P|440:276|392:288,1,104.500003189087,0|0,1:0|0:0,0:0:0:0:
213,260,25127,1,0,0:0:0:0:
180,100,25286,1,0,1:0:0:0:
324,224,25446,2,0,P|395:208|423:162,1,104.500003189087,0|0,1:0|0:0,0:0:0:0:
256,48,25765,1,0,0:0:0:0:
156,276,25925,5,0,0:0:0:0:
272,172,26084,1,0,1:0:0:0:
124,120,26244,1,0,0:0:0:0:
272,292,26404,2,0,B|322:317|322:317|359:306,1,95,0|0,0:0|0:0,0:0:0:0:
512,192,26723,5,0,1:0:0:0:
378,58,26881,2,0,B|328:33|328:33|291:44,1,95,0|0,0:0|0:0,0:0:0:0:
256,192,27201,1,0,0:0:0:0:
221,340,27360,2,0,B|184:351|184:351|134:326,1,95,0|0,1:0|0:0,0:0:0:0:
32,192,27680,1,0,1:0:0:0:
134,39,27840,2,0,P|182:38|231:73,2,104.500003189087,0|0|0,1:0|0:0|0:0,0:0:0:0:
35,156,28318,5,0,0:0:0:0:
211,296,28478,1,0,0:0:0:0:
31,233,28638,1,0,1:0:0:0:
199,369,28797,1,0,0:0:0:0:
159,85,28957,2,0,B|159:149|207:177,1,104.500003189087,0|0,0:0|0:0,0:0:0:0:
331,128,29276,5,0,1:0:0:0:
424,226,29435,2,0,B|430:279|398:322,2,104.500003189087,0|0|0,0:0|0:0|0:0,0:0:0:0:
329,41,29914,2,0,P|301:117|305:169,1,104.500003189087,0|0,1:0|0:0,0:0:0:0:
336,271,30233,1,0,0:0:0:0:
212,328,30393,2,0,P|148:336|68:308,1,104.500003189087,0|0,0:0|1:0,0:0:0:0:
76,88,30712,2,0,P|132:124|184:124,1,104.500003189087,0|0,0:0|0:0,0:0:0:0:
348,16,31031,5,0,0:0:0:0:
379,236,31191,2,0,P|339:296|199:324,1,209.000006378174,0|0,1:0|0:0,0:0:0:0:
24,252,31669,1,0,0:0:0:0:
200,128,31829,1,0,1:0:0:0:
48,92,31989,1,0,0:0:0:0:
156,252,32148,6,0,P|243:294|348:244,1,209.000006378174,4|0,0:0|0:0,0:0:0:0:
412,88,32627,1,0,0:0:0:0:
230,64,32786,1,8,0:0:0:0:
208,92,32866,1,8,0:0:0:0:
184,120,32946,1,8,0:0:0:0:
160,148,33026,1,8,0:0:0:0:
176,184,33105,5,8,0:0:0:0:
154,212,33185,1,8,0:0:0:0:
130,240,33265,1,8,0:0:0:0:
106,268,33345,1,8,0:0:0:0:
82,296,33424,1,8,0:0:0:0:
280,336,33584,5,0,0:0:0:0:
424,212,33744,1,0,0:0:0:0:
232,148,33904,1,0,0:0:0:0:
100,292,34063,6,0,P|135:323|181:335,1,95,12|0,0:0|0:0,0:0:0:0:
218,314,34302,2,0,P|251:261|311:238,1,109.250002083778,12|0,0:0|0:0,0:0:0:0:
332,224,34542,2,0,P|376:166|378:85,1,123.499994346619,12|0,0:0|0:0,0:0:0:0:
128,24,34861,6,0,P|93:75|88:136,1,123.499994346619,4|0,3:0|0:0,0:0:0:0:
213,304,35180,1,0,0:0:0:0:
324,124,35340,2,0,P|382:140|441:121,1,123.499994346619,12|0,0:0|0:0,0:0:0:0:
472,160,35579,2,0,P|453:228|384:273,1,123.499994346619,12|0,0:0|0:0,0:0:0:0:
372,248,35818,2,0,P|310:246|256:275,1,123.499994346619,12|4,0:0|3:0,0:0:0:0:
124,352,36138,6,0,P|24:356|-28:324,2,123.499994346619,0|0|0,0:0|0:0|0:0,0:0:0:0:
260,240,36616,2,0,P|219:196|215:136,1,123.499994346619,12|0,0:0|0:0,0:0:0:0:
220,88,36856,2,0,P|168:31|91:16,1,123.499994346619,12|0,0:0|0:0,0:0:0:0:
104,56,37095,2,0,P|104:136|120:152,1,61.7499971733095,12|0,0:0|0:0,0:0:0:0:
100,156,37255,6,0,P|76:243|0:290,2,185.249991519928,12|12|8,0:0|3:2|3:2,0:0:0:0:
256,28,37893,6,0,P|324:52|356:92,1,85.4999973907472,12|0,0:0|0:0,0:0:0:0:
360,104,38132,2,0,P|319:174|324:232,1,118.75,12|0,0:0|0:0,0:0:0:0:
324,256,38372,2,0,P|304:319|226:386,1,142.500005435944,12|0,0:0|0:0,0:0:0:0:
104,248,38691,5,2,0:3:0:0:
308,172,38850,1,2,0:3:0:0:
132,72,39010,1,2,0:3:0:0:
240,296,39169,6,0,P|328:296|392:268,1,142.500005435944,12|0,0:0|0:0,0:0:0:0:
404,232,39408,2,8,P|348:184|328:88,1,142.500005435944,12|0,0:0|0:0,0:0:0:0:
320,70,39647,2,0,P|288:42|172:77,1,142.500005435944,12|0,0:0|0:0,0:0:0:0:
160,256,39967,6,0,P|112:312|0:352,1,142.500005435944,4|0,3:0|0:0,0:0:0:0:
0,192,40286,1,0,0:0:0:0:
52,40,40445,2,0,P|114:73|159:128,1,142.500005435944,12|0,0:0|0:0,0:0:0:0:
192,168,40685,2,0,P|301:197|381:171,1,142.500005435944,12|0,0:0|0:0,0:0:0:0:
361,155,40925,2,0,P|419:114|489:107,1,142.500005435944,12|0,0:0|0:0,0:0:0:0:
490,315,41243,6,0,P|408:363|342:365,1,142.500005435944,4|0,0:3|0:0,0:0:0:0:
176,344,41563,1,0,0:0:0:0:
124,165,41723,2,0,P|164:104|239:80,1,142.500005435944,12|0,0:0|0:0,0:0:0:0:
276,78,41961,2,0,P|347:93|396:155,1,142.500005435944,12|0,0:0|0:0,0:0:0:0:
408,192,42201,2,0,P|473:232|514:233,1,71.2500027179719,12|0,0:0|0:0,0:0:0:0:
500,252,42361,6,0,P|436:318|341:312,2,178.125,12|8|8,0:0|0:0|0:0,0:0:0:0:
479,171,42999,2,0,P|408:151|343:182,1,118.75,12|0,0:0|0:0,0:0:0:0:
329,183,43239,2,0,P|262:173|237:88,1,118.75,12|0,0:0|0:0,0:0:0:0:
223,93,43478,2,0,P|203:73|139:61,1,59.375,12|0,0:0|0:0,0:0:0:0:
133,57,43637,6,0,P|-7:202|217:253,1,512.999984344483,12|2,0:0|0:0,0:0:0:0:
235,145,44913,1,2,0:0:0:0:
116,180,45233,1,2,0:0:0:0:
207,266,45552,2,0,P|286:259|323:230,1,123.499994346619,2|2,0:0|0:0,0:0:0:0:
432,64,46191,6,0,P|432:97|413:136,1,61.7499971733095,2|2,0:0|0:0,0:0:0:0:
375,183,46510,1,0,0:0:0:0:
301,187,46669,2,0,P|247:156|230:91,1,123.499994346619,2|2,0:0|0:0,0:0:0:0:
275,42,47147,1,2,0:0:0:0:
309,108,47307,1,2,0:0:0:0:
256,260,47467,6,0,P|150:308|87:198,1,246.999988693238,2|2,0:0|0:0,0:0:0:0:
84,88,48264,1,2,0:0:0:0:
188,50,48425,1,2,0:0:0:0:
294,17,48584,1,2,0:0:0:0:
200,184,48744,6,0,P|216:212|264:241,1,61.7499971733095,2|0,0:0|0:0,0:0:0:0:
158,126,49063,1,2,0:0:0:0:
195,286,49223,2,0,P|226:299|275:290,1,61.7499971733095,2|0,0:0|0:0,0:0:0:0:
135,245,49542,1,2,0:0:0:0:
412,332,49701,6,0,B|422:302|447:262|447:262|407:238|410:214|410:214|415:134|328:104,1,285,2|4,0:0|3:0,0:0:0:0:
161,217,50817,1,0,0:0:0:0:
324,230,50976,5,2,0:0:0:0:
254,84,51137,1,2,0:0:0:0:
56,184,51296,2,0,P|61:269|127:325,1,170.999994781494,4|0,0:0|0:0,0:0:0:0:
429,263,51775,2,0,P|423:177|357:121,1,170.999994781494,4|0,0:0|0:0,0:0:0:0:
260,204,52255,2,0,P|232:248|164:268,1,104.500003189087,4|4,0:0|0:0,0:0:0:0:
128,80,52574,5,4,0:0:0:0:
64,264,52733,1,4,0:0:0:0:
228,152,52893,1,4,0:0:0:0:
18,147,53052,1,4,0:0:0:0:
213,302,53211,6,0,P|259:325|310:317,1,104.500003189087,8|0,0:0|0:0,0:0:0:0:
299,82,53530,2,0,P|253:59|202:67,1,104.500003189087,8|0,0:0|0:0,0:0:0:0:
40,232,53850,6,0,P|21:281|46:340,1,113.999996520996,4|0,0:0|0:0,0:0:0:0:
104,284,54329,1,8,0:0:0:0:
112,204,54489,2,0,P|130:182|155:170,1,56.9999982604981,4|0,0:0|0:0,0:0:0:0:
235,169,54808,1,2,0:0:0:0:
196,99,54967,1,0,0:0:0:0:
276,99,55127,6,0,P|301:113|320:134,1,56.9999982604981,2|0,0:3|0:0,0:0:0:0:
323,213,55446,1,8,0:0:0:0:
391,172,55606,1,2,0:0:0:0:
384,92,55764,2,0,P|399:68|421:50,1,56.9999982604981,4|0,0:0|0:0,0:0:0:0:
501,50,56084,1,0,0:0:0:0:
463,120,56244,1,0,0:0:0:0:
304,72,56404,6,0,P|264:111|259:167,1,113.999996520996,4|0,0:0|0:0,0:0:0:0:
285,248,56882,1,4,0:0:0:0:
346,186,57042,2,0,P|371:237|362:273,1,66.4999979705811,4|0,0:0|0:0,0:0:0:0:
332,322,57361,1,0,0:0:0:0:
285,248,57521,6,0,P|247:231|206:238,1,66.4999979705811,4|0,0:0|0:0,0:0:0:0:
146,275,57840,1,0,0:0:0:0:
147,188,57999,1,0,0:0:0:0:
221,318,58158,2,0,P|177:357|146:365,1,66.4999979705811,4|0,0:0|0:0,0:0:0:0:
40,176,58478,5,0,0:0:0:0:
80,56,58637,1,0,0:0:0:0:
204,80,58796,2,0,P|263:78|335:26,1,152,4|0,0:0|0:0,0:0:0:0:
464,50,59276,1,0,0:0:0:0:
491,175,59435,1,0,0:0:0:0:
366,137,59595,1,2,0:0:0:0:
366,137,59675,1,0,0:0:0:0:
366,137,59755,5,0,0:0:0:0:
401,260,59914,1,0,0:0:0:0:
271,326,60074,2,0,P|199:309|131:210,1,170.999994781494,4|0,0:0|0:0,0:0:0:0:
101,87,60552,1,0,0:0:0:0:
252,213,60712,1,0,0:0:0:0:
264,47,60872,1,6,0:0:0:0:
264,47,60951,1,0,0:0:0:0:
264,47,61031,1,4,0:0:0:0:
440,124,61191,5,0,0:0:0:0:
416,316,61350,2,0,P|372:348|324:352,1,104.500003189087,4|0,0:0|0:0,0:0:0:0:
192,180,61669,1,0,0:0:0:0:
308,228,61829,1,0,0:0:0:0:
150,120,61989,1,0,0:0:0:0:
321,301,62148,5,0,0:0:0:0:
167,50,62308,1,4,0:0:0:0:
276,357,62467,1,4,0:0:0:0:
230,12,62627,1,4,0:0:0:0:
256,192,62707,12,0,63425,0:0:0:0:
44,120,63904,6,0,P|137:180|183:164,1,113.999996520996,6|2,0:0|0:0,0:0:0:0:
174,37,64223,1,0,0:0:0:0:
288,131,64382,2,0,P|301:185|289:241,1,113.999996520996,8|0,0:0|0:0,0:0:0:0:
145,281,64701,1,2,0:0:0:0:
50,168,64861,2,0,P|69:115|110:76,1,113.999996520996,2|8,0:0|0:0,0:0:0:0:
296,68,65180,5,2,0:0:0:0:
296,68,65260,1,2,0:0:0:0:
296,68,65340,1,2,0:0:0:0:
392,208,65499,1,0,0:0:0:0:
216,220,65659,1,8,0:0:0:0:
440,92,65818,2,0,P|501:186|466:308,1,227.999993041992,0|0,0:0|0:0,0:0:0:0:
348,288,66296,1,8,0:0:0:0:
268,184,66457,5,4,0:0:0:0:
128,238,66616,1,2,0:0:0:0:
244,332,66776,1,0,0:0:0:0:
188,111,66935,5,8,0:0:0:0:
74,209,67095,1,0,0:0:0:0:
216,256,67255,1,2,0:0:0:0:
90,62,67414,5,0,0:0:0:0:
11,191,67574,1,8,0:0:0:0:
219,57,67733,5,2,0:0:0:0:
188,80,67813,1,0,0:0:0:0:
169,104,67893,1,2,0:0:0:0:
108,240,68052,1,2,0:0:0:0:
207,349,68212,1,10,0:0:0:0:
345,293,68372,2,0,P|396:197|393:150,1,113.999996520996,2|0,0:0|0:0,0:0:0:0:
248,176,68691,1,2,0:0:0:0:
248,176,68771,1,0,0:0:0:0:
248,176,68850,1,8,0:0:0:0:
152,324,69010,6,0,P|85:341|0:306,1,113.999996520996,6|0,0:0|0:0,0:0:0:0:
129,212,69329,1,2,0:0:0:0:
12,119,69489,1,8,0:0:0:0:
143,51,69648,1,0,0:0:0:0:
256,147,69808,2,0,P|311:157|367:147,2,113.999996520996,2|0|8,0:0|0:0|0:0,0:0:0:0:
104,252,70286,6,0,P|140:316|212:340,1,113.999996520996,2|2,0:0|0:0,0:0:0:0:
331,303,70605,1,0,0:0:0:0:
367,147,70765,1,8,0:0:0:0:
230,43,70925,2,0,P|232:115|283:163,1,113.999996520996,2|0,0:0|0:0,0:0:0:0:
427,258,71244,2,0,P|385:296|330:302,1,113.999996520996,2|8,0:0|0:0,0:0:0:0:
88,268,71563,1,6,0:0:0:0:
240,136,71723,5,0,0:0:0:0:
288,296,71881,1,2,0:0:0:0:
124,259,72041,1,8,0:0:0:0:
240,104,72201,2,0,P|267:152|314:183,1,113.999996520996,2|0,0:0|0:0,0:0:0:0:
337,376,72521,2,0,P|280:369|231:340,1,113.999996520996,2|0,0:0|0:0,0:0:0:0:
165,164,72839,1,2,0:0:0:0:
165,164,72919,1,2,0:0:0:0:
165,164,72999,5,2,0:0:0:0:
390,270,73159,1,0,0:3:0:0:
352,50,73318,1,4,0:3:0:0:
244,284,73478,1,4,0:3:0:0:
134,82,73957,5,8,0:0:0:0:
160,216,74116,2,0,P|212:274|295:279,1,113.999996520996,4|2,0:0|0:0,0:0:0:0:
288,130,74435,1,2,0:0:0:0:
392,40,74595,2,0,P|469:25|538:70,1,113.999996520996,8|0,0:0|0:0,0:0:0:0:
512,256,74914,2,0,P|492:308|448:344,1,113.999996520996,2|0,0:0|0:0,0:0:0:0:
256,292,75233,1,8,0:0:0:0:
180,128,75393,6,0,P|171:50|222:-14,2,113.999996520996,2|2|0,0:0|0:0|0:0,0:0:0:0:
281,179,75872,1,8,0:0:0:0:
280,292,76031,2,0,P|220:332|176:328,2,113.999996520996,0|2|2,0:0|0:0|0:0,0:0:0:0:
384,136,76510,1,8,0:0:0:0:
176,68,76669,6,0,L|64:46,1,113.999996520996,4|0,0:0|0:0,0:0:0:0:
30,214,76988,1,0,0:0:0:0:
184,172,77147,1,8,0:0:0:0:
0,120,77308,1,2,0:0:0:0:
59,298,77467,2,0,P|98:339|177:335,2,113.999996520996,0|0|8,0:0|0:0|0:0,0:0:0:0:
255,144,77946,1,2,0:0:0:0:
255,144,78026,1,2,0:0:0:0:
255,144,78105,5,2,0:0:0:0:
453,298,78264,2,0,P|413:340|349:343,2,113.999996520996,0|8|2,0:0|0:0|0:0,0:0:0:0:
283,238,78744,1,2,0:0:0:0:
402,131,78904,1,0,0:0:0:0:
256,68,79063,1,8,0:0:0:0:
110,131,79222,6,0,B|64:216|64:216|144:328,1,227.999993041992,4|2,0:0|0:0,0:0:0:0:
256,192,79701,1,8,0:0:0:0:
372,61,79860,2,0,P|448:168|448:168,2,113.999996520996,8|0|2,0:0|0:0|0:0,0:0:0:0:
218,15,80340,1,8,0:0:0:0:
110,131,80498,6,0,P|148:183|312:156,1,227.999993041992,4|0,0:0|0:0,0:0:0:0:
440,48,80977,1,8,0:0:0:0:
472,228,81138,1,2,0:0:0:0:
336,64,81297,1,2,0:0:0:0:
260,292,81457,1,2,0:0:0:0:
260,292,81536,1,2,0:0:0:0:
260,292,81616,1,8,0:0:0:0:
344,184,81775,6,0,P|284:144|140:212,1,227.999993041992,2|0,0:0|0:0,0:0:0:0:
100,348,82254,1,8,0:0:0:0:
16,152,82414,2,0,P|25:96|55:48,1,113.999996520996,2|0,0:0|0:0,0:0:0:0:
149,195,82733,1,0,0:0:0:0:
240,44,82893,1,8,0:0:0:0:
384,300,83052,5,2,0:0:0:0:
168,112,83211,1,2,0:0:0:0:
452,60,83371,1,2,0:0:0:0:
272,339,83691,5,8,0:0:0:0:
119,170,84010,1,8,0:0:0:0:
344,123,84329,1,8,0:0:0:0:
333,95,84648,5,2,0:0:0:0:
333,95,84728,1,0,0:0:0:0:
333,95,84808,1,2,0:0:0:0:
174,117,84967,1,2,0:0:0:0:
272,243,85127,1,2,0:0:0:0:
236,168,85286,1,2,0:0:0:0:
87,215,85446,1,2,0:0:0:0:
204,324,85606,1,2,0:0:0:0:
420,280,85925,5,0,3:0:0:0:
368,83,86084,1,0,3:0:0:0:
305,311,86244,1,0,3:0:0:0:
253,113,86404,1,0,3:0:0:0:
451,166,86563,1,0,3:0:0:0:
221,228,86723,1,0,3:0:0:0:
388,3,86882,2,0,P|436:39|448:99,1,113.999996520996,0|0,0:0|0:0,0:0:0:0:
248,212,87201,5,0,3:0:0:0:
248,212,87281,1,0,3:0:0:0:
248,212,87361,1,4,3:0:0:0:
