osu file format v14

[General]
AudioFilename: audio.mp3
AudioLeadIn: 0
PreviewTime: 63214
Countdown: 1
SampleSet: Normal
StackLeniency: 0.7
Mode: 1
LetterboxInBreaks: 0
WidescreenStoryboard: 1

[Editor]
Bookmarks: 2496,12868,23081,33294,43507,53720,63773,73347,79092,87071
DistanceSpacing: 1
BeatDivisor: 4
GridSize: 32
TimelineZoom: 1.9

[Metadata]
Title:Absolute Soul
TitleUnicode:Absolute Soul
Artist:Suzuki Konomi
ArtistUnicode:鈴木このみ
Creator:Lyawi
Version:Muzukashii
Source:アブソリュート・デュオ
Tags:TV Size Absolute Duo opening Sekai Accelerator Okoratu Okorin MrSergio alacat tasuke912
BeatmapID:986681
BeatmapSetID:460613

[Difficulty]
HPDrainRate:5
CircleSize:3
OverallDifficulty:5
ApproachRate:5
SliderMultiplier:1.4
SliderTickRate:1

[Events]
//Background and Video events
0,0,"BG.jpg",0,0
//Break Periods
//Storyboard Layer 0 (Background)
//Storyboard Layer 1 (Fail)
//Storyboard Layer 2 (Pass)
//Storyboard Layer 3 (Foreground)
//Storyboard Sound Samples

[TimingPoints]
103,319.148936170213,4,1,0,80,1,0
2656,319.148936170213,4,1,0,80,1,0
63773,-100,4,1,0,80,0,1
73347,-100,4,1,0,80,0,0
73985,-100,4,1,0,80,0,1
79092,-100,4,1,0,80,0,0
84517,-100,4,1,0,80,0,1
85475,-100,4,1,0,80,0,0
86751,-100,4,1,0,80,0,1
87071,-100,4,1,0,80,0,0

[HitObjects]
256,192,103,5,0,0:0:0:0:
256,192,422,1,6,0:0:0:0:
256,192,741,1,0,0:0:0:0:
256,192,900,1,6,0:0:0:0:
256,192,1220,1,0,0:0:0:0:
256,192,1379,1,6,0:0:0:0:
256,192,1698,1,0,0:0:0:0:
256,192,2017,1,4,0:0:0:0:
256,192,2177,1,4,0:0:0:0:
256,192,2496,1,4,0:0:0:0:
256,192,2815,1,0,0:0:0:0:
256,192,2975,1,8,0:0:0:0:
256,192,3134,1,0,0:0:0:0:
256,192,3294,1,0,0:0:0:0:
256,192,3454,1,0,0:0:0:0:
256,192,3773,1,8,0:0:0:0:
256,192,3932,1,0,0:0:0:0:
256,192,4092,1,0,0:0:0:0:
256,192,4251,1,8,0:0:0:0:
256,192,4411,1,8,0:0:0:0:
256,192,4890,1,0,0:0:0:0:
256,192,5049,1,6,0:0:0:0:
256,192,5368,1,0,0:0:0:0:
256,192,5528,1,8,0:0:0:0:
256,192,5688,1,0,0:0:0:0:
256,192,5847,1,8,0:0:0:0:
256,192,5927,1,8,0:0:0:0:
256,192,6007,1,8,0:0:0:0:
256,192,6166,1,0,0:0:0:0:
256,192,6326,1,8,0:0:0:0:
256,192,6645,1,8,0:0:0:0:
256,192,6805,1,8,0:0:0:0:
256,192,6964,1,0,0:0:0:0:
256,192,7443,1,8,0:0:0:0:
256,192,7602,1,4,0:0:0:0:
256,192,7922,1,0,0:0:0:0:
256,192,8081,1,0,0:0:0:0:
256,192,8241,1,8,0:0:0:0:
256,192,8400,1,8,0:0:0:0:
256,192,8560,1,0,0:0:0:0:
256,192,8879,1,8,0:0:0:0:
256,192,9039,1,8,0:0:0:0:
256,192,9198,1,0,0:0:0:0:
256,192,9358,1,8,0:0:0:0:
256,192,9517,1,0,0:0:0:0:
256,192,9996,1,0,0:0:0:0:
256,192,10156,1,6,0:0:0:0:
256,192,10475,1,0,0:0:0:0:
256,192,10634,1,8,0:0:0:0:
256,192,10794,1,0,0:0:0:0:
256,192,10954,1,8,0:0:0:0:
256,192,11033,1,8,0:0:0:0:
256,192,11113,1,8,0:0:0:0:
256,192,11432,1,4,0:0:0:0:
256,192,11751,1,4,0:0:0:0:
256,192,12071,1,6,0:0:0:0:
256,192,12868,1,0,0:0:0:0:
256,192,13188,1,0,0:0:0:0:
256,192,13347,1,0,0:0:0:0:
256,192,13507,1,8,0:0:0:0:
256,192,13826,1,8,0:0:0:0:
256,192,13985,1,0,0:0:0:0:
256,192,14305,1,0,0:0:0:0:
256,192,14464,1,8,0:0:0:0:
256,192,14783,1,0,0:0:0:0:
256,192,14943,1,0,0:0:0:0:
256,192,15103,1,8,0:0:0:0:
256,192,15262,1,8,0:0:0:0:
256,192,15422,1,0,0:0:0:0:
256,192,15741,1,0,0:0:0:0:
256,192,15900,1,0,0:0:0:0:
256,192,16060,1,8,0:0:0:0:
256,192,16379,1,8,0:0:0:0:
256,192,16539,1,8,0:0:0:0:
256,192,16858,1,8,0:0:0:0:
256,192,17017,1,0,0:0:0:0:
256,192,17337,1,0,0:0:0:0:
256,192,17496,1,8,0:0:0:0:
256,192,17656,1,8,0:0:0:0:
256,192,17815,1,0,0:0:0:0:
256,192,17975,1,8,0:0:0:0:
256,192,18294,1,0,0:0:0:0:
256,192,18454,1,0,0:0:0:0:
256,192,18613,1,8,0:0:0:0:
256,192,18932,1,0,0:0:0:0:
256,192,19092,1,8,0:0:0:0:
256,192,19411,1,8,0:0:0:0:
256,192,19571,1,0,0:0:0:0:
256,192,19890,1,0,0:0:0:0:
256,192,20049,1,0,0:0:0:0:
256,192,20209,1,8,0:0:0:0:
256,192,20368,1,8,0:0:0:0:
256,192,20688,1,0,0:0:0:0:
256,192,20847,1,8,0:0:0:0:
256,192,21166,1,0,0:0:0:0:
256,192,21485,1,0,0:0:0:0:
256,192,21645,1,6,0:0:0:0:
256,192,21964,1,4,0:0:0:0:
256,192,22283,1,6,0:0:0:0:
256,192,22603,1,4,0:0:0:0:
256,192,22922,1,0,0:0:0:0:
256,192,23001,1,0,0:0:0:0:
256,192,23081,1,0,0:0:0:0:
256,192,23400,1,0,0:0:0:0:
256,192,23560,1,8,0:0:0:0:
256,192,23720,1,8,0:0:0:0:
256,192,24039,1,8,0:0:0:0:
256,192,24198,1,0,0:0:0:0:
256,192,24517,1,0,0:0:0:0:
256,192,24677,1,8,0:0:0:0:
256,192,24996,1,0,0:0:0:0:
256,192,25156,1,8,0:0:0:0:
256,192,25315,1,8,0:0:0:0:
256,192,25475,1,8,0:0:0:0:
256,192,25634,1,0,0:0:0:0:
256,192,25954,1,0,0:0:0:0:
256,192,26113,1,8,0:0:0:0:
256,192,26193,1,8,0:0:0:0:
256,192,26273,1,8,0:0:0:0:
256,192,26592,1,0,0:0:0:0:
256,192,26751,1,8,0:0:0:0:
256,192,27071,1,0,0:0:0:0:
256,192,27230,1,8,0:0:0:0:
256,192,27549,1,0,0:0:0:0:
256,192,27709,1,8,0:0:0:0:
256,192,27868,1,0,0:0:0:0:
256,192,28028,1,8,0:0:0:0:
256,192,28188,1,0,0:0:0:0:
256,192,28507,1,8,0:0:0:0:
256,192,28666,1,8,0:0:0:0:
256,192,28826,1,0,0:0:0:0:
256,192,29145,1,8,0:0:0:0:
256,192,29305,1,0,0:0:0:0:
256,192,29624,1,8,0:0:0:0:
256,192,29783,1,0,0:0:0:0:
256,192,30103,1,0,0:0:0:0:
256,192,30262,1,0,0:0:0:0:
256,192,30422,1,0,0:0:0:0:
256,192,30581,1,6,0:0:0:0:
256,192,30900,1,0,0:0:0:0:
256,192,31060,1,8,0:0:0:0:
256,192,31379,1,0,0:0:0:0:
256,192,31698,1,8,0:0:0:0:
256,192,31858,1,0,0:0:0:0:
256,192,32017,1,8,0:0:0:0:
256,192,32097,1,8,0:0:0:0:
256,192,32177,1,8,0:0:0:0:
256,192,32337,1,0,0:0:0:0:
256,192,32496,1,8,0:0:0:0:
256,192,32656,1,0,0:0:0:0:
256,192,32735,1,0,0:0:0:0:
256,192,32815,1,0,0:0:0:0:
256,192,32975,1,8,0:0:0:0:
256,192,33134,1,8,0:0:0:0:
256,192,33294,1,4,0:0:0:0:
256,192,33613,1,0,0:0:0:0:
256,192,33773,1,8,0:0:0:0:
256,192,33932,1,0,0:0:0:0:
256,192,34172,1,8,0:0:0:0:
256,192,34411,1,8,0:0:0:0:
256,192,34730,1,0,0:0:0:0:
256,192,34890,1,8,0:0:0:0:
256,192,35049,1,0,0:0:0:0:
256,192,35209,1,8,0:0:0:0:
256,192,35448,1,8,0:0:0:0:
256,192,35688,1,0,0:0:0:0:
256,192,36007,1,0,0:0:0:0:
256,192,36166,1,0,0:0:0:0:
256,192,36326,1,8,0:0:0:0:
256,192,36485,1,0,0:0:0:0:
256,192,36725,1,8,0:0:0:0:
256,192,36964,1,0,0:0:0:0:
256,192,37124,1,0,0:0:0:0:
256,192,37363,1,8,0:0:0:0:
256,192,37603,1,8,0:0:0:0:
256,192,37762,1,4,0:0:0:0:
256,192,38001,1,6,0:0:0:0:
256,192,38241,1,6,0:0:0:0:
256,192,38400,1,0,0:0:0:0:
256,192,38719,1,0,0:0:0:0:
256,192,38879,1,0,0:0:0:0:
256,192,39038,1,8,0:0:0:0:
256,192,39278,1,0,0:0:0:0:
256,192,39517,1,8,0:0:0:0:
256,192,39836,1,0,0:0:0:0:
256,192,39996,1,8,0:0:0:0:
256,192,40155,1,8,0:0:0:0:
256,192,40315,1,0,0:0:0:0:
256,192,40554,1,8,0:0:0:0:
256,192,40794,1,8,0:0:0:0:
256,192,41113,1,0,0:0:0:0:
256,192,41272,1,8,0:0:0:0:
256,192,41432,1,0,0:0:0:0:
256,192,41591,1,8,0:0:0:0:
256,192,41831,1,8,0:0:0:0:
256,192,42070,1,8,0:0:0:0:
256,192,42230,1,0,0:0:0:0:
256,192,42469,1,8,0:0:0:0:
256,192,42709,1,8,0:0:0:0:
256,192,42868,1,4,0:0:0:0:
256,192,43107,1,6,0:0:0:0:
256,192,43347,1,6,0:0:0:0:
256,192,43506,1,0,0:0:0:0:
256,192,44464,1,0,0:0:0:0:
256,192,44783,1,0,0:0:0:0:
256,192,45103,1,0,0:0:0:0:
256,192,45422,1,8,0:0:0:0:
256,192,45741,1,8,0:0:0:0:
256,192,46060,1,0,0:0:0:0:
256,192,46379,1,0,0:0:0:0:
256,192,46538,1,8,0:0:0:0:
256,192,47017,1,8,0:0:0:0:
256,192,47177,1,0,0:0:0:0:
256,192,47337,1,8,0:0:0:0:
256,192,47656,1,8,0:0:0:0:
256,192,47815,1,0,0:0:0:0:
256,192,48134,1,0,0:0:0:0:
256,192,48294,1,8,0:0:0:0:
256,192,48454,1,8,0:0:0:0:
256,192,48613,1,0,0:0:0:0:
256,192,48932,1,0,0:0:0:0:
256,192,49092,1,8,0:0:0:0:
256,192,49411,1,8,0:0:0:0:
256,192,49571,1,8,0:0:0:0:
256,192,50528,1,8,0:0:0:0:
256,192,50688,1,0,0:0:0:0:
256,192,50767,1,0,0:0:0:0:
256,192,50847,1,0,0:0:0:0:
256,192,51007,1,0,0:0:0:0:
256,192,51166,1,6,0:0:0:0:
256,192,51485,1,0,0:0:0:0:
256,192,51645,1,6,0:0:0:0:
256,192,51964,1,0,0:0:0:0:
256,192,52124,1,6,0:0:0:0:
256,192,52443,1,0,0:0:0:0:
256,192,52603,1,0,0:0:0:0:
256,192,52762,1,8,0:0:0:0:
256,192,52922,1,0,0:0:0:0:
256,192,53081,1,8,0:0:0:0:
256,192,53400,1,8,0:0:0:0:
256,192,53720,1,4,0:0:0:0:
256,192,54198,1,0,0:0:0:0:
256,192,54358,1,8,0:0:0:0:
256,192,54677,1,8,0:0:0:0:
256,192,54837,1,0,0:0:0:0:
256,192,55156,1,0,0:0:0:0:
256,192,55315,1,8,0:0:0:0:
256,192,55475,1,0,0:0:0:0:
256,192,55794,1,0,0:0:0:0:
256,192,55953,1,8,0:0:0:0:
256,192,56113,1,8,0:0:0:0:
256,192,56751,1,0,0:0:0:0:
256,192,56911,1,8,0:0:0:0:
256,192,57230,1,8,0:0:0:0:
256,192,57390,1,0,0:0:0:0:
256,192,57709,1,0,0:0:0:0:
256,192,57868,1,0,0:0:0:0:
256,192,58028,1,8,0:0:0:0:
256,192,58347,1,4,0:0:0:0:
256,192,58507,1,4,0:0:0:0:
256,192,58666,1,4,0:0:0:0:
256,192,59145,1,0,0:0:0:0:
256,192,59305,1,8,0:0:0:0:
256,192,59624,1,4,0:0:0:0:
256,192,59783,1,4,0:0:0:0:
256,192,59943,1,4,0:0:0:0:
256,192,60422,1,8,0:0:0:0:
256,192,60581,1,8,0:0:0:0:
256,192,60900,1,4,0:0:0:0:
256,192,61060,1,4,0:0:0:0:
256,192,61220,1,4,0:0:0:0:
256,192,61539,1,4,0:0:0:0:
256,192,61698,1,4,0:0:0:0:
256,192,61858,1,4,0:0:0:0:
256,192,62017,1,6,0:0:0:0:
256,192,62177,1,4,0:0:0:0:
256,192,62337,1,6,0:0:0:0:
256,192,62496,1,6,0:0:0:0:
256,192,63294,1,0,0:0:0:0:
256,192,63454,1,0,0:0:0:0:
256,192,63773,1,6,0:0:0:0:
256,192,64092,1,0,0:0:0:0:
256,192,64251,1,8,0:0:0:0:
256,192,64571,1,8,0:0:0:0:
256,192,64730,1,0,0:0:0:0:
256,192,64810,1,0,0:0:0:0:
256,192,64890,1,0,0:0:0:0:
256,192,65049,1,8,0:0:0:0:
256,192,65368,1,0,0:0:0:0:
256,192,65528,1,0,0:0:0:0:
256,192,65688,1,8,0:0:0:0:
256,192,66007,1,0,0:0:0:0:
256,192,66326,1,6,0:0:0:0:
256,192,66645,1,0,0:0:0:0:
256,192,66805,1,8,0:0:0:0:
256,192,66964,1,8,0:0:0:0:
256,192,67124,1,0,0:0:0:0:
256,192,67443,1,8,0:0:0:0:
256,192,67603,1,0,0:0:0:0:
256,192,67922,1,0,0:0:0:0:
256,192,68081,1,8,0:0:0:0:
256,192,68241,1,8,0:0:0:0:
256,192,68560,1,8,0:0:0:0:
256,192,68879,1,4,0:0:0:0:
256,192,69358,1,0,0:0:0:0:
256,192,69517,1,8,0:0:0:0:
256,192,69597,1,8,0:0:0:0:
256,192,69677,1,8,0:0:0:0:
256,192,69837,1,0,0:0:0:0:
256,192,70156,1,8,0:0:0:0:
256,192,70475,1,0,0:0:0:0:
256,192,70634,1,0,0:0:0:0:
256,192,70794,1,8,0:0:0:0:
256,192,71113,1,8,0:0:0:0:
256,192,71273,1,0,0:0:0:0:
256,192,71432,1,8,0:0:0:0:
256,192,71751,1,0,0:0:0:0:
256,192,71911,1,8,0:0:0:0:
256,192,72071,1,8,0:0:0:0:
256,192,72390,1,0,0:0:0:0:
256,192,72709,1,6,0:0:0:0:
256,192,73028,1,6,0:0:0:0:
256,192,73188,1,4,0:0:0:0:
256,192,73347,1,6,0:0:0:0:
256,192,73826,1,0,0:0:0:0:
256,192,73985,1,6,0:0:0:0:
256,192,74305,1,8,0:0:0:0:
256,192,74464,1,0,0:0:0:0:
256,192,74783,1,8,0:0:0:0:
256,192,74943,1,0,0:0:0:0:
256,192,75103,1,8,0:0:0:0:
256,192,75262,1,0,0:0:0:0:
256,192,75741,1,0,0:0:0:0:
256,192,75900,1,8,0:0:0:0:
256,192,76220,1,0,0:0:0:0:
256,192,76379,1,0,0:0:0:0:
256,192,76539,1,6,0:0:0:0:
256,192,76858,1,0,0:0:0:0:
256,192,77017,1,8,0:0:0:0:
256,192,77337,1,0,0:0:0:0:
256,192,77496,1,8,0:0:0:0:
256,192,77656,1,8,0:0:0:0:
256,192,77815,1,0,0:0:0:0:
256,192,78134,1,0,0:0:0:0:
256,192,78294,1,8,0:0:0:0:
256,192,78454,1,8,0:0:0:0:
256,192,78773,1,8,0:0:0:0:
256,192,79092,1,4,0:0:0:0:
256,192,79411,1,0,0:0:0:0:
256,192,79571,1,8,0:0:0:0:
256,192,79890,1,0,0:0:0:0:
256,192,80049,1,8,0:0:0:0:
256,192,80209,1,8,0:0:0:0:
256,192,80368,1,0,0:0:0:0:
256,192,80688,1,0,0:0:0:0:
256,192,80847,1,8,0:0:0:0:
256,192,81166,1,0,0:0:0:0:
256,192,81326,1,8,0:0:0:0:
256,192,81406,1,8,0:0:0:0:
256,192,81485,1,8,0:0:0:0:
256,192,81645,1,0,0:0:0:0:
256,192,81964,1,0,0:0:0:0:
256,192,82124,1,8,0:0:0:0:
256,192,82283,1,8,0:0:0:0:
256,192,82603,1,0,0:0:0:0:
256,192,82922,1,0,0:0:0:0:
256,192,83081,1,8,0:0:0:0:
256,192,83241,1,0,0:0:0:0:
256,192,83560,1,8,0:0:0:0:
256,192,83879,1,8,0:0:0:0:
256,192,84198,1,0,0:0:0:0:
256,192,84517,1,6,0:0:0:0:
256,192,84677,1,4,0:0:0:0:
256,192,84837,1,6,0:0:0:0:
256,192,85156,1,4,0:0:0:0:
256,192,85315,1,6,0:0:0:0:
256,192,85475,1,4,0:0:0:0:
256,192,85794,1,0,0:0:0:0:
256,192,85954,1,8,0:0:0:0:
256,192,86113,1,0,0:0:0:0:
256,192,86273,1,8,0:0:0:0:
256,192,86353,1,8,0:0:0:0:
256,192,86432,1,8,0:0:0:0:
256,192,86592,1,0,0:0:0:0:
256,192,86751,1,6,0:0:0:0:
256,192,87071,1,4,0:0:0:0:
