osu file format v14

[General]
AudioFilename: audio.mp3
AudioLeadIn: 0
PreviewTime: 221949
Countdown: 0
SampleSet: Soft
StackLeniency: 0.3
Mode: 0
LetterboxInBreaks: 0
WidescreenStoryboard: 1

[Editor]
DistanceSpacing: 0.9
BeatDivisor: 4
GridSize: 4
TimelineZoom: 1.699999

[Metadata]
Title:Absolute Soul
TitleUnicode:Absolute Soul
Artist:Suzuki Konomi
ArtistUnicode:鈴木このみ
Creator:Kalibe
Version:Doormat's Extra
Source:アブソリュート・デュオ
Tags:Duo opening full version garden doormat mugiwarasekai irohas akitoshi corinn [c_u_r_i] curi
BeatmapID:1302627
BeatmapSetID:568786

[Difficulty]
HPDrainRate:6
CircleSize:4
OverallDifficulty:8
ApproachRate:9.3
SliderMultiplier:1.72
SliderTickRate:1

[Events]
//Background and Video events
0,0,"bg2.jpg",0,0
//Break Periods
2,176910,183656
2,202242,211900
//Storyboard Layer 0 (Background)
//Storyboard Layer 1 (Fail)
//Storyboard Layer 2 (Pass)
//Storyboard Layer 3 (Foreground)
//Storyboard Sound Samples

[TimingPoints]
540,319.148936170213,4,2,5,65,1,0
2933,-100,4,2,5,70,0,0
11869,-100,4,2,5,75,0,0
12109,-100,4,2,5,5,0,0
12188,-100,4,2,5,80,0,0
12428,-100,4,2,5,5,0,0
12508,-166.666666666667,4,2,5,70,0,0
12986,-166.666666666667,4,2,1,40,0,0
13305,-125,4,2,5,60,0,0
21444,-100,4,2,1,70,0,0
21922,-100,4,2,5,60,0,0
22082,-100,4,2,5,70,0,0
23518,-100,4,2,5,60,0,0
32454,-100,4,2,5,65,0,0
33093,-76.9230769230769,4,2,5,70,0,0
33731,-100,4,2,5,70,0,0
38199,-100,4,2,5,70,0,0
38438,-100,4,2,5,75,0,0
38678,-100,4,2,5,80,0,0
38837,-100,4,2,5,70,0,0
42667,-100,4,2,5,75,0,0
43305,-100,4,2,5,80,0,0
43944,-166.666666666667,4,2,1,50,0,0
45220,-166.666666666667,4,2,1,55,0,0
50965,-166.666666666667,4,2,5,60,0,0
51125,-166.666666666667,4,2,5,60,0,0
51603,-166.666666666667,4,2,5,65,0,0
54157,-125,4,2,5,55,0,0
59103,-111.111111111111,4,2,5,60,0,0
60380,-100,4,2,5,70,0,0
61657,-90.909090909091,4,2,5,75,0,0
62454,-90.909090909091,4,2,5,80,0,0
62933,-166.666666666667,4,2,1,50,0,0
63731,-200,4,2,1,60,0,0
64210,-66.6666666666667,4,2,5,75,0,1
64688,-90.9090909090909,4,2,5,75,0,1
73784,-200,4,2,5,50,0,0
74263,-200,4,2,1,60,0,0
74422,-66.6666666666667,4,2,5,75,0,1
74901,-90.9090909090909,4,2,5,75,0,1
84954,-90.9090909090909,4,2,5,85,0,1
85912,-100,4,2,5,85,0,0
85992,-100,4,2,5,65,0,0
87109,-100,4,2,5,5,0,0
87188,-100,4,2,5,60,0,0
88385,-100,4,2,5,5,0,0
88465,-100,4,2,5,55,0,0
89662,-100,4,2,5,5,0,0
89742,-125,4,2,5,65,0,0
90460,-125,4,2,5,5,0,0
90540,-125,4,2,5,75,0,0
91018,-100,4,2,5,70,0,0
98678,-100,4,2,5,70,0,0
99954,-90.9090909090909,4,2,5,75,0,0
101391,-166.666666666667,4,2,1,60,0,0
103305,-125,4,2,5,65,0,0
103465,-166.666666666667,4,2,5,65,0,0
103944,-100,4,2,5,60,0,0
110167,-166.666666666667,4,2,1,50,0,0
111603,-111.111111111111,4,2,5,60,0,0
111843,-111.111111111111,4,2,5,5,0,0
111922,-83.3333333333333,4,2,5,65,0,0
112162,-111.111111111111,4,2,5,5,0,0
112242,-66.6666666666667,4,2,5,80,0,0
112481,-66.6666666666667,4,2,5,5,0,0
112561,-100,4,2,5,60,0,0
120540,-100,4,2,5,65,0,0
121178,-76.9230769230769,4,2,5,75,0,0
121816,-100,4,2,5,70,0,0
126284,-90.9090909090909,4,2,5,70,0,0
126524,-90.9090909090909,4,2,5,75,0,0
126763,-90.9090909090909,4,2,5,80,0,0
126922,-100,4,2,5,60,0,0
128199,-100,4,2,5,65,0,0
129476,-100,4,2,5,70,0,0
130752,-90.9090909090909,4,2,5,70,0,0
131391,-83.3333333333333,4,2,5,70,0,0
132029,-166.666666666667,4,2,1,50,0,0
137135,-166.666666666667,4,2,1,50,0,0
138412,-166.666666666667,4,2,1,60,0,0
139688,-125,4,2,5,65,0,0
142242,-125,4,2,5,55,0,0
147188,-111.111111111111,4,2,5,60,0,0
148465,-100,4,2,5,70,0,0
149742,-90.9090909090909,4,2,5,75,0,0
150540,-90.9090909090909,4,2,5,80,0,0
150859,-90.9090909090909,4,2,5,85,0,0
152295,-66.6666666666667,4,2,5,75,0,1
152774,-90.9090909090909,4,2,5,75,0,1
161869,-200,4,2,5,50,0,0
162348,-200,4,2,1,60,0,0
162508,-66.6666666666667,4,2,5,75,0,1
162986,-90.9090909090909,4,2,5,75,0,1
173040,-90.9090909090909,4,2,5,85,0,1
173997,-111.111111111111,4,2,5,60,0,0
176710,-111.111111111111,4,2,5,5,0,0
184210,-100,4,2,5,65,0,0
191869,-100,4,2,5,60,0,0
193146,-100,4,2,5,65,0,0
194422,-100,4,2,5,70,0,0
195699,-100,4,2,5,75,0,0
196816,-166.666666666667,4,2,5,75,0,0
197135,-100,4,2,5,80,0,0
197454,-100,4,2,5,60,0,0
197614,-100,4,2,5,80,0,0
197933,-100,4,2,5,60,0,0
198093,-100,4,2,5,80,0,0
198412,-100,4,2,5,60,0,0
198571,-100,4,2,5,80,0,0
199688,-100,4,2,5,70,0,0
200008,-100,4,2,5,75,0,0
200327,-76.9230769230769,4,2,5,85,0,0
200965,-95.2380952380951,4,2,1,70,0,0
202242,-166.666666666667,4,2,1,45,0,0
212454,-166.666666666667,4,2,5,75,0,0
213412,-166.666666666667,4,2,5,75,0,0
215008,-166.666666666667,4,2,5,75,0,0
215965,-125,4,2,5,75,0,0
217561,-142.857142857143,4,2,1,55,0,0
220114,-200,4,2,1,50,0,0
220593,-200,4,2,1,60,0,0
220752,-133.333333333333,4,2,1,65,0,0
221231,-133.333333333333,4,2,1,75,0,0
221391,-133.333333333333,4,2,1,85,0,0
222029,-200,4,2,1,50,0,0
222508,-200,4,2,5,70,0,0
224422,-100,4,2,5,80,0,0
224462,-100,4,2,5,5,0,0
224742,-100,4,2,5,80,0,0
224782,-100,4,2,5,5,0,0
225061,-66.6666666666667,4,2,5,75,0,1
225540,-90.9090909090909,4,2,5,75,0,1
232082,-200,4,2,5,50,0,0
232481,-90.9090909090909,4,2,5,5,0,0
232561,-90.9090909090909,4,2,1,60,0,0
232720,-66.6666666666667,4,2,5,75,0,1
233199,-90.9090909090909,4,2,5,75,0,1
243252,-90.9090909090909,4,2,5,85,0,1
244130,-90.9090909090909,4,2,5,75,0,0
244210,-66.6666666666667,4,2,5,80,0,1
244688,-90.9090909090909,4,2,5,80,0,1
253784,-400,4,2,5,50,0,0
254901,-66.6666666666667,4,2,5,80,0,1
255380,-90.9090909090909,4,2,5,80,0,1
264954,-90.9090909090909,4,2,5,85,0,1
265912,-100,4,2,5,70,0,0
271018,-100,4,3,5,60,0,0
272454,-100,4,3,5,65,0,0
273571,-100,4,3,5,70,0,0
274369,-76.9230769230769,4,3,5,75,0,0
274848,-90.9090909090909,4,2,5,70,0,0
275087,-100,4,2,5,5,0,0
275167,-83.3333333333333,4,2,5,75,0,0
275407,-100,4,2,5,5,0,0
275486,-76.9230769230769,4,2,5,80,0,0
275726,-100,4,2,5,5,0,0
275805,-71.4285714285714,4,2,5,85,0,0
276045,-100,4,2,5,5,0,0
276125,-100,4,2,5,75,0,0
276444,-100,4,2,5,70,0,0
276922,-100,4,2,5,85,0,0
277720,-100,4,2,5,60,0,0

[Colours]
Combo1 : 223,83,164
Combo2 : 12,165,248
Combo3 : 21,210,182
Combo4 : 167,92,228

[HitObjects]
172,136,540,5,2,0:0:0:0:
228,296,699,1,2,0:0:0:0:
344,80,859,5,12,0:0:0:0:
200,216,1018,1,2,0:0:0:0:
200,216,1178,1,2,0:0:0:0:
400,224,1337,5,12,0:0:0:0:
244,76,1497,1,2,0:0:0:0:
244,76,1657,1,2,0:0:0:0:
144,288,1816,6,0,P|135:330|147:370,1,86,8|0,3:0|0:0,0:0:0:0:
316,304,2135,2,0,P|325:262|313:222,1,86,8|2,3:0|0:0,0:0:0:0:
136,116,2454,5,8,0:0:0:0:
344,72,2614,1,8,0:0:0:0:
136,116,2933,6,0,B|200:124|240:84|240:84|244:116|276:148,1,172,4|2,0:0|0:3,0:0:0:0:
436,240,3412,1,8,0:0:0:0:
344,72,3571,1,0,0:0:0:0:
276,296,3731,1,2,0:0:0:0:
388,156,3891,1,0,0:0:0:0:
184,148,4050,1,8,0:0:0:0:
336,224,4210,1,0,0:0:0:0:
132,280,4369,5,2,0:0:0:0:
352,232,4529,1,2,0:3:0:0:
168,140,4688,1,8,0:0:0:0:
240,324,4848,2,0,P|247:281|242:239,1,86,2|0,0:0|0:0,0:0:0:0:
72,96,5167,2,0,P|64:138|69:180,1,86,0|8,0:0|0:0,0:0:0:0:
340,104,5486,6,0,B|295:110|258:83|258:83|235:121|181:129,1,172,4|2,0:0|0:0,0:0:0:0:
321,9,5965,1,8,0:0:0:0:
276,184,6125,1,0,0:0:0:0:
176,32,6284,1,2,0:0:0:0:
372,108,6444,1,0,0:0:0:0:
172,188,6603,1,8,0:0:0:0:
356,308,6763,6,0,P|364:260|348:216,1,86,2|2,0:3|0:0,0:0:0:0:
244,96,7082,1,0,0:0:0:0:
276,272,7242,1,8,0:0:0:0:
428,128,7401,2,0,B|372:132|332:100|332:100|328:140|296:164,1,172,2|0,0:1|0:0,0:0:0:0:
180,268,7880,1,8,0:0:0:0:
91,117,8040,6,0,P|162:73|243:94,1,172,4|2,0:0|0:3,0:0:0:0:
376,208,8518,1,8,0:0:0:0:
176,176,8678,1,0,0:0:0:0:
312,372,8837,1,2,0:0:0:0:
276,192,8997,1,0,0:0:0:0:
140,384,9157,1,8,0:0:0:0:
292,280,9316,1,0,0:0:0:0:
108,196,9476,5,2,0:0:0:0:
308,280,9635,1,2,0:3:0:0:
68,344,9795,1,8,0:0:0:0:
195,147,9954,2,0,P|207:187|200:230,1,86,2|0,0:1|0:0,0:0:0:0:
28,116,10274,2,0,P|15:75|22:32,1,86,0|8,0:0|0:0,0:0:0:0:
268,56,10593,6,0,P|187:31|111:67,1,172,4|2,0:0|0:3,0:0:0:0:
60,236,11071,1,8,0:0:0:0:
195,147,11231,1,0,0:0:0:0:
196,344,11391,1,2,0:0:0:0:
140,212,11550,1,0,0:0:0:0:
324,236,11710,1,8,0:0:0:0:
67,268,11869,6,0,P|52:206|76:147,1,129,6|0,0:0|0:0,0:0:0:0:
191,181,12188,2,0,B|202:194|227:201|227:201|140:212,1,129,6|0,0:0|0:0,0:0:0:0:
152,88,12508,6,0,B|268:72|268:72|253:92|252:120,1,154.799995275879,6|2,0:0|0:0,0:0:0:0:
264,132,13305,5,4,0:0:0:0:
356,104,13465,1,0,0:0:0:0:
426,169,13625,1,2,0:0:0:0:
404,262,13784,1,0,0:0:0:0:
312,290,13944,2,0,L|240:272,1,68.8,2|0,0:0|0:0,0:0:0:0:
153,248,14263,1,2,0:0:0:0:
264,132,14422,6,0,P|270:165|266:199,1,68.8,0|0,0:0|0:0,0:0:0:0:
176,168,14742,1,0,0:0:0:0:
228,44,14901,2,0,L|372:60,1,137.6,2|2,0:0|0:0,0:0:0:0:
452,104,15380,2,0,P|416:128|396:172,1,68.8,0|2,0:0|0:0,0:0:0:0:
372,240,15699,1,0,0:0:0:0:
247,147,15859,5,2,0:0:0:0:
276,239,16018,1,0,0:0:0:0:
210,310,16178,1,2,0:0:0:0:
115,289,16337,1,0,0:0:0:0:
86,197,16497,2,0,L|120:132,1,68.8,2|0,0:0|0:0,0:0:0:0:
164,52,16816,1,2,0:0:0:0:
285,102,16976,6,0,P|274:170|276:239,1,137.6,0|0,0:0|0:0,0:0:0:0:
380,280,17454,2,0,L|373:211,1,68.8,2|0,0:0|0:0,0:0:0:0:
292,340,17774,1,2,0:0:0:0:
207,232,17933,2,0,L|275:238,1,68.8,0|2,0:0|0:0,0:0:0:0:
152,312,18252,1,0,0:0:0:0:
16,217,18412,5,2,0:0:0:0:
56,304,18572,1,0,0:0:0:0:
152,312,18731,1,2,0:0:0:0:
207,232,18891,1,0,0:0:0:0:
166,144,19050,2,0,L|92:144,1,68.8,2|0,0:0|0:0,0:0:0:0:
0,144,19369,1,2,0:0:0:0:
102,53,19529,6,0,P|170:31|233:56,1,137.6,2|0,0:0|0:0,0:0:0:0:
172,212,20008,2,0,L|166:144,1,68.8,2|0,0:0|0:0,0:0:0:0:
320,56,20327,1,2,0:0:0:0:
320,56,20486,2,0,L|314:124,1,68.8,0|2,0:0|0:0,0:0:0:0:
104,244,20806,6,0,B|140:216|172:212|172:212|198:235|236:240,1,137.6,2|0,0:0|0:0,0:0:0:0:
271,136,21284,2,0,L|237:142,3,34.4,2|0|2|2,0:0|0:0|0:0|0:0,0:0:0:0:
296,111,21603,5,2,0:0:0:0:
299,154,21682,1,2,0:0:0:0:
322,190,21762,1,2,0:0:0:0:
359,210,21842,1,2,0:0:0:0:
402,210,21922,2,0,P|439:199|455:188,1,43,2|0,0:0|0:0,0:0:0:0:
488,88,22082,5,12,0:0:0:0:
188,176,22401,1,8,0:0:0:0:
512,264,22720,5,8,0:0:0:0:
264,72,23040,2,0,B|254:121|254:121|281:159|268:204|268:204|303:177,1,172,8|8,0:0|0:0,0:0:0:0:
344,116,23438,1,8,0:0:0:0:
348,112,23518,6,0,P|390:103|432:111,1,86,4|0,0:0|0:0,0:0:0:0:
307,284,23837,2,0,P|265:292|223:284,1,86,8|0,0:0|0:0,0:0:0:0:
128,156,24157,1,2,0:0:0:0:
268,204,24316,1,0,0:0:0:0:
88,272,24476,1,8,0:0:0:0:
228,320,24635,1,0,0:0:0:0:
64,248,24795,6,0,P|56:288|64:336,1,86,2|2,0:0|0:3,0:0:0:0:
62,332,25034,1,2,0:3:0:0:
62,332,25114,1,8,0:0:0:0:
184,164,25274,2,0,B|148:188|104:168|104:168|56:148|18:170,1,172,2|2,0:0|0:0,0:0:0:0:
140,80,25752,1,8,0:0:0:0:
228,248,25912,1,0,0:0:0:0:
0,196,26071,5,2,0:0:0:0:
184,164,26231,1,0,0:0:0:0:
92,344,26391,2,0,P|83:301|90:259,1,86,8|0,0:0|0:0,0:0:0:0:
272,300,26710,2,0,P|281:343|274:385,1,86,0|0,0:0|0:0,0:0:0:0:
208,184,27029,1,8,0:0:0:0:
380,244,27188,1,0,0:0:0:0:
136,232,27348,6,0,P|124:191|131:149,1,86,2|2,0:0|0:3,0:0:0:0:
131,149,27587,1,2,0:3:0:0:
131,149,27667,1,8,0:0:0:0:
252,32,27827,1,2,0:0:0:0:
208,184,27986,1,0,0:0:0:0:
52,56,28146,2,0,L|137:46,1,86,2|8,0:0|0:0,0:0:0:0:
288,28,28465,1,0,0:0:0:0:
184,224,28625,6,0,P|175:182|183:140,1,86,4|0,0:0|0:0,0:0:0:0:
319,238,28943,2,0,P|287:267|247:281,1,86,8|0,0:0|0:0,0:0:0:0:
264,113,29263,2,0,P|305:126|337:154,1,86,2|2,0:0|0:3,0:0:0:0:
337,154,29502,1,2,0:3:0:0:
337,154,29582,1,8,0:0:0:0:
184,224,29742,6,0,L|92:230,1,86,0|0,0:0|0:0,0:0:0:0:
292,312,30061,1,0,0:0:0:0:
292,312,30141,1,0,0:0:0:0:
292,312,30220,2,0,L|384:306,1,86,8|0,0:0|0:0,0:0:0:0:
320,176,30540,1,2,0:0:0:0:
168,312,30699,1,2,0:0:0:0:
224,100,30859,1,8,0:0:0:0:
388,247,31018,6,0,P|310:277|238:234,1,172,4|2,0:0|0:0,0:0:0:0:
329,91,31497,2,0,P|329:134|320:176,1,86,8|2,0:0|0:3,0:0:0:0:
164,284,31816,2,0,P|154:242|154:199,1,86,0|2,0:0|0:0,0:0:0:0:
168,32,32135,1,8,0:0:0:0:
32,140,32295,1,0,0:0:0:0:
262,142,32454,6,0,P|250:250|153:198,1,258,4|2,0:0|0:0,0:0:0:0:
248,376,33093,2,0,L|252:348,14,27.9499987205506,2|0|0|0|8|0|8|0|8|0|0|0|8|0|8,0:3|0:0|0:0|0:0|0:0|0:0|0:0|0:0|0:0|0:0|0:0|0:0|0:0|0:0|0:0,0:0:0:0:
283,384,33731,6,0,P|365:358|449:372,1,172,4|8,0:0|0:0,0:0:0:0:
512,216,34210,1,2,0:3:0:0:
348,116,34369,1,2,0:0:0:0:
348,116,34449,2,0,L|356:224,1,86,2|2,0:0|0:0,0:0:0:0:
364,276,34688,1,8,0:0:0:0:
464,116,34848,1,2,0:0:0:0:
267,40,35008,6,0,P|234:116|268:193,1,172,2|8,0:0|0:0,0:0:0:0:
400,284,35486,1,2,0:3:0:0:
508,104,35646,1,2,0:0:0:0:
508,104,35726,2,0,L|400:112,1,86,2|2,0:0|0:0,0:0:0:0:
348,116,35965,1,8,0:0:0:0:
504,236,36125,1,2,0:0:0:0:
324,364,36284,6,0,P|285:288|319:207,1,172,2|8,0:0|0:0,0:0:0:0:
480,124,36763,1,2,0:3:0:0:
294,51,36922,1,2,0:0:0:0:
294,51,37002,2,0,L|306:163,1,86,2|2,0:0|0:0,0:0:0:0:
314,211,37242,1,8,0:0:0:0:
416,40,37401,1,2,0:0:0:0:
184,120,37561,5,2,0:0:0:0:
184,120,37641,2,0,P|120:128|80:112,1,86,2|2,0:0|0:0,0:0:0:0:
36,84,37880,1,8,0:0:0:0:
124,264,38040,1,2,0:0:0:0:
180,27,38200,6,0,L|138:33,1,43,12|0,0:0|0:0,0:0:0:0:
268,183,38438,2,0,L|284:143,1,43,12|0,0:0|0:0,0:0:0:0:
89,180,38678,2,0,L|115:214,1,43,12|0,0:0|0:0,0:0:0:0:
204,288,38837,6,0,P|161:289|120:301,1,86,4|0,0:0|0:0,0:0:0:0:
228,92,39157,2,0,P|269:104|311:106,1,86,8|0,0:0|0:0,0:0:0:0:
488,236,39476,2,0,P|445:237|403:249,1,86,2|0,0:0|0:0,0:0:0:0:
403,249,39715,1,0,0:0:0:0:
403,249,39795,1,2,0:0:0:0:
468,80,39954,1,2,0:3:0:0:
280,20,40114,6,0,L|291:105,1,86,4|0,0:0|0:0,0:0:0:0:
108,228,40433,2,0,L|96:142,1,86,2|0,0:0|0:0,0:0:0:0:
296,236,40752,2,0,L|308:321,1,86,2|0,0:0|0:0,0:0:0:0:
308,321,40992,1,0,0:0:0:0:
308,321,41071,1,2,0:0:0:0:
112,380,41231,1,2,0:3:0:0:
55,168,41391,6,0,P|96:155|138:161,1,86,4|0,0:0|0:0,0:0:0:0:
336,60,41710,2,0,P|295:72|253:66,1,86,2|0,0:0|0:0,0:0:0:0:
408,252,42029,2,0,P|448:239|490:245,1,86,6|0,0:0|0:0,0:0:0:0:
490,245,42268,1,0,0:0:0:0:
490,245,42348,1,2,0:0:0:0:
428,60,42508,1,0,0:0:0:0:
248,208,42667,6,0,L|333:196,1,86,6|2,0:0|0:0,0:0:0:0:
333,196,42907,1,0,0:0:0:0:
333,196,42986,1,0,0:0:0:0:
152,100,43146,1,2,0:0:0:0:
72,336,43305,6,0,L|114:343,1,43,12|0,0:0|0:0,0:0:0:0:
36,196,43545,2,0,L|8:228,1,43,12|0,0:0|0:0,0:0:0:0:
175,234,43784,2,0,L|160:193,1,43,12|0,0:0|0:0,0:0:0:0:
120,100,43944,6,0,P|176:120|124:32,1,257.999992126465,4|2,0:2|0:0,0:0:0:0:
28,60,44901,2,0,L|40:132,1,51.599998425293,0|0,0:0|0:0,0:0:0:0:
76,187,45220,6,0,P|64:238|57:289,1,103.199996850586,0|0,0:0|0:0,0:0:0:0:
268,164,45859,2,0,P|261:112|249:62,1,103.199996850586,2|0,0:0|0:0,0:0:0:0:
255,271,46497,6,0,P|306:266|346:234,1,103.199996850586,2|0,0:0|0:0,0:0:0:0:
188,216,46976,2,0,P|167:262|175:312,1,103.199996850586,2|2,0:0|0:0,0:0:0:0:
270,185,47454,2,0,P|272:156|260:116,1,51.599998425293,0|0,0:0|0:0,0:0:0:0:
224,31,47774,6,0,P|295:55|360:19,1,154.799995275879,2|0,0:0|0:0,0:0:0:0:
440,76,48412,1,2,0:0:0:0:
430,172,48572,1,0,0:0:0:0:
341,211,48731,1,2,0:0:0:0:
261,154,48891,1,2,0:0:0:0:
429,171,49050,6,0,P|439:222|423:270,1,103.199996850586,2|0,0:0|0:0,0:0:0:0:
348,117,49529,2,0,P|386:83|436:73,1,103.199996850586,2|0,0:0|0:0,0:0:0:0:
341,211,50008,2,0,B|288:207|259:156|259:156|246:235|195:255|153:259,1,257.999992126465,2|0,0:0|0:0,0:0:0:0:
0,220,50965,5,10,0:3:0:0:
148,148,51125,2,0,L|124:144,3,17.1999994750977,4|0|0|0,3:0|3:0|3:0|3:0,0:0:0:0:
100,320,51444,1,2,0:0:0:0:
292,248,51603,6,0,L|189:258,1,103.199996850586,4|8,0:0|0:0,0:0:0:0:
340,160,52082,2,0,L|400:243,1,103.199996850586,4|8,0:0|0:0,0:0:0:0:
239,162,52561,2,0,L|260:114,1,51.599998425293,4|0,0:0|0:0,0:0:0:0:
292,15,52880,6,0,P|218:35|147:7,1,154.799995275879,6|2,0:0|0:0,0:0:0:0:
24,176,53518,5,2,0:0:0:0:
48,24,53678,1,8,0:0:0:0:
164,208,53837,1,8,0:0:0:0:
188,56,53997,1,8,0:0:0:0:
3,196,54157,6,0,P|68:174|132:197,1,137.6,4|2,0:0|0:3,0:0:0:0:
188,300,54635,1,2,0:0:0:0:
61,340,54795,2,0,L|68:272,1,68.8,8|0,0:0|0:3,0:0:0:0:
204,148,55114,2,0,L|210:216,1,68.8,0|0,0:0|0:0,0:0:0:0:
376,276,55433,5,2,0:0:0:0:
432,180,55593,2,0,P|380:164|292:204,1,137.6,2|2,0:0|0:0,0:0:0:0:
212,280,56071,1,8,0:0:0:0:
381,344,56231,2,0,L|376:276,1,68.8,0|2,0:0|0:3,0:0:0:0:
276,380,56550,1,0,0:0:0:0:
148,230,56710,6,0,P|207:198|269:223,1,137.6,2|2,0:0|0:3,0:0:0:0:
400,164,57188,1,0,0:0:0:0:
288,64,57348,2,0,L|284:132,1,68.8,8|0,0:0|0:0,0:0:0:0:
452,92,57667,2,0,L|448:23,1,68.8,2|0,0:3|0:0,0:0:0:0:
288,64,57986,6,0,P|232:92|152:64,1,137.6,2|2,0:0|0:3,0:0:0:0:
36,32,58465,1,2,0:0:0:0:
148,224,58625,5,8,0:0:0:0:
220,8,58785,1,8,0:0:0:0:
148,224,58944,1,8,0:0:0:0:
0,76,59103,6,0,L|172:56,1,154.799995275879,4|2,0:0|0:3,0:0:0:0:
153,58,59502,1,2,0:3:0:0:
153,58,59582,1,8,0:0:0:0:
204,292,59742,2,0,P|140:312|68:256,1,154.799995275879,2|2,0:3|0:3,0:0:0:0:
72,265,60141,1,2,0:3:0:0:
72,265,60220,1,8,0:0:0:0:
308,140,60380,6,0,L|326:310,1,172,4|2,0:0|0:3,0:0:0:0:
326,311,60779,1,2,0:3:0:0:
326,311,60859,1,8,0:0:0:0:
408,60,61018,1,2,0:3:0:0:
220,148,61178,5,0,0:0:0:0:
392,180,61337,1,2,0:0:0:0:
248,20,61497,1,8,0:0:0:0:
463,127,61657,6,0,P|480:184|436:256,1,141.900004330444,4|0,0:0|0:0,0:0:0:0:
372,280,61976,1,8,0:0:0:0:
216,172,62135,1,12,0:0:0:0:
388,80,62295,1,8,0:0:0:0:
188,196,62454,5,12,0:0:0:0:
440,253,62614,1,10,0:0:0:0:
268,76,62774,1,12,0:0:0:0:
161,290,62933,6,0,P|269:267|215:171,1,257.999992126465,2|2,0:0|0:0,0:0:0:0:
214,171,64210,6,0,P|270:266|162:290,1,258.000009841919,12|2,0:0|0:0,0:0:0:0:
108,119,64688,2,0,L|198:91,1,94.600002886963,8|0,0:0|0:0,0:0:0:0:
360,155,65008,1,2,0:0:0:0:
220,263,65167,2,0,P|208:217|214:171,1,94.600002886963,2|8,0:3|0:0,0:0:0:0:
420,239,65486,6,0,P|426:285|414:330,1,94.600002886963,2|2,0:3|0:0,0:0:0:0:
200,375,65805,1,2,0:3:0:0:
332,279,65965,1,8,0:0:0:0:
168,183,66125,2,0,L|175:277,1,94.600002886963,2|2,0:3|0:0,0:0:0:0:
348,175,66444,2,0,L|340:80,1,94.600002886963,2|8,0:3|0:0,0:0:0:0:
280,284,66763,6,0,L|476:268,1,189.200005773926,4|2,0:0|0:0,0:0:0:0:
320,376,67242,2,0,P|274:385|229:371,1,94.600002886963,8|0,0:0|0:0,0:0:0:0:
76,208,67561,1,2,0:0:0:0:
280,284,67720,1,0,0:0:0:0:
32,352,67880,1,8,0:0:0:0:
139,147,68040,6,0,P|157:191|153:238,1,94.600002886963,2|2,0:3|0:0,0:0:0:0:
16,384,68359,1,0,0:0:0:0:
76,208,68518,1,8,0:0:0:0:
212,364,68678,2,0,L|117:360,1,94.600002886963,2|2,0:3|0:0,0:0:0:0:
244,188,68997,2,0,L|338:191,1,94.600002886963,2|8,0:3|0:0,0:0:0:0:
184,264,69316,6,0,P|152:212|208:96,1,189.200005773926,4|2,0:0|0:0,0:0:0:0:
396,76,69795,1,2,0:0:0:0:
244,188,69954,1,2,0:3:0:0:
436,204,70114,1,2,0:0:0:0:
288,104,70274,2,0,P|242:91|197:102,1,94.600002886963,2|8,0:3|0:0,0:0:0:0:
272,300,70593,6,0,P|317:310|362:298,1,94.600002886963,0|0,0:0|0:0,0:0:0:0:
464,188,70912,1,0,0:0:0:0:
408,384,71071,1,8,0:0:0:0:
316,220,71231,2,0,L|328:320,1,94.600002886963,2|2,0:3|0:0,0:0:0:0:
188,164,71550,2,0,L|176:264,1,94.600002886963,2|8,0:3|0:0,0:0:0:0:
119,96,71869,6,0,P|184:68|250:91,1,141.900004330444,4|0,0:0|0:0,0:0:0:0:
304,140,72188,1,0,0:0:0:0:
64,232,72348,1,2,0:0:0:0:
316,312,72508,1,2,0:3:0:0:
316,312,72587,1,0,0:0:0:0:
316,312,72667,5,2,0:0:0:0:
283,299,72746,1,0,0:0:0:0:
247,296,72826,1,2,0:0:0:0:
213,304,72906,1,2,0:0:0:0:
182,322,72986,2,0,P|160:320|128:308,1,47.3000014434815,8|2,0:0|0:0,0:0:0:0:
64,232,73146,6,0,P|120:232|56:176,1,189.200005773926,4|8,0:0|0:0,0:0:0:0:
30,335,73625,1,8,0:0:0:0:
193,258,73784,6,0,P|208:193|188:131,1,129,4|2,0:0|0:0,0:0:0:0:
190,135,74422,6,0,B|226:190|193:258|193:258|119:268|72:216,1,258.000009841919,4|0,0:0|0:0,0:0:0:0:
152,32,74901,2,0,L|245:45,1,94.600002886963,8|0,0:0|0:0,0:0:0:0:
428,172,75220,1,2,0:0:0:0:
276,120,75380,1,2,0:0:0:0:
456,36,75540,1,8,0:0:0:0:
491,240,75699,6,0,P|453:265|406:263,1,94.600002886963,2|0,0:3|0:0,0:0:0:0:
232,160,76018,2,0,P|276:145|320:160,1,94.600002886963,0|8,0:0|0:0,0:0:0:0:
156,316,76337,2,0,L|148:216,1,94.600002886963,2|2,0:3|0:0,0:0:0:0:
268,340,76657,1,2,0:0:0:0:
44,292,76816,1,8,0:0:0:0:
248,124,76976,6,0,P|152:148|80:96,1,189.200005773926,4|2,0:0|0:0,0:0:0:0:
176,40,77454,1,8,0:0:0:0:
336,123,77614,2,0,P|328:170|327:218,1,94.600002886963,0|2,0:0|0:0,0:0:0:0:
136,320,77933,2,0,P|127:273|112:228,1,94.600002886963,0|8,0:0|0:0,0:0:0:0:
48,8,78252,6,0,P|93:22|139:31,1,94.600002886963,0|0,0:0|0:0,0:0:0:0:
336,84,78571,1,2,0:0:0:0:
120,136,78731,1,8,0:0:0:0:
272,27,78891,2,0,P|313:5|359:5,1,94.600002886963,2|2,0:3|0:0,0:0:0:0:
264,224,79210,2,0,P|217:224|176:201,1,94.600002886963,2|8,0:3|0:0,0:0:0:0:
438,132,79529,6,0,L|422:332,1,189.200005773926,4|2,0:0|0:0,0:0:0:0:
320,148,80008,1,8,0:0:0:0:
240,344,80167,1,2,0:3:0:0:
400,232,80327,1,2,0:0:0:0:
192,160,80486,1,0,0:0:0:0:
356,324,80645,1,8,0:0:0:0:
416,92,80805,6,0,P|340:40|251:63,1,189.200005773926,4|2,0:0|0:0,0:0:0:0:
116,204,81284,1,8,0:0:0:0:
156,24,81444,1,2,0:3:0:0:
320,148,81603,1,2,0:0:0:0:
136,114,81763,1,2,0:3:0:0:
344,8,81923,1,8,0:0:0:0:
395,220,82082,6,0,P|309:250|233:201,1,189.200005773926,4|0,0:0|0:0,0:0:0:0:
188,36,82561,1,8,0:0:0:0:
320,148,82720,1,0,0:0:0:0:
132,240,82880,5,2,0:0:0:0:
162,222,82959,1,2,0:0:0:0:
197,214,83039,1,8,0:0:0:0:
232,216,83119,1,8,0:0:0:0:
265,227,83200,1,2,0:0:0:0:
298,239,83280,1,8,0:0:0:0:
333,241,83359,2,0,P|364:235|388:223,1,47.3000014434815,8|8,0:0|0:0,0:0:0:0:
436,148,83518,1,4,0:0:0:0:
264,31,83678,6,0,P|263:79|269:126,1,94.600002886963,10|0,0:0|0:0,0:0:0:0:
368,368,83997,6,0,P|368:320|362:273,1,94.600002886963,10|0,0:0|0:0,0:0:0:0:
147,251,84316,6,0,P|195:252|242:246,1,94.600002886963,10|0,0:0|0:0,0:0:0:0:
484,147,84635,6,0,P|436:147|389:153,1,94.600002886963,10|0,0:0|0:0,0:0:0:0:
244,336,84954,5,12,0:0:0:0:
315,161,85114,1,2,0:0:0:0:
429,309,85274,1,2,0:3:0:0:
228,228,85433,5,12,0:0:0:0:
414,202,85593,1,2,0:0:0:0:
343,375,85753,1,2,0:0:0:0:
308,141,85912,5,4,0:0:0:0:
256,192,85992,12,0,87109,0:0:0:0:
256,192,87188,5,4,0:0:0:0:
256,192,87268,12,0,88385,0:0:0:0:
256,192,88465,5,4,0:0:0:0:
256,192,88545,12,0,89662,0:0:0:0:
167,253,89742,6,0,P|150:139|70:250,1,309.6,4|0,0:0|0:0,0:0:0:0:
120,201,90540,5,10,0:0:0:0:
368,148,90699,1,10,0:0:0:0:
120,201,91018,6,0,B|177:195|211:158|211:158|212:195|233:222,1,172,4|0,0:0|0:0,0:0:0:0:
392,320,91497,1,8,0:0:0:0:
368,148,91657,1,0,0:0:0:0:
188,332,91816,1,2,0:0:0:0:
212,160,91976,1,0,0:0:0:0:
392,320,92135,1,8,0:0:0:0:
368,148,92295,1,0,0:0:0:0:
188,332,92454,5,2,0:0:0:0:
380,232,92614,1,0,0:0:0:0:
180,172,92774,1,8,0:0:0:0:
343,327,92933,2,0,P|386:334|426:321,1,86,0|2,0:0|0:0,0:0:0:0:
336,128,93252,2,0,P|293:121|253:134,1,86,2|8,0:3|0:0,0:0:0:0:
40,252,93571,6,0,P|96:236|200:284,1,172,4|2,0:0|0:0,0:0:0:0:
380,232,94050,1,8,0:0:0:0:
224,152,94210,1,0,0:0:0:0:
212,316,94369,1,2,0:0:0:0:
368,148,94529,1,0,0:0:0:0:
356,312,94688,1,8,0:0:0:0:
152,200,94848,6,0,P|139:159|145:116,1,86,0|2,0:0|0:0,0:0:0:0:
316,220,95167,1,2,0:0:0:0:
236,32,95327,1,8,0:0:0:0:
72,172,95486,2,0,P|149:202|221:161,1,172,2|0,0:3|0:0,0:0:0:0:
328,20,95965,1,8,0:0:0:0:
496,128,96125,6,0,B|448:128|404:112|404:112|396:156|412:216,1,172,4|2,0:0|0:0,0:0:0:0:
496,368,96603,1,8,0:0:0:0:
500,216,96763,1,0,0:0:0:0:
316,364,96922,1,2,0:0:0:0:
312,212,97082,1,2,0:3:0:0:
496,368,97242,1,8,0:0:0:0:
500,216,97402,1,2,0:3:0:0:
316,364,97561,5,2,0:0:0:0:
498,292,97720,1,2,0:3:0:0:
312,184,97880,1,8,0:0:0:0:
487,111,98040,2,0,P|492:154|485:196,1,86,2|2,0:3|0:0,0:0:0:0:
309,268,98359,2,0,P|304:226|312:184,1,86,2|8,0:0|0:0,0:0:0:0:
384,368,98678,6,0,L|192:348,1,172,4|0,0:0|0:0,0:0:0:0:
144,156,99157,1,8,0:0:0:0:
170,174,99236,1,0,0:0:0:0:
200,183,99316,1,8,0:0:0:0:
232,181,99396,1,8,0:0:0:0:
262,168,99476,1,10,0:0:0:0:
291,155,99556,1,0,0:0:0:0:
323,152,99636,1,8,0:0:0:0:
354,161,99716,1,8,0:0:0:0:
380,180,99795,2,0,P|384:216|380:248,1,43,10|10,0:0|0:0,0:0:0:0:
268,288,99954,6,0,L|64:304,1,189.200005773926,4|2,0:0|0:3,0:0:0:0:
232,181,100433,1,8,0:0:0:0:
180,384,100593,1,10,0:0:0:0:
64,176,100752,5,10,0:0:0:0:
268,288,100912,1,12,0:0:0:0:
160,80,101071,1,10,0:0:0:0:
104,316,101231,1,12,0:0:0:0:
319,91,101391,6,0,P|336:128|296:116,1,103.199996850586,4|0,0:0|0:0,0:0:0:0:
319,91,103305,5,8,0:0:0:0:
375,30,103465,2,0,P|323:6|267:26,1,103.199996850586,4|8,0:0|0:0,0:0:0:0:
219,66,103864,1,8,0:0:0:0:
215,69,103944,6,0,P|214:112|217:155,1,86,4|0,0:0|0:0,0:0:0:0:
400,196,104263,2,0,P|401:153|398:110,1,86,8|0,0:0|0:0,0:0:0:0:
240,312,104582,2,0,P|289:273|392:308,1,172,2|8,0:3|0:0,0:0:0:0:
308,180,105061,1,2,0:3:0:0:
144,276,105220,6,0,L|157:360,1,86,2|0,0:0|0:0,0:0:0:0:
321,264,105540,2,0,L|308:180,1,86,8|2,0:0|0:0,0:0:0:0:
160,104,105859,1,0,0:0:0:0:
104,268,106018,2,0,P|145:276|186:263,1,86,2|8,0:3|0:0,0:0:0:0:
307,179,106337,1,0,0:0:0:0:
420,304,106497,6,0,L|433:219,1,86,2|0,0:0|0:0,0:0:0:0:
268,296,106816,2,0,L|281:380,1,86,8|0,0:0|0:0,0:0:0:0:
319,213,107134,2,0,P|237:205|176:270,1,172,2|8,0:3|0:0,0:0:0:0:
112,384,107614,1,0,0:0:0:0:
0,252,107774,6,0,P|42:247|85:251,1,86,2|0,0:0|0:0,0:0:0:0:
268,296,108093,2,0,P|225:300|182:296,1,86,8|0,0:0|0:0,0:0:0:0:
384,172,108412,1,2,0:0:0:0:
384,172,108571,2,0,L|376:264,1,86,2|8,0:0|0:0,0:0:0:0:
446,115,108891,6,0,B|405:132|383:173|383:173|364:130|331:108,1,172,4|0,0:0|0:0,0:0:0:0:
168,60,109369,2,0,L|164:108,3,43,8|0|0|0,0:0|0:0|0:0|0:0,0:0:0:0:
140,196,109688,5,2,0:0:0:0:
178,177,109767,1,0,0:0:0:0:
220,181,109847,1,2,0:3:0:0:
253,207,109927,1,2,0:3:0:0:
267,247,110008,2,0,P|266:268|263:289,1,43,8|0,0:0|0:0,0:0:0:0:
168,360,110167,5,2,0:0:0:0:
184,368,110486,1,2,0:0:0:0:
198,358,110805,1,2,0:0:0:0:
196,340,111125,2,0,P|188:300|188:228,1,103.199996850586,2|2,0:0|0:0,0:0:0:0:
240,188,111524,1,2,0:0:0:0:
244,192,111603,6,0,P|192:200|228:168,1,116.099996456909,2|0,0:0|0:0,0:0:0:0:
308,128,111922,6,0,B|336:158|329:209|329:209|340:173|381:153,1,154.799995275879,2|0,0:0|0:0,0:0:0:0:
408,238,112242,6,0,B|382:300|317:300|287:278|287:278|239:314|172:291,1,258.000009841919,12|2,0:0|0:0,0:0:0:0:
330,209,112720,1,0,0:0:0:0:
144,124,112880,6,0,L|152:216,1,86,2|2,0:0|0:3,0:0:0:0:
151,209,113119,1,2,0:3:0:0:
151,209,113199,1,8,0:0:0:0:
212,56,113359,2,0,P|136:28|52:104,1,172,2|2,0:0|0:3,0:0:0:0:
16,240,113837,1,8,0:0:0:0:
144,124,113997,1,0,0:0:0:0:
192,316,114157,5,4,0:0:0:0:
80,182,114316,1,0,0:0:0:0:
276,156,114476,1,8,0:0:0:0:
136,249,114636,1,0,0:0:0:0:
296,360,114795,2,0,P|304:308|284:256,1,86,2|0,0:3|0:0,0:0:0:0:
168,152,115114,1,8,0:0:0:0:
376,104,115274,1,0,0:0:0:0:
209,233,115433,6,0,P|169:246|128:236,1,86,0|0,0:0|0:0,0:0:0:0:
128,236,115672,1,0,0:0:0:0:
127,235,115752,1,12,0:0:0:0:
24,144,115912,1,2,0:0:0:0:
212,92,116071,1,0,0:0:0:0:
24,8,116231,2,0,L|112:20,1,86,2|8,0:0|0:0,0:0:0:0:
292,48,116550,1,0,0:0:0:0:
112,188,116710,5,2,0:0:0:0:
136,32,116869,1,0,0:0:0:0:
268,204,117029,1,8,0:0:0:0:
292,48,117188,1,0,0:0:0:0:
59,128,117348,2,0,P|99:112|141:117,1,86,2|2,0:3|0:0,0:0:0:0:
141,117,117587,1,2,0:0:0:0:
141,117,117667,1,8,0:0:0:0:
24,308,117827,6,0,L|24:200,1,86,0|2,0:0|0:0,0:0:0:0:
208,288,118146,1,0,0:0:0:0:
208,288,118226,1,0,0:0:0:0:
208,288,118305,2,0,L|208:396,1,86,8|0,0:0|0:0,0:0:0:0:
320,292,118625,1,2,0:0:0:0:
144,196,118784,1,2,0:0:0:0:
368,140,118944,1,8,0:0:0:0:
207,288,119103,6,0,P|129:313|62:264,1,172,4|0,0:0|0:0,0:0:0:0:
137,110,119582,2,0,P|144:153|144:196,1,86,8|0,0:0|0:0,0:0:0:0:
308,336,119901,2,0,P|307:293|314:250,1,86,2|2,0:3|0:0,0:0:0:0:
388,68,120220,1,8,0:0:0:0:
460,240,120380,1,0,0:0:0:0:
247,146,120540,6,0,P|203:246|313:249,1,258,4|2,0:0|0:0,0:0:0:0:
300,28,121179,2,0,L|272:23,14,27.9499987205506,2|0|0|0|0|0|0|0|0|0|2|0|8|0|0,0:0|0:0|0:0|0:0|0:0|0:0|0:0|0:0|0:0|0:0|0:0|0:0|0:0|0:0|0:0,0:0:0:0:
243,4,121816,6,0,P|234:45|211:81,1,86,4|2,0:0|0:0,0:0:0:0:
68,204,122135,2,0,P|108:191|150:193,1,86,2|2,0:0|0:0,0:0:0:0:
328,255,122454,2,0,P|296:226|277:187,1,86,2|8,0:0|0:0,0:0:0:0:
256,216,122694,2,0,P|246:258|222:294,1,86,2|0,0:0|0:0,0:0:0:0:
196,316,122933,1,8,0:0:0:0:
204,80,123093,5,2,0:0:0:0:
336,128,123252,1,8,0:0:0:0:
336,128,123332,1,0,0:0:0:0:
336,128,123411,1,2,0:0:0:0:
376,140,123491,1,2,0:0:0:0:
418,132,123571,1,8,0:0:0:0:
451,105,123650,1,0,0:0:0:0:
467,65,123731,2,0,P|472:108|483:149,1,86,2|8,0:0|0:0,0:0:0:0:
500,180,123970,2,0,P|465:205|434:235,1,86,2|0,0:0|0:0,0:0:0:0:
412,264,124210,1,8,0:0:0:0:
240,176,124369,6,0,L|236:272,1,86,2|8,0:0|0:0,0:0:0:0:
304,104,124688,1,2,0:0:0:0:
267,82,124767,1,0,0:0:0:0:
224,79,124847,1,8,0:0:0:0:
185,95,124927,1,0,0:0:0:0:
156,127,125008,2,0,P|104:136|60:120,1,86,2|8,0:0|0:0,0:0:0:0:
44,108,125247,2,0,P|52:160|36:204,1,86,2|0,0:0|0:0,0:0:0:0:
24,220,125486,1,8,0:0:0:0:
168,312,125646,6,0,L|251:292,1,86,2|8,0:0|0:0,0:0:0:0:
280,272,125885,2,0,L|363:291,1,86,2|0,0:0|0:0,0:0:0:0:
399,300,126125,1,8,0:0:0:0:
496,128,126284,6,0,L|510:179,1,47.3000014434815,12|0,0:0|0:0,0:0:0:0:
331,128,126523,2,0,L|368:89,1,47.3000014434815,12|0,0:0|0:0,0:0:0:0:
414,271,126763,2,0,L|362:258,1,47.3000014434815,12|0,0:0|0:0,0:0:0:0:
268,208,126922,5,4,0:0:0:0:
259,238,127001,1,2,0:0:0:0:
239,264,127081,1,8,0:0:0:0:
213,282,127161,1,2,0:0:0:0:
181,289,127241,1,8,0:0:0:0:
150,285,127320,1,2,0:0:0:0:
121,270,127400,1,8,0:0:0:0:
100,246,127480,1,2,0:0:0:0:
88,216,127561,2,0,L|96:160,3,43,2|0|8|2,0:0|0:0|0:0|0:0,0:0:0:0:
128,96,127880,2,0,L|120:39,3,43,0|0|8|0,0:0|0:0|0:0|0:0,0:0:0:0:
212,16,128199,5,4,0:0:0:0:
241,33,128278,1,2,0:0:0:0:
274,41,128358,1,8,0:0:0:0:
309,40,128438,1,2,0:0:0:0:
341,29,128518,1,8,0:0:0:0:
373,17,128597,1,2,0:0:0:0:
408,16,128677,1,8,0:0:0:0:
441,25,128757,1,2,0:0:0:0:
469,44,128837,2,0,P|476:72|476:100,3,43,4|0|8|2,0:0|0:0|0:0|0:0,0:0:0:0:
460,172,129157,2,0,P|440:162|419:156,3,43,0|0|8|0,0:0|0:0|0:0|0:0,0:0:0:0:
328,124,129476,5,4,0:0:0:0:
340,159,129555,1,2,0:0:0:0:
338,196,129635,1,8,0:0:0:0:
321,229,129715,1,2,0:0:0:0:
292,254,129795,1,8,0:0:0:0:
257,265,129874,1,2,0:0:0:0:
219,261,129954,1,8,0:0:0:0:
187,243,130034,1,2,0:0:0:0:
164,213,130114,2,0,L|155:159,3,43,4|0|8|4,0:0|0:0|0:0|0:0,0:0:0:0:
79,207,130433,2,0,L|72:249,3,43,0|2|8|0,0:0|0:0|0:0|0:0,0:0:0:0:
55,356,130752,5,4,0:0:0:0:
94,329,130831,1,0,0:0:0:0:
140,320,130911,1,8,0:0:0:0:
186,330,130991,1,2,0:0:0:0:
223,358,131071,1,0,0:0:0:0:
267,375,131150,1,0,0:0:0:0:
314,373,131230,1,8,0:0:0:0:
356,352,131310,1,0,0:0:0:0:
387,316,131391,5,12,0:0:0:0:
196,192,131630,1,12,0:0:0:0:
399,88,131869,1,8,0:0:0:0:
327,197,132029,6,0,P|288:236|276:103,1,309.599990551758,6|0,0:0|0:0,0:0:0:0:
248,316,133305,2,0,P|198:303|156:273,1,103.199996850586,2|0,0:0|0:0,0:0:0:0:
360,200,133944,2,0,P|409:212|451:242,1,103.199996850586,2|0,0:0|0:0,0:0:0:0:
264,113,134582,6,0,B|247:168|193:182|193:182|234:216|236:272,1,206.399993701172,2|2,0:0|0:0,0:0:0:0:
36,300,135540,1,0,0:0:0:0:
36,300,135699,1,0,0:0:0:0:
36,300,135859,2,0,P|60:248|128:328,1,206.399993701172,2|2,0:0|0:0,0:0:0:0:
336,88,137135,6,0,P|333:139|339:190,1,103.199996850586,2|0,0:0|0:0,0:0:0:0:
296,268,137614,2,0,P|252:239|205:219,1,103.199996850586,2|0,0:0|0:0,0:0:0:0:
160,143,138093,1,2,0:0:0:0:
160,143,138412,6,0,P|205:119|246:88,1,103.199996850586,0|0,0:0|0:0,0:0:0:0:
336,88,138891,1,0,0:0:0:0:
390,195,139050,1,2,0:0:0:0:
366,184,139130,1,2,0:0:0:0:
342,175,139210,1,2,0:0:0:0:
317,169,139290,1,2,0:0:0:0:
292,165,139369,1,4,3:0:0:0:
344,304,139529,1,2,0:0:0:0:
196,202,139688,6,0,P|194:134|233:78,1,137.6,4|8,0:0|0:0,0:0:0:0:
277,267,140167,2,0,P|219:302|151:296,1,137.6,4|8,0:0|0:0,0:0:0:0:
292,165,140646,2,0,P|351:197|380:258,1,137.6,4|4,0:0|0:0,0:0:0:0:
196,202,141125,5,2,0:3:0:0:
212,101,141284,1,2,0:0:0:0:
292,165,141444,1,2,0:0:0:0:
100,239,141603,5,0,3:0:0:0:
196,202,141763,1,8,0:0:0:0:
233,298,141923,1,8,0:0:0:0:
137,335,142082,1,8,0:0:0:0:
136,144,142242,6,0,P|176:120|268:160,1,137.6,4|2,0:0|0:3,0:0:0:0:
328,232,142720,1,2,0:0:0:0:
432,124,142880,2,0,L|363:130,1,68.8,8|0,0:0|0:0,0:0:0:0:
432,256,143199,2,0,L|500:249,1,68.8,2|0,0:3|0:0,0:0:0:0:
328,232,143518,5,2,0:0:0:0:
258,169,143678,2,0,P|233:231|257:294,1,137.6,0|2,0:0|0:0,0:0:0:0:
388,332,144157,1,8,0:0:0:0:
328,232,144316,1,0,0:0:0:0:
428,172,144476,1,2,0:3:0:0:
488,272,144635,1,0,0:0:0:0:
368,360,144795,6,0,L|220:344,1,137.6,2|2,0:0|0:3,0:0:0:0:
160,264,145274,1,2,0:0:0:0:
260,174,145433,2,0,P|268:207|265:241,1,68.8,8|0,0:0|0:0,0:0:0:0:
104,196,145752,2,0,P|100:161|108:128,1,68.8,2|0,0:3|0:0,0:0:0:0:
260,60,146071,6,0,P|316:88|396:60,1,137.6,2|2,0:0|0:3,0:0:0:0:
512,28,146550,1,2,0:0:0:0:
400,220,146710,5,8,0:0:0:0:
328,4,146870,1,8,0:0:0:0:
400,220,147029,1,8,0:0:0:0:
160,144,147188,6,0,P|200:116|304:132,1,154.799995275879,4|2,0:0|0:3,0:0:0:0:
300,129,147587,1,2,0:3:0:0:
300,129,147667,1,8,0:0:0:0:
324,316,147827,2,0,P|284:344|180:328,1,154.799995275879,0|2,0:0|0:3,0:0:0:0:
183,330,148226,1,2,0:3:0:0:
183,330,148305,1,8,0:0:0:0:
404,192,148465,6,0,L|432:368,1,172,4|2,0:0|0:3,0:0:0:0:
431,361,148864,1,2,0:3:0:0:
431,361,148944,1,8,0:0:0:0:
244,232,149103,1,0,0:0:0:0:
472,100,149263,5,0,0:0:0:0:
288,160,149422,1,2,0:0:0:0:
480,220,149582,1,8,0:0:0:0:
224,83,149742,6,0,P|289:61|353:89,1,141.900004330444,4|0,0:0|0:0,0:0:0:0:
400,148,150061,1,8,0:0:0:0:
256,336,150220,1,8,0:0:0:0:
288,160,150380,1,8,0:0:0:0:
384,384,150540,5,8,0:0:0:0:
220,240,150699,1,10,0:0:0:0:
436,192,150859,1,8,0:0:0:0:
272,48,151018,1,12,0:0:0:0:
272,48,152295,6,0,P|244:116|208:8,1,258.000009841919,12|2,0:0|0:0,0:0:0:0:
364,104,152774,2,0,P|360:151|354:198,1,94.600002886963,8|2,0:0|0:3,0:0:0:0:
236,336,153093,1,2,0:0:0:0:
160,192,153252,2,0,L|254:199,1,94.600002886963,2|8,0:3|0:0,0:0:0:0:
432,360,153571,6,0,L|337:352,1,94.600002886963,0|0,0:0|0:0,0:0:0:0:
156,284,153891,1,0,0:0:0:0:
352,216,154050,1,8,0:0:0:0:
154,99,154210,2,0,P|150:145|160:192,1,94.600002886963,2|2,0:3|0:0,0:0:0:0:
348,108,154529,2,0,P|352:61|342:15,1,94.600002886963,2|8,0:3|0:0,0:0:0:0:
260,212,154848,6,0,L|456:220,1,189.200005773926,4|2,0:0|0:0,0:0:0:0:
292,324,155327,2,0,P|232:328|188:304,1,94.600002886963,8|0,0:0|0:0,0:0:0:0:
72,188,155646,1,2,0:0:0:0:
40,372,155805,1,0,0:0:0:0:
260,212,155965,1,8,0:0:0:0:
16,80,156125,6,0,L|144:88,1,94.600002886963,0|0,0:0|0:0,0:0:0:0:
296,104,156444,1,0,0:0:0:0:
144,8,156603,1,8,0:0:0:0:
72,183,156763,2,0,P|61:229|71:275,1,94.600002886963,2|2,0:3|0:0,0:0:0:0:
248,360,157082,2,0,P|258:314|248:268,1,94.600002886963,2|8,0:3|0:0,0:0:0:0:
164,80,157401,6,0,P|228:104|324:40,1,189.200005773926,4|0,0:0|0:0,0:0:0:0:
468,188,157880,1,2,0:0:0:0:
408,24,158040,1,0,0:0:0:0:
300,216,158199,1,2,0:0:0:0:
420,108,158359,2,0,P|476:96|524:112,1,94.600002886963,0|8,0:0|0:0,0:0:0:0:
348,296,158678,6,0,P|292:308|244:292,1,94.600002886963,2|2,0:3|0:0,0:0:0:0:
156,152,158997,1,0,0:0:0:0:
300,216,159157,1,8,0:0:0:0:
124,336,159316,2,0,L|131:241,1,94.600002886963,2|2,0:3|0:0,0:0:0:0:
292,121,159635,2,0,L|300:216,1,94.600002886963,2|8,0:3|0:0,0:0:0:0:
208,40,159954,6,0,L|349:28,1,141.900004330444,4|0,0:0|0:0,0:0:0:0:
424,20,160274,1,2,0:0:0:0:
268,152,160433,1,8,0:0:0:0:
484,220,160593,1,0,0:0:0:0:
484,220,160672,1,2,0:0:0:0:
483,219,160752,5,2,0:0:0:0:
450,208,160831,1,0,0:0:0:0:
415,207,160911,1,8,0:0:0:0:
380,215,160991,1,8,0:0:0:0:
350,233,161071,2,0,P|336:264|332:288,1,47.3000014434815,10|8,0:0|0:0,0:0:0:0:
228,356,161231,6,0,P|200:300|200:380,1,189.200005773926,12|10,0:0|0:0,0:0:0:0:
376,360,161710,1,10,0:0:0:0:
234,235,161869,6,0,P|170:226|114:254,1,129,4|2,0:0|0:0,0:0:0:0:
114,255,162508,6,0,B|163:209|234:235|234:235|299:262|355:213,1,258.000009841919,4|0,0:0|0:0,0:0:0:0:
111,73,162986,2,0,L|102:187,1,94.600002886963,8|0,0:0|0:0,0:0:0:0:
188,336,163305,1,2,0:0:0:0:
280,152,163465,1,2,0:3:0:0:
32,224,163625,1,8,0:0:0:0:
232,260,163784,6,0,P|186:247|141:259,1,94.600002886963,0|0,0:0|0:0,0:0:0:0:
312,104,164103,2,0,P|357:115|402:103,1,94.600002886963,0|8,0:0|0:0,0:0:0:0:
176,28,164422,2,0,L|188:132,1,94.600002886963,2|2,0:3|0:0,0:0:0:0:
340,232,164742,1,2,0:3:0:0:
356,16,164900,1,8,0:0:0:0:
100,160,165061,6,0,P|183:121|266:158,1,189.200005773926,4|2,0:0|0:0,0:0:0:0:
184,232,165540,1,8,0:0:0:0:
16,168,165699,2,0,P|11:120|16:73,1,94.600002886963,2|2,0:3|0:0,0:0:0:0:
216,4,166018,2,0,P|220:51|215:98,1,94.600002886963,0|8,0:0|0:0,0:0:0:0:
62,271,166337,6,0,L|156:256,1,94.600002886963,4|0,0:0|0:0,0:0:0:0:
360,276,166657,1,0,0:3:0:0:
180,364,166816,1,8,0:0:0:0:
311,196,166976,2,0,P|357:183|403:193,1,94.600002886963,2|2,0:3|0:0,0:0:0:0:
271,366,167295,2,0,P|225:376|180:364,1,94.600002886963,2|8,0:3|0:0,0:0:0:0:
48,136,167614,6,0,L|64:336,1,189.200005773926,4|2,0:0|0:0,0:0:0:0:
166,152,168092,1,8,0:0:0:0:
246,348,168251,1,2,0:3:0:0:
86,236,168411,1,2,0:0:0:0:
294,164,168571,1,0,0:0:0:0:
130,328,168730,1,8,0:0:0:0:
70,96,168890,6,0,P|146:44|235:67,1,189.200005773926,4|2,0:0|0:0,0:0:0:0:
370,208,169369,1,8,0:0:0:0:
330,28,169529,1,2,0:3:0:0:
166,152,169688,1,2,0:0:0:0:
350,118,169848,1,0,0:0:0:0:
142,12,170008,1,8,0:0:0:0:
91,224,170167,6,0,P|177:254|253:205,1,189.200005773926,4|8,0:0|0:0,0:0:0:0:
298,40,170646,1,2,0:0:0:0:
166,152,170805,1,0,0:0:0:0:
354,244,170965,5,2,0:0:0:0:
324,226,171044,1,0,0:0:0:0:
289,218,171124,1,8,0:0:0:0:
254,220,171204,1,8,0:0:0:0:
221,231,171285,1,10,0:0:0:0:
188,243,171365,1,8,0:0:0:0:
153,245,171444,2,0,P|122:239|98:227,1,47.3000014434815,8|8,0:0|0:0,0:0:0:0:
50,152,171603,1,4,0:0:0:0:
222,35,171763,6,0,P|223:83|217:130,1,94.600002886963,8|0,0:0|0:0,0:0:0:0:
118,372,172082,6,0,P|118:324|124:277,1,94.600002886963,8|0,0:0|0:0,0:0:0:0:
339,255,172401,6,0,P|291:256|244:250,1,94.600002886963,8|0,0:0|0:0,0:0:0:0:
2,151,172720,6,0,P|50:151|97:157,1,94.600002886963,8|0,0:0|0:0,0:0:0:0:
268,336,173040,5,12,0:0:0:0:
197,161,173200,1,2,0:0:0:0:
83,309,173360,1,4,0:0:0:0:
284,228,173519,5,8,0:0:0:0:
98,202,173679,1,2,0:0:0:0:
169,375,173837,1,0,0:0:0:0:
204,141,173998,5,12,0:0:0:0:
256,192,174077,12,0,176710,0:0:0:0:
196,236,184210,6,0,B|152:260|152:260|120:240|120:240|80:260|8:236,1,172,4|2,0:0|0:3,0:0:0:0:
256,140,184688,1,8,0:0:0:0:
200,340,184848,1,0,0:0:0:0:
76,156,185008,1,2,0:0:0:0:
20,356,185167,2,0,L|116:348,1,86,2|8,0:1|0:0,0:0:0:0:
316,236,185486,6,0,L|220:244,1,86,2|0,0:0|0:0,0:0:0:0:
388,144,185805,1,0,0:0:0:0:
376,336,185965,1,8,0:0:0:0:
188,148,186125,1,0,0:0:0:0:
200,340,186285,1,2,0:0:0:0:
388,144,186444,1,2,0:1:0:0:
376,336,186604,1,8,0:0:0:0:
140,268,186763,6,0,P|219:245|285:295,1,172,4|2,0:0|0:3,0:0:0:0:
92,364,187242,1,8,0:0:0:0:
104,168,187401,1,0,0:0:0:0:
200,340,187562,1,2,0:0:0:0:
212,144,187721,1,2,0:1:0:0:
308,316,187880,1,8,0:0:0:0:
320,120,188039,1,2,0:1:0:0:
104,168,188199,5,2,0:0:0:0:
287,226,188359,1,0,0:0:0:0:
245,38,188518,1,8,0:0:0:0:
67,243,188678,2,0,P|109:253|148:238,1,86,2|2,0:1|0:0,0:0:0:0:
324,152,188997,2,0,P|282:142|243:157,1,86,2|8,0:3|0:0,0:0:0:0:
348,372,189316,6,0,P|377:340|384:299,1,86,4|0,0:0|0:0,0:0:0:0:
188,264,189635,1,0,0:0:0:0:
188,264,189715,1,0,0:0:0:0:
188,264,189794,2,0,L|196:360,1,86,8|0,0:0|0:0,0:0:0:0:
284,192,190114,1,2,0:3:0:0:
284,192,190194,1,2,0:3:0:0:
284,192,190273,2,0,L|292:288,1,86,2|8,0:1|0:0,0:0:0:0:
380,120,190593,5,4,0:0:0:0:
208,128,190752,1,0,0:0:0:0:
324,0,190912,1,2,0:0:0:0:
284,192,191071,5,8,0:0:0:0:
248,44,191231,1,2,0:3:0:0:
160,220,191391,1,2,0:1:0:0:
124,72,191551,1,2,0:0:0:0:
308,108,191710,1,8,0:0:0:0:
104,160,191869,5,4,0:0:0:0:
128,145,191948,1,0,0:0:0:0:
156,139,192028,1,2,0:0:0:0:
184,144,192108,1,0,0:0:0:0:
209,158,192188,1,2,0:1:0:0:
228,179,192267,1,2,0:0:0:0:
238,206,192348,2,0,L|227:263,3,43,8|0|2|0,0:0|0:0|0:1|0:0,0:0:0:0:
184,312,192667,2,0,L|194:369,5,43,2|0|0|0|8|0,0:0|0:0|0:0|0:0|0:0|0:0,0:0:0:0:
278,384,193146,5,4,0:0:0:0:
301,361,193225,1,0,0:0:0:0:
329,345,193305,1,2,0:1:0:0:
360,335,193385,1,0,0:0:0:0:
392,333,193465,1,2,0:0:0:0:
424,338,193544,1,0,0:0:0:0:
453,351,193625,2,0,L|500:364,3,43,8|0|0|0,0:0|0:0|0:0|0:0,0:0:0:0:
512,284,193944,2,0,L|499:237,5,43,2|0|2|2|8|0,0:0|0:0|0:1|0:1|0:0|0:0,0:0:0:0:
472,155,194422,5,4,0:0:0:0:
445,180,194501,1,0,0:0:0:0:
412,197,194581,1,2,0:1:0:0:
376,203,194661,1,0,0:0:0:0:
340,200,194741,1,2,0:0:0:0:
306,186,194820,1,2,0:1:0:0:
278,164,194901,2,0,L|260:112,3,43,8|0|0|0,0:0|0:0|0:0|0:0,0:0:0:0:
188,96,195220,2,0,L|163:146,5,43,2|0|2|0|8|0,0:0|0:0|0:1|0:0|0:0|0:0,0:0:0:0:
112,204,195699,5,4,0:0:0:0:
150,222,195778,1,0,0:0:0:0:
192,219,195858,1,2,0:1:0:0:
228,195,195939,1,0,0:0:0:0:
263,172,196019,1,2,0:0:0:0:
305,169,196099,1,0,0:0:0:0:
344,186,196178,2,0,P|376:208|400:216,3,43,8|0|2|0,0:0|0:0|0:1|0:0,0:0:0:0:
436,276,196497,2,0,P|425:294|412:311,3,43,2|0|2|0,0:0|0:0|0:1|0:0,0:0:0:0:
340,344,196816,6,0,P|292:328|248:340,1,77.3999976379395,8|0,0:0|0:0,0:0:0:0:
180,360,197135,5,12,0:0:0:0:
436,276,197295,1,2,0:0:0:0:
436,276,197454,1,2,0:0:0:0:
200,128,197614,5,12,0:0:0:0:
323,367,197774,1,2,0:0:0:0:
323,367,197933,1,2,0:0:0:0:
392,96,198093,5,12,0:0:0:0:
191,275,198253,1,2,0:0:0:0:
191,275,198412,1,2,0:0:0:0:
456,212,198571,5,12,0:0:0:0:
200,128,198731,1,2,0:0:0:0:
200,128,198890,1,2,0:0:0:0:
368,348,199050,6,0,P|424:372|388:308,1,172,12|2,0:0|0:0,0:0:0:0:
176,112,199688,6,0,L|87:129,1,86,12|2,0:0|0:0,0:0:0:0:
336,272,200008,2,0,L|424:254,1,86,2|2,0:0|0:0,0:0:0:0:
118,331,200327,2,0,L|124:284,14,27.9499987205506,0|0|0|0|8|0|8|0|8|0|8|0|8|0|8,0:0|0:0|0:0|0:0|0:0|0:0|0:0|0:0|0:0|0:0|0:0|0:0|0:0|0:0|0:0,0:0:0:0:
197,327,200965,5,2,0:0:0:0:
104,92,212454,5,6,0:0:0:0:
104,92,212614,1,6,0:0:0:0:
408,188,213412,5,6,0:0:0:0:
408,188,213572,1,6,0:0:0:0:
40,320,215008,5,6,0:0:0:0:
40,320,215167,1,6,0:0:0:0:
380,116,215965,5,6,0:0:0:0:
380,116,216125,1,6,0:0:0:0:
220,112,217561,6,0,L|72:128,1,120.399996325684,4|0,0:0|0:0,0:0:0:0:
292,272,218199,2,0,L|440:256,1,120.399996325684,2|0,0:0|0:0,0:0:0:0:
140,228,218837,6,0,L|156:376,1,120.399996325684,4|0,0:0|0:0,0:0:0:0:
372,156,219476,2,0,L|356:8,1,120.399996325684,2|0,0:0|0:0,0:0:0:0:
80,288,220114,6,0,P|128:312|204:280,1,129,2|2,0:0|0:0,0:0:0:0:
196,288,220752,6,0,P|140:260|72:368,1,193.50000738144,2|2,0:0|0:0,0:0:0:0:
64,343,221391,6,0,P|136:360|144:208,1,258.000009841919,2|2,0:0|0:0,0:0:0:0:
162,217,222508,6,0,L|260:225,1,86,4|8,0:0|0:0,0:0:0:0:
356,233,222986,1,10,0:0:0:0:
356,233,223305,5,10,0:0:0:0:
162,217,223465,1,10,0:0:0:0:
162,217,223783,6,0,L|260:225,1,86,4|2,0:0|0:0,0:0:0:0:
356,233,224263,1,8,0:0:0:0:
272,104,224422,6,0,L|264:140,1,21.5,2|0,0:3|0:0,0:0:0:0:
312,348,224742,2,0,L|320:312,1,21.5,2|0,0:3|0:0,0:0:0:0:
132,212,225061,6,0,B|187:174|253:211|253:211|313:247|376:208,1,258.000009841919,12|2,0:0|0:0,0:0:0:0:
460,44,225540,2,0,L|360:52,1,94.600002886963,8|0,0:0|0:0,0:0:0:0:
196,192,225859,1,2,0:0:0:0:
208,12,226018,1,0,0:0:0:0:
384,180,226178,1,8,0:0:0:0:
148,112,226338,6,0,P|194:101|240:112,1,94.600002886963,0|2,0:0|0:0,0:0:0:0:
416,196,226657,1,0,0:0:0:0:
324,44,226816,1,8,0:0:0:0:
196,192,226976,2,0,L|192:287,1,94.600002886963,2|2,0:3|0:0,0:0:0:0:
384,240,227295,2,0,L|387:146,1,94.600002886963,0|8,0:0|0:0,0:0:0:0:
460,300,227614,6,0,P|408:332|292:276,1,189.200005773926,4|0,0:0|0:0,0:0:0:0:
256,104,228093,1,2,0:0:0:0:
384,240,228252,1,0,0:0:0:0:
420,56,228412,1,2,0:0:0:0:
304,184,228572,2,0,P|258:197|213:186,1,94.600002886963,2|8,0:3|0:0,0:0:0:0:
328,32,228891,6,0,P|374:19|419:30,1,94.600002886963,2|0,0:3|0:0,0:0:0:0:
504,200,229210,1,0,0:0:0:0:
372,116,229369,1,8,0:0:0:0:
296,296,229529,2,0,L|289:201,1,94.600002886963,2|2,0:3|0:0,0:0:0:0:
416,344,229848,2,0,L|422:249,1,94.600002886963,2|8,0:3|0:0,0:0:0:0:
208,152,230167,6,0,L|218:294,1,141.900004330444,4|0,0:0|0:0,0:0:0:0:
228,368,230486,1,2,0:0:0:0:
336,200,230646,1,8,0:0:0:0:
119,129,230805,1,0,0:0:0:0:
119,129,230885,1,2,0:0:0:0:
119,129,230964,5,2,0:0:0:0:
161,150,231044,1,0,0:0:0:0:
208,152,231124,1,0,0:0:0:0:
251,133,231204,1,8,0:0:0:0:
282,98,231284,2,0,L|336:104,1,47.3000014434815,10|8,0:0|0:0,0:0:0:0:
408,176,231444,6,0,P|393:230|464:182,1,189.200005773926,4|8,0:0|0:0,0:0:0:0:
317,108,231923,1,8,0:0:0:0:
349,293,232082,6,0,P|407:324|472:321,1,129,4|2,0:0|0:0,0:0:0:0:
469,322,232720,6,0,B|406:342|349:293|349:293|300:352|192:328,1,258.000009841919,4|0,0:0|0:0,0:0:0:0:
292,112,233199,2,0,P|336:98|382:108,1,94.600002886963,8|2,0:0|0:3,0:0:0:0:
512,220,233518,1,2,0:0:0:0:
340,185,233678,1,2,0:3:0:0:
504,52,233837,1,8,0:0:0:0:
287,13,233997,6,0,L|280:108,1,94.600002886963,2|0,0:3|0:0,0:0:0:0:
436,288,234316,2,0,L|428:193,1,94.600002886963,0|8,0:0|0:0,0:0:0:0:
224,176,234635,2,0,L|231:270,1,94.600002886963,2|2,0:3|0:0,0:0:0:0:
372,136,234954,1,2,0:3:0:0:
176,64,235114,1,8,0:0:0:0:
119,304,235274,6,0,P|199:258|286:288,1,189.200005773926,4|2,0:0|0:0,0:0:0:0:
464,208,235752,1,8,0:0:0:0:
260,79,235912,2,0,P|251:126|254:173,1,94.600002886963,2|2,0:3|0:0,0:0:0:0:
456,108,236231,2,0,P|459:60|450:14,1,94.600002886963,2|8,0:3|0:0,0:0:0:0:
368,256,236550,6,0,L|480:236,1,94.600002886963,2|2,0:3|0:0,0:0:0:0:
312,364,236869,1,2,0:3:0:0:
360,160,237029,1,8,0:0:0:0:
156,204,237188,2,0,L|172:308,1,94.600002886963,2|2,0:3|0:0,0:0:0:0:
264,104,237508,2,0,L|165:65,1,94.600002886963,2|8,0:3|0:0,0:0:0:0:
296,284,237827,6,0,P|376:240|460:277,1,189.200005773926,4|0,0:0|0:0,0:0:0:0:
248,192,238305,1,8,0:0:0:0:
380,352,238465,1,2,0:3:0:0:
392,152,238625,1,2,0:0:0:0:
240,320,238784,1,0,0:0:0:0:
420,252,238944,1,8,0:0:0:0:
203,136,239103,6,0,L|392:152,1,189.200005773926,4|2,0:0|0:0,0:0:0:0:
252,42,239582,1,8,0:0:0:0:
280,242,239742,1,2,0:3:0:0:
392,52,239901,1,2,0:0:0:0:
420,252,240061,1,2,0:3:0:0:
240,140,240220,1,8,0:0:0:0:
480,28,240380,6,0,P|460:116|374:142,1,189.200005773926,4|2,0:0|0:0,0:0:0:0:
228,28,240859,1,8,0:0:0:0:
392,52,241018,1,2,0:3:0:0:
145,179,241178,5,0,0:0:0:0:
179,170,241257,1,8,0:0:0:0:
214,174,241337,1,8,0:0:0:0:
244,191,241418,1,8,0:0:0:0:
274,208,241498,1,8,0:0:0:0:
309,212,241578,1,8,0:0:0:0:
343,203,241657,2,0,P|375:189|411:185,1,47.3000014434815,8|8,0:0|0:0,0:0:0:0:
484,212,241816,1,4,0:0:0:0:
294,383,241976,6,0,L|299:288,1,94.600002886963,8|0,0:0|0:0,0:0:0:0:
314,23,242295,6,0,L|308:117,1,94.600002886963,8|0,0:0|0:0,0:0:0:0:
484,212,242614,6,0,L|389:206,1,94.600002886963,8|0,0:0|0:0,0:0:0:0:
124,193,242933,6,0,L|218:198,1,94.600002886963,8|0,0:0|0:0,0:0:0:0:
418,304,243252,5,12,0:0:0:0:
347,130,243412,1,2,0:0:0:0:
233,278,243572,1,2,0:3:0:0:
433,196,243731,5,12,0:0:0:0:
247,170,243891,1,2,0:0:0:0:
318,344,244051,1,2,0:0:0:0:
487,115,244210,6,0,P|368:125|351:243,1,258.000009841919,4|2,0:0|0:0,0:0:0:0:
192,352,244688,2,0,P|190:304|183:258,1,94.600002886963,8|0,0:0|0:0,0:0:0:0:
52,152,245008,1,2,0:0:0:0:
4,336,245167,2,0,L|116:316,1,94.600002886963,2|8,0:3|0:0,0:0:0:0:
288,148,245486,6,0,L|176:168,1,94.600002886963,2|0,0:3|0:0,0:0:0:0:
24,64,245805,1,2,0:0:0:0:
212,0,245965,1,8,0:0:0:0:
116,204,246125,2,0,P|106:158|121:113,1,94.600002886963,2|2,0:3|0:0,0:0:0:0:
304,240,246444,2,0,P|313:285|298:330,1,94.600002886963,2|8,0:3|0:0,0:0:0:0:
220,116,246763,6,0,L|424:144,1,189.200005773926,4|2,0:0|0:0,0:0:0:0:
252,20,247242,2,0,P|192:16|156:36,1,94.600002886963,8|2,0:0|0:3,0:0:0:0:
8,184,247561,1,2,0:0:0:0:
20,24,247720,1,2,0:3:0:0:
160,208,247880,1,8,0:0:0:0:
252,20,248040,6,0,L|148:40,1,94.600002886963,2|0,0:3|0:0,0:0:0:0:
16,104,248359,1,2,0:0:0:0:
220,132,248518,1,8,0:0:0:0:
40,288,248678,2,0,L|44:184,1,94.600002886963,2|2,0:3|0:0,0:0:0:0:
228,284,248997,2,0,L|224:388,1,94.600002886963,2|8,0:3|0:0,0:0:0:0:
152,224,249316,6,0,P|200:192|320:256,1,189.200005773926,4|2,0:0|0:0,0:0:0:0:
428,384,249795,1,8,0:0:0:0:
228,284,249954,1,0,0:0:0:0:
448,216,250114,1,2,0:0:0:0:
264,104,250274,2,0,P|255:150|266:196,1,94.600002886963,2|8,0:3|0:0,0:0:0:0:
452,92,250593,6,0,P|416:61|371:47,1,94.600002886963,0|0,0:0|0:0,0:0:0:0:
156,96,250912,1,2,0:3:0:0:
344,152,251071,1,8,0:0:0:0:
140,252,251231,2,0,L|233:240,1,94.600002886963,0|2,0:0|0:0,0:0:0:0:
360,64,251550,2,0,L|266:52,1,94.600002886963,2|8,0:3|0:0,0:0:0:0:
456,0,251869,6,0,L|439:140,1,141.900004330444,4|0,0:0|0:0,0:0:0:0:
432,216,252188,1,2,0:0:0:0:
304,28,252348,1,8,0:0:0:0:
176,188,252508,1,2,0:3:0:0:
176,188,252587,1,0,0:0:0:0:
176,188,252667,5,2,0:0:0:0:
218,168,252746,1,8,0:0:0:0:
265,173,252826,1,8,0:0:0:0:
303,200,252906,1,8,0:0:0:0:
323,242,252986,2,0,L|308:304,1,47.3000014434815,8|8,0:0|0:0,0:0:0:0:
228,356,253146,6,0,P|170:304|161:381,1,189.200005773926,4|8,0:0|0:0,0:0:0:0:
356,376,253625,1,8,0:0:0:0:
203,231,253784,6,0,P|140:236|86:280,1,129,4|4,0:0|3:0,0:0:0:0:
89,275,254901,6,0,B|130:220|203:231|203:231|252:269|236:351,1,258.000009841919,12|2,0:0|0:0,0:0:0:0:
12,324,255380,1,2,0:3:0:0:
140,138,255540,1,8,0:0:0:0:
237,347,255699,6,0,L|142:339,1,94.600002886963,2|0,0:3|0:0,0:0:0:0:
303,168,256018,2,0,L|397:160,1,94.600002886963,0|8,0:0|0:0,0:0:0:0:
187,127,256337,2,0,P|178:173|188:219,1,94.600002886963,2|2,0:3|0:0,0:0:0:0:
332,308,256657,1,2,0:3:0:0:
144,384,256816,1,8,0:0:0:0:
0,208,256976,6,0,L|200:220,1,189.200005773926,4|2,0:0|0:0,0:0:0:0:
356,128,257454,1,8,0:0:0:0:
180,27,257614,2,0,P|167:73|176:119,1,94.600002886963,2|2,0:3|0:0,0:0:0:0:
320,300,257933,2,0,P|328:253|316:208,1,94.600002886963,2|8,0:3|0:0,0:0:0:0:
84,252,258252,6,0,L|96:360,1,94.600002886963,4|0,0:0|0:0,0:0:0:0:
184,172,258571,1,2,0:3:0:0:
276,384,258731,1,8,0:0:0:0:
422,236,258891,2,0,L|328:250,1,94.600002886963,2|2,0:3|0:0,0:0:0:0:
188,80,259210,2,0,L|281:65,1,94.600002886963,2|8,0:3|0:0,0:0:0:0:
196,276,259529,6,0,P|116:232|32:269,1,189.200005773926,4|2,0:0|0:0,0:0:0:0:
244,184,260007,1,8,0:0:0:0:
112,344,260167,1,2,0:3:0:0:
100,144,260327,1,2,0:0:0:0:
252,312,260486,1,2,0:0:0:0:
72,244,260646,1,8,0:0:0:0:
289,128,260805,6,0,L|100:144,1,189.200005773926,4|2,0:0|0:0,0:0:0:0:
240,34,261284,1,8,0:0:0:0:
212,234,261444,1,0,0:0:0:0:
100,44,261603,1,0,0:0:0:0:
72,244,261763,1,0,0:0:0:0:
252,132,261922,1,8,0:0:0:0:
12,20,262082,6,0,P|32:108|118:134,1,189.200005773926,4|2,0:0|0:0,0:0:0:0:
264,20,262561,1,8,0:0:0:0:
100,44,262720,1,2,0:3:0:0:
347,171,262879,5,0,0:0:0:0:
313,162,262959,1,8,0:0:0:0:
278,166,263039,1,8,0:0:0:0:
248,183,263119,1,8,0:0:0:0:
218,200,263198,1,8,0:0:0:0:
183,204,263278,1,8,0:0:0:0:
149,195,263358,2,0,P|117:181|81:177,1,47.3000014434815,8|8,0:0|0:0,0:0:0:0:
8,204,263518,1,4,0:0:0:0:
198,375,263678,6,0,L|193:280,1,94.600002886963,8|0,0:0|0:0,0:0:0:0:
178,15,263997,6,0,L|184:109,1,94.600002886963,8|0,0:0|0:0,0:0:0:0:
8,204,264316,6,0,L|103:198,1,94.600002886963,8|0,0:0|0:0,0:0:0:0:
368,185,264635,6,0,L|274:190,1,94.600002886963,8|0,0:0|0:0,0:0:0:0:
74,296,264954,5,12,0:0:0:0:
145,122,265114,1,2,0:0:0:0:
259,270,265274,1,2,0:3:0:0:
59,188,265433,5,12,0:0:0:0:
245,162,265593,1,2,0:0:0:0:
174,336,265753,1,2,0:0:0:0:
20,107,265912,6,0,P|102:109|143:180,1,172,12|2,0:0|0:0,0:0:0:0:
36,344,266391,1,8,0:0:0:0:
59,188,266550,1,0,0:0:0:0:
252,344,266710,1,2,0:0:0:0:
229,184,266869,1,0,0:0:0:0:
36,344,267029,1,8,0:0:0:0:
59,188,267188,1,0,0:0:0:0:
252,344,267348,5,4,0:0:0:0:
48,266,267508,1,2,0:3:0:0:
260,164,267667,1,8,0:0:0:0:
172,380,267827,2,0,P|165:337|178:297,1,86,2|0,0:3|0:0,0:0:0:0:
348,196,268146,2,0,P|360:236|354:278,1,86,2|8,0:3|0:0,0:0:0:0:
268,128,268465,6,0,B|313:126|345:94|345:94|374:128|428:127,1,172,4|2,0:0|0:0,0:0:0:0:
271,31,268944,1,8,0:0:0:0:
348,196,269104,1,0,0:0:0:0:
418,31,269263,1,2,0:0:0:0:
237,136,269423,1,0,0:0:0:0:
468,184,269582,1,8,0:0:0:0:
260,324,269742,6,0,P|252:272|264:224,1,86,2|2,0:3|0:0,0:0:0:0:
424,112,270061,1,2,0:3:0:0:
360,280,270220,1,8,0:0:0:0:
192,184,270380,1,2,0:1:0:0:
388,196,270540,5,2,0:0:0:0:
192,304,270699,1,4,3:0:0:0:
196,80,270859,1,4,3:0:0:0:
418,123,271018,6,0,P|336:132|310:209,1,172,4|4,0:2|0:0,0:0:0:0:
472,344,271497,2,0,L|468:292,3,43,2|0|4|0,0:0|0:0|0:0|0:0,0:0:0:0:
492,228,271816,2,0,L|488:176,3,43,2|0|4|0,0:0|0:0|0:0|0:0,0:0:0:0:
512,112,272135,2,0,L|508:60,3,43,2|0|4|4,0:0|0:0|0:0|0:0,0:0:0:0:
440,7,272454,5,4,0:2:0:0:
411,38,272533,1,0,0:0:0:0:
372,55,272613,1,0,0:0:0:0:
329,52,272693,1,0,0:0:0:0:
292,32,272774,1,2,0:0:0:0:
254,11,272854,1,0,0:0:0:0:
212,9,272934,1,8,0:2:0:0:
172,25,273014,1,0,0:0:0:0:
144,57,273093,2,0,P|140:96|144:112,5,43,2|0|2|2|2|0,0:2|0:0|0:0|0:0|0:2|0:0,0:0:0:0:
188,175,273571,5,4,0:2:0:0:
225,155,273650,1,0,0:0:0:0:
267,152,273730,1,2,0:2:0:0:
307,168,273810,1,0,0:0:0:0:
335,200,273890,1,2,0:2:0:0:
347,241,273969,1,0,0:0:0:0:
340,283,274050,2,0,L|324:332,3,43,2|0|2|2,0:2|0:0|0:0|0:0,0:0:0:0:
252,360,274369,6,0,L|208:344,10,27.9499987205506,4|0|8|0|8|0|8|0|8|0|8,0:2|0:0|0:2|0:0|0:2|0:0|0:2|0:0|0:2|0:0|0:2,0:0:0:0:
128,344,274848,6,0,P|160:296|136:216,1,141.900004330444,6|0,0:0|0:0,0:0:0:0:
64,196,275167,6,0,P|138:203|189:149,1,154.799995275879,6|0,0:0|0:0,0:0:0:0:
196,72,275486,6,0,P|196:136|304:168,1,167.699992323304,6|0,0:0|0:0,0:0:0:0:
352,144,275805,6,0,P|300:196|331:295,1,180.599994488526,6|0,0:0|0:0,0:0:0:0:
412,328,276125,5,6,0:0:0:0:
412,328,276444,5,8,0:0:0:0:
222,287,276603,1,8,0:0:0:0:
352,144,276764,1,4,0:1:0:0:
307,360,276922,5,8,0:0:0:0:
247,174,277081,1,8,0:0:0:0:
436,216,277242,1,8,0:0:0:0:
204,280,277401,6,0,B|184:312|184:312|276:292,1,129,12|0,0:0|0:0,0:0:0:0:
327,243,277720,2,0,P|339:262|345:282,2,43,8|4|2,0:0|3:0|0:0,0:0:0:0:
