osu file format v14

[General]
AudioFilename: audio.mp3
AudioLeadIn: 0
PreviewTime: 221949
Countdown: 0
SampleSet: Soft
StackLeniency: 0.3
Mode: 0
LetterboxInBreaks: 0
WidescreenStoryboard: 0

[Editor]
DistanceSpacing: 1
BeatDivisor: 2
GridSize: 16
TimelineZoom: 1.499999

[Metadata]
Title:Absolute Soul
TitleUnicode:Absolute Soul
Artist:Suzuki Konomi
ArtistUnicode:鈴木このみ
Creator:Kalibe
Version:Curi's Easy
Source:アブソリュート・デュオ
Tags:Duo opening full version garden doormat mugiwarasekai irohas akitoshi corinn [c_u_r_i] curi
BeatmapID:1245275
BeatmapSetID:568786

[Difficulty]
HPDrainRate:2
CircleSize:3
OverallDifficulty:2
ApproachRate:3
SliderMultiplier:0.899999999999999
SliderTickRate:1

[Events]
//Background and Video events
0,0,"bg2.jpg",0,0
//Break Periods
2,88665,89578
2,176910,182770
2,202242,211014
//Storyboard Layer 0 (Background)
//Storyboard Layer 1 (Fail)
//Storyboard Layer 2 (Pass)
//Storyboard Layer 3 (Foreground)
//Storyboard Sound Samples

[TimingPoints]
540,319.148936170213,4,2,5,65,1,0
2933,-100,4,2,5,70,0,0
11869,-100,4,2,5,75,0,0
12109,-100,4,2,5,5,0,0
12188,-100,4,2,5,80,0,0
12428,-100,4,2,5,5,0,0
12508,-100,4,2,5,70,0,0
12986,-100,4,2,1,40,0,0
13305,-100,4,2,5,60,0,0
21444,-100,4,2,1,70,0,0
21922,-100,4,2,5,60,0,0
22082,-100,4,2,5,70,0,0
23518,-100,4,2,5,60,0,0
32454,-100,4,2,5,65,0,0
33093,-100,4,2,5,70,0,0
33731,-100,4,2,5,70,0,0
38199,-100,4,2,5,70,0,0
38438,-100,4,2,5,75,0,0
38678,-100,4,2,5,80,0,0
38837,-100,4,2,5,70,0,0
42667,-100,4,2,5,75,0,0
43305,-100,4,2,5,80,0,0
43944,-100,4,2,1,50,0,0
45220,-100,4,2,1,55,0,0
50965,-100,4,2,5,60,0,0
51125,-100,4,2,5,60,0,0
51603,-100,4,2,5,65,0,0
54157,-100,4,2,5,55,0,0
59103,-100,4,2,5,60,0,0
60300,-100,4,2,5,5,0,0
60380,-100,4,2,5,70,0,0
61657,-100,4,2,5,75,0,0
62454,-100,4,2,5,80,0,0
62933,-100,4,2,1,50,0,0
63731,-100,4,2,1,60,0,0
64130,-100,4,2,5,5,0,0
64210,-100,4,2,5,75,0,1
73784,-100,4,2,5,50,0,0
74263,-100,4,2,1,60,0,0
74422,-100,4,2,5,75,0,1
84954,-100,4,2,5,85,0,1
85912,-100,4,2,5,65,0,0
87109,-100,4,2,5,5,0,0
87188,-100,4,2,5,65,0,0
88385,-100,4,2,5,5,0,0
88465,-100,4,2,5,55,0,0
89662,-100,4,2,5,5,0,0
89742,-100,4,2,5,65,0,0
90540,-100,4,2,5,75,0,0
91018,-100,4,2,5,70,0,0
98678,-100,4,2,5,70,0,0
99954,-100,4,2,5,75,0,0
101391,-100,4,2,1,60,0,0
103305,-100,4,2,5,65,0,0
103465,-100,4,2,5,65,0,0
103944,-100,4,2,5,60,0,0
110167,-100,4,2,1,50,0,0
111603,-100,4,2,5,60,0,0
111843,-100,4,2,5,5,0,0
111922,-100,4,2,5,65,0,0
112162,-100,4,2,5,5,0,0
112242,-100,4,2,5,80,0,0
112561,-100,4,2,5,60,0,0
120540,-100,4,2,5,65,0,0
121178,-100,4,2,5,75,0,0
121816,-100,4,2,5,70,0,0
126284,-100,4,2,5,70,0,0
126444,-100,4,2,5,5,0,0
126524,-100,4,2,5,75,0,0
126683,-100,4,2,5,5,0,0
126763,-100,4,2,5,80,0,0
126843,-100,4,2,5,5,0,0
126922,-100,4,2,5,60,0,0
128199,-100,4,2,5,65,0,0
129476,-100,4,2,5,70,0,0
130752,-100,4,2,5,70,0,0
131391,-100,4,2,5,70,0,0
132029,-100,4,2,1,50,0,0
137135,-100,4,2,1,50,0,0
138412,-100,4,2,1,60,0,0
139688,-100,4,2,5,65,0,0
142242,-100,4,2,5,55,0,0
147188,-100,4,2,5,60,0,0
148385,-100,4,2,5,5,0,0
148465,-100,4,2,5,70,0,0
149742,-100,4,2,5,75,0,0
150540,-100,4,2,5,80,0,0
150859,-100,4,2,5,85,0,0
151816,-100,4,2,1,50,0,0
152295,-100,4,2,5,75,0,1
154130,-100,4,2,5,5,0,1
154210,-100,4,2,5,75,0,1
161869,-100,4,2,5,50,0,0
162268,-100,4,2,5,5,0,0
162348,-100,4,2,1,60,0,0
162508,-100,4,2,5,75,0,1
173040,-100,4,2,5,85,0,1
173997,-100,4,2,5,60,0,0
183093,-100,4,2,5,60,0,0
183332,-100,4,2,5,5,0,0
183412,-100,4,2,5,60,0,0
183731,-100,4,2,5,70,0,0
184050,-100,4,2,5,80,0,0
184130,-100,4,2,5,5,0,0
184210,-100,4,2,5,65,0,0
191869,-100,4,2,5,60,0,0
193146,-100,4,2,5,65,0,0
194422,-100,4,2,5,70,0,0
195699,-100,4,2,5,75,0,0
197135,-100,4,2,5,80,0,0
197454,-100,4,2,5,60,0,0
197614,-100,4,2,5,80,0,0
197933,-100,4,2,5,60,0,0
198093,-100,4,2,5,80,0,0
198412,-100,4,2,5,60,0,0
198571,-100,4,2,5,80,0,0
199290,-100,4,2,5,5,0,0
199369,-100,4,2,5,60,0,0
199609,-100,4,2,5,5,0,0
199688,-100,4,2,5,70,0,0
200008,-100,4,2,5,75,0,0
200327,-100,4,2,5,85,0,0
200965,-100,4,2,1,70,0,0
202242,-100,4,2,1,45,0,0
209263,-100,4,2,1,60,0,0
209742,-100,4,2,1,45,0,0
210859,-100,4,2,1,60,0,0
211178,-100,4,2,1,75,0,0
211258,-100,4,2,1,60,0,0
211497,-100,4,2,1,45,0,0
212454,-100,4,2,5,75,0,0
212933,-100,4,2,1,45,0,0
213412,-100,4,2,5,75,0,0
213731,-100,4,2,1,60,0,0
214050,-100,4,2,1,45,0,0
215008,-100,4,2,5,75,0,0
215486,-100,4,2,1,60,0,0
215965,-100,4,2,5,75,0,0
216284,-100,4,2,1,60,0,0
216603,-100,4,2,1,45,0,0
217561,-100,4,2,1,55,0,0
220114,-100,4,2,1,50,0,0
220513,-100,4,2,1,5,0,0
220593,-100,4,2,1,60,0,0
220752,-100,4,2,1,65,0,0
221151,-100,4,2,1,5,0,0
221231,-100,4,2,1,75,0,0
221391,-100,4,2,1,85,0,0
222029,-100,4,2,1,50,0,0
222508,-100,4,2,5,70,0,0
224422,-100,4,2,5,80,0,0
224462,-100,4,2,5,5,0,0
224742,-100,4,2,5,80,0,0
224782,-100,4,2,5,5,0,0
225061,-100,4,2,5,75,0,1
232082,-100,4,2,5,50,0,0
232481,-100,4,2,5,5,0,0
232561,-100,4,2,1,60,0,0
232720,-100,4,2,5,75,0,1
243252,-100,4,2,5,85,0,1
244130,-100,4,2,5,75,0,0
244210,-100,4,2,5,80,0,1
249555,-100,4,2,5,5,0,1
249635,-100,4,2,5,80,0,1
253784,-100,4,2,5,50,0,0
254183,-100,4,2,5,5,0,0
254263,-100,4,2,1,50,0,0
254422,-100,4,2,5,65,0,0
254901,-100,4,2,5,80,0,1
264954,-100,4,2,5,85,0,1
265912,-100,4,2,5,70,0,0
271018,-100,4,3,5,60,0,0
272454,-100,4,3,5,65,0,0
273571,-100,4,3,5,70,0,0
274369,-100,4,3,5,75,0,0
274848,-100,4,2,5,70,0,0
275087,-100,4,2,5,5,0,0
275167,-100,4,2,5,75,0,0
275407,-100,4,2,5,5,0,0
275486,-100,4,2,5,80,0,0
275726,-100,4,2,5,5,0,0
275805,-100,4,2,5,85,0,0
276045,-100,4,2,5,5,0,0
276125,-100,4,2,5,75,0,0
276364,-100,4,2,5,5,0,0
276444,-100,4,2,5,70,0,0
276922,-100,4,2,5,85,0,0
277720,-100,4,2,5,60,0,0

[Colours]
Combo1 : 223,83,164
Combo2 : 12,165,248
Combo3 : 21,210,182
Combo4 : 167,92,228

[HitObjects]
133,80,2933,6,0,P|192:47|267:66,1,135,4|8,0:0|0:0,0:0:0:0:
312,128,3731,2,0,P|313:169|305:230,1,89.9999999999999,2|8,0:0|0:0,0:0:0:0:
253,289,4369,2,0,P|187:300|130:267,1,135,2|2,0:0|0:0,0:0:0:0:
95,184,5167,1,0,0:0:0:0:
177,144,5486,6,0,L|325:126,1,135,4|8,0:0|0:0,0:0:0:0:
400,116,6284,2,0,P|431:163|428:216,1,89.9999999999999,2|8,0:0|0:0,0:0:0:0:
389,273,6922,2,0,P|336:311|253:278,1,135,2|2,0:0|0:1,0:0:0:0:
235,214,7720,1,0,0:0:0:0:
177,144,8040,6,0,L|36:160,1,135,4|8,0:0|0:0,0:0:0:0:
23,71,8837,2,0,L|133:59,1,89.9999999999999,2|8,0:0|0:0,0:0:0:0:
193,21,9476,2,0,L|336:37,1,135,2|2,0:0|0:1,0:0:0:0:
416,49,10274,1,0,0:0:0:0:
489,100,10593,6,0,P|509:169|465:245,1,135,4|8,0:0|0:0,0:0:0:0:
420,287,11391,2,0,P|351:307|275:263,1,135,2|6,0:0|0:0,0:0:0:0:
257,202,12188,1,6,0:0:0:0:
297,121,12508,2,0,L|449:100,1,135,6|2,0:0|0:0,0:0:0:0:
435,192,13305,6,0,L|329:207,1,89.9999999999999,4|2,0:0|0:0,0:0:0:0:
257,202,13944,2,0,P|212:152|233:57,2,135,2|0|2,0:0|0:0|0:0,0:0:0:0:
345,204,15220,2,0,L|333:317,1,89.9999999999999,2|2,0:0|0:0,0:0:0:0:
269,355,15859,6,0,P|177:370|148:354,1,89.9999999999999,2|2,0:0|0:0,0:0:0:0:
99,341,16497,2,0,P|58:282|73:195,2,135,2|0|2,0:0|0:0|0:0,0:0:0:0:
183,372,17774,2,0,P|189:321|191:271,1,89.9999999999999,2|2,0:0|0:0,0:0:0:0:
146,204,18412,6,0,P|140:153|138:103,1,89.9999999999999,2|2,0:0|0:0,0:0:0:0:
188,40,19050,2,0,P|250:26|318:69,2,135,2|2|2,0:0|0:0|0:0,0:0:0:0:
138,114,20327,1,2,0:0:0:0:
235,207,20805,6,0,L|392:187,1,135,2|2,0:0|0:0,0:0:0:0:
429,122,21603,2,0,P|458:184|433:255,1,135,2|12,0:0|0:0,0:0:0:0:
358,282,22401,1,8,0:0:0:0:
269,296,22720,2,0,L|155:310,1,89.9999999999999,8|8,0:0|0:0,0:0:0:0:
53,259,23518,6,0,P|15:184|72:109,2,180,4|2|2,0:0|0:0|0:0,0:0:0:0:
137,226,25114,1,8,0:0:0:0:
221,195,25433,2,0,L|310:184,1,89.9999999999999,0|8,0:0|0:0,0:0:0:0:
400,190,26071,6,0,P|448:247|404:344,2,180,2|0|2,0:0|0:0|0:0,0:0:0:0:
310,184,27667,1,8,0:0:0:0:
221,195,27986,2,0,P|210:136|227:103,1,89.9999999999999,0|8,0:0|0:0,0:0:0:0:
308,88,28625,6,0,L|488:73,2,180,4|2|0,0:0|0:0|0:0,0:0:0:0:
221,110,30220,1,8,0:0:0:0:
140,69,30540,2,0,P|88:67|22:143,2,135,2|4|8,0:0|0:0|0:0,0:0:0:0:
221,110,31816,6,0,L|209:211,1,89.9999999999999,0|8,0:0|0:0,0:0:0:0:
192,287,32454,2,0,P|256:328|355:278,2,180,4|2|4,0:0|0:3|0:0,0:0:0:0:
210,199,34050,5,8,0:0:0:0:
294,168,34369,2,0,L|386:157,1,89.9999999999999,2|8,0:0|0:0,0:0:0:0:
465,194,35008,2,0,P|473:150|449:92,1,89.9999999999999,2|8,0:0|0:0,0:0:0:0:
379,68,35646,2,0,L|289:78,1,89.9999999999999,2|8,0:0|0:0,0:0:0:0:
208,117,36284,6,0,L|118:106,1,89.9999999999999,2|8,0:0|0:0,0:0:0:0:
45,53,36922,2,0,P|28:121|38:149,1,89.9999999999999,2|8,0:0|0:0,0:0:0:0:
107,188,37561,2,0,P|124:256|114:284,2,89.9999999999999,2|8|12,0:0|0:0|0:0,0:0:0:0:
32,138,38518,1,0,0:0:0:0:
118,106,38837,6,0,B|155:85|205:105|205:105|257:126|292:108,1,180,4|2,0:0|0:0,0:0:0:0:
368,59,39795,1,2,0:0:0:0:
450,95,40114,2,0,P|446:149|441:194,1,89.9999999999999,4|2,0:0|0:0,0:0:0:0:
359,219,40752,2,0,P|363:273|368:318,1,89.9999999999999,2|2,0:0|0:0,0:0:0:0:
449,344,41391,6,0,B|362:318|362:318|277:353,1,180,4|6,0:0|0:0,0:0:0:0:
194,382,42348,1,2,0:0:0:0:
112,344,42667,2,0,P|102:309|127:241,1,89.9999999999999,6|0,0:0|0:0,0:0:0:0:
181,198,43305,2,0,P|191:163|166:95,1,89.9999999999999,12|0,0:0|0:0,0:0:0:0:
120,43,43944,6,0,P|46:43|58:200,1,270,4|0,0:2|0:0,0:0:0:0:
114,257,45220,2,0,P|194:238|217:229,1,89.9999999999999,0|0,0:0|0:0,0:0:0:0:
253,162,45859,2,0,P|333:181|356:190,1,89.9999999999999,2|0,0:0|0:0,0:0:0:0:
415,232,46497,6,0,P|414:309|259:297,1,270,2|0,0:0|0:0,0:0:0:0:
201,235,47774,2,0,P|209:135|225:47,1,180,2|2,0:0|0:0,0:0:0:0:
306,24,48731,1,2,0:0:0:0:
374,82,49050,6,0,P|428:111|510:73,2,135,2|2|2,0:0|0:0|0:0,0:0:0:0:
106,41,50965,2,0,L|118:153,1,89.9999999999999,10|0,0:3|3:0,0:0:0:0:
123,220,51603,6,0,P|184:255|262:219,1,135,4|4,0:0|0:0,0:0:0:0:
328,133,52561,2,0,L|351:317,1,180,4|2,0:0|0:0,0:0:0:0:
276,362,53518,2,0,P|225:373|164:345,1,89.9999999999999,2|8,0:0|0:0,0:0:0:0:
113,314,54157,6,0,P|84:216|134:147,2,180,4|8|2,0:0|0:0|0:0,0:0:0:0:
189,363,55752,1,2,0:3:0:0:
276,362,56071,2,0,P|281:301|265:258,1,89.9999999999999,8|2,0:0|0:3,0:0:0:0:
218,202,56710,6,0,P|297:187|362:261,2,180,2|8|2,0:0|0:0|0:0,0:0:0:0:
184,285,58305,1,2,0:3:0:0:
112,340,58625,2,0,P|57:342|-6:264,1,135,8|4,0:0|0:0,0:0:0:0:
12,201,59422,5,2,0:3:0:0:
73,134,59742,2,0,L|178:121,1,89.9999999999999,2|2,0:3|0:3,0:0:0:0:
222,55,60380,2,0,L|359:71,1,135,4|8,0:0|0:0,0:0:0:0:
445,85,61178,1,0,0:0:0:0:
488,212,61657,6,0,P|477:290|431:326,1,135,4|12,0:0|0:0,0:0:0:0:
347,336,62454,2,0,L|189:317,1,135,12|2,0:0|0:0,0:0:0:0:
0,243,63731,2,0,L|60:231,1,45,2|0,0:0|0:0,0:0:0:0:
99,163,64210,6,0,P|173:141|236:171,1,135,12|8,0:0|0:0,0:0:0:0:
289,223,65008,2,0,L|433:205,1,135,2|2,0:0|0:3,0:0:0:0:
511,192,65805,1,2,0:3:0:0:
505,282,66125,2,0,L|400:299,1,89.9999999999999,2|2,0:3|0:3,0:0:0:0:
339,343,66763,6,0,L|194:322,1,135,4|8,0:0|0:0,0:0:0:0:
116,309,67561,2,0,P|90:252|132:177,1,135,2|2,0:0|0:3,0:0:0:0:
195,145,68359,1,0,0:0:0:0:
284,132,68678,2,0,L|390:116,1,89.9999999999999,2|2,0:3|0:3,0:0:0:0:
447,168,69316,6,0,P|461:105|427:47,1,135,4|2,0:0|0:0,0:0:0:0:
337,34,70114,2,0,L|164:60,1,135,2|0,0:0|0:0,0:0:0:0:
115,75,70912,1,0,0:0:0:0:
32,111,71231,2,0,P|30:175|49:208,1,89.9999999999999,2|2,0:3|0:3,0:0:0:0:
121,237,71869,6,0,L|235:218,1,89.9999999999999,4|0,0:0|0:0,0:0:0:0:
272,157,72508,2,0,L|386:176,1,89.9999999999999,2|2,0:3|0:0,0:0:0:0:
449,189,73146,2,0,P|483:246|420:338,1,180,4|4,0:0|0:0,0:0:0:0:
251,361,74422,6,0,L|96:345,1,135,4|8,0:0|0:0,0:0:0:0:
50,286,75220,2,0,P|35:222|82:150,1,135,2|2,0:0|0:3,0:0:0:0:
144,119,76018,1,0,0:0:0:0:
233,116,76337,2,0,L|345:125,1,89.9999999999999,2|2,0:3|0:0,0:0:0:0:
412,126,76976,6,0,P|456:173|422:257,1,135,4|8,0:0|0:0,0:0:0:0:
369,287,77774,2,0,L|209:273,1,135,2|0,0:0|0:0,0:0:0:0:
145,264,78571,1,2,0:0:0:0:
116,180,78891,2,0,P|160:174|201:193,1,89.9999999999999,2|2,0:3|0:3,0:0:0:0:
234,275,79529,6,0,P|307:288|377:238,1,135,4|8,0:0|0:0,0:0:0:0:
416,192,80327,2,0,L|394:56,2,135,2|4|8,0:0|0:0|0:0,0:0:0:0:
483,251,81603,1,2,0:0:0:0:
375,334,82082,6,0,P|283:339|232:261,2,180,4|0|8,0:0|0:0|0:0,0:0:0:0:
444,276,83678,1,10,0:0:0:0:
416,192,83997,2,0,L|400:91,1,89.9999999999999,10|10,0:0|0:0,0:0:0:0:
383,15,84635,1,10,0:0:0:0:
318,77,84954,6,0,L|168:65,1,135,12|12,0:0|0:0,0:0:0:0:
48,51,85912,1,4,0:0:0:0:
256,192,86071,12,4,88465,0:0:0:0:
103,267,91018,6,0,L|264:243,1,135,4|8,0:0|0:0,0:0:0:0:
293,177,91816,2,0,L|381:190,1,89.9999999999999,2|8,0:0|0:0,0:0:0:0:
439,259,92454,2,0,P|468:206|437:122,1,135,2|0,0:0|0:0,0:0:0:0:
369,96,93252,1,2,0:3:0:0:
281,73,93571,6,0,L|127:93,1,135,4|8,0:0|0:0,0:0:0:0:
72,141,94369,2,0,P|55:203|109:273,1,135,2|0,0:0|0:0,0:0:0:0:
166,306,95167,1,2,0:0:0:0:
252,332,95486,2,0,L|355:316,1,89.9999999999999,2|0,0:3|0:0,0:0:0:0:
369,232,96125,6,0,L|221:252,1,135,4|8,0:0|0:0,0:0:0:0:
166,306,96922,2,0,P|147:264|155:212,1,89.9999999999999,2|8,0:0|0:0,0:0:0:0:
220,164,97561,2,0,L|367:146,1,135,2|2,0:0|0:3,0:0:0:0:
443,137,98359,1,2,0:0:0:0:
511,76,98678,6,0,P|452:46|389:64,1,135,4|8,0:0|0:0,0:0:0:0:
353,147,99476,2,0,P|279:167|215:150,2,135,10|4|8,0:0|0:0|0:0,0:0:0:0:
388,64,100752,2,0,P|326:52|283:53,1,89.9999999999999,10|10,0:0|0:0,0:0:0:0:
210,66,101391,5,4,0:0:0:0:
210,66,103944,6,0,L|228:246,1,180,4|2,0:0|0:3,0:0:0:0:
278,319,104901,1,8,0:0:0:0:
357,361,105220,2,0,P|431:355|451:342,1,89.9999999999999,2|8,0:0|0:0,0:0:0:0:
495,274,105859,2,0,P|489:200|476:180,1,89.9999999999999,0|8,0:0|0:0,0:0:0:0:
418,123,106497,6,0,B|373:106|331:125|331:125|283:146|235:124,1,180,2|2,0:0|0:3,0:0:0:0:
177,65,107454,1,8,0:0:0:0:
94,27,107774,2,0,P|46:66|41:120,1,89.9999999999999,0|8,0:0|0:0,0:0:0:0:
45,180,108412,2,0,L|64:332,2,135,2|4|8,0:0|0:0|0:0,0:0:0:0:
132,158,109688,6,0,L|153:315,1,135,2|2,0:0|0:0,0:0:0:0:
164,380,110486,1,2,0:0:0:0:
232,321,110805,2,0,P|273:305|329:318,1,89.9999999999999,2|2,0:0|0:0,0:0:0:0:
443,361,111603,6,0,L|449:255,1,89.9999999999999,2|2,0:0|0:0,0:0:0:0:
448,180,112242,2,0,P|392:146|316:167,2,135,12|0|8,0:0|0:0|0:0,0:0:0:0:
448,271,113518,2,0,L|444:363,1,89.9999999999999,0|8,0:0|0:0,0:0:0:0:
360,326,114157,6,0,P|278:288|192:325,2,180,4|2|0,0:0|0:3|0:0,0:0:0:0:
444,360,115752,1,12,0:0:0:0:
448,271,116071,2,0,L|442:182,1,89.9999999999999,0|8,0:0|0:0,0:0:0:0:
483,101,116710,6,0,P|399:101|352:181,2,180,2|2|2,0:0|0:3|0:0,0:0:0:0:
441,181,118305,1,8,0:0:0:0:
448,271,118625,2,0,P|380:278|297:289,2,135,2|4|8,0:0|0:0|0:0,0:0:0:0:
437,360,119901,6,0,P|391:364|337:372,1,89.9999999999999,2|8,0:3|0:0,0:0:0:0:
258,356,120540,2,0,P|225:292|280:202,2,180,4|2|4,0:0|0:0|0:0,0:0:0:0:
347,370,122135,5,2,0:0:0:0:
399,296,122454,2,0,L|384:178,1,89.9999999999999,2|0,0:0|0:0,0:0:0:0:
333,134,123093,2,0,L|348:16,1,89.9999999999999,2|2,0:0|0:0,0:0:0:0:
433,32,123731,2,0,L|418:150,1,89.9999999999999,2|0,0:0|0:0,0:0:0:0:
387,206,124369,6,0,P|323:223|274:201,1,89.9999999999999,2|2,0:0|0:0,0:0:0:0:
245,146,125008,2,0,P|181:129|132:151,1,89.9999999999999,2|0,0:0|0:0,0:0:0:0:
109,209,125646,2,0,P|45:226|-4:204,2,89.9999999999999,2|0|12,0:0|0:0|0:0,0:0:0:0:
159,134,126603,1,0,0:0:0:0:
208,58,126922,6,0,B|249:35|294:58|294:58|340:82|399:50,1,180,4|2,0:0|0:0,0:0:0:0:
462,20,127880,1,0,0:0:0:0:
455,109,128199,2,0,L|443:209,1,89.9999999999999,4|8,0:0|0:0,0:0:0:0:
422,285,128837,2,0,P|353:286|324:266,1,89.9999999999999,4|0,0:0|0:0,0:0:0:0:
277,207,129476,6,0,P|191:175|111:227,1,180,4|4,0:0|0:0,0:0:0:0:
70,291,130433,1,0,0:0:0:0:
119,366,130752,2,0,P|175:356|217:344,1,89.9999999999999,4|0,0:0|0:0,0:0:0:0:
279,293,131391,2,0,P|335:303|377:315,1,89.9999999999999,12|0,0:0|0:0,0:0:0:0:
444,357,132029,6,0,P|493:312|392:162,1,270,6|0,0:0|0:0,0:0:0:0:
324,182,133305,2,0,P|257:193|208:193,1,89.9999999999999,2|0,0:0|0:0,0:0:0:0:
161,141,133944,2,0,P|94:130|45:130,1,89.9999999999999,2|0,0:0|0:0,0:0:0:0:
3,188,134582,6,0,P|13:258|178:256,1,270,2|0,0:0|0:0,0:0:0:0:
235,193,135859,2,0,P|250:53|252:8,1,180,2|2,0:0|0:0,0:0:0:0:
164,33,136816,1,0,0:0:0:0:
85,77,137135,6,0,P|88:166|97:222,2,135,2|2|2,0:0|0:0|0:0,0:0:0:0:
164,33,138412,2,0,P|262:25|365:54,1,180,0|2,0:0|0:0,0:0:0:0:
413,96,139369,1,4,3:0:0:0:
461,171,139688,6,0,P|463:244|451:335,2,135,4|4|4,0:0|0:0|0:0,0:0:0:0:
413,96,140965,2,0,P|362:88|309:107,1,89.9999999999999,4|2,0:0|0:0,0:0:0:0:
257,156,141603,2,0,P|206:164|153:145,1,89.9999999999999,0|8,3:0|0:0,0:0:0:0:
113,84,142242,6,0,L|133:271,2,180,4|8|2,0:0|0:0|0:0,0:0:0:0:
42,28,143837,1,2,0:3:0:0:
29,117,144157,2,0,L|40:222,1,89.9999999999999,8|2,0:0|0:3,0:0:0:0:
48,295,144795,6,0,P|110:349|209:309,2,180,2|8|2,0:0|0:0|0:0,0:0:0:0:
132,262,146391,1,2,0:3:0:0:
218,236,146710,2,0,L|370:217,1,135,8|4,0:0|0:0,0:0:0:0:
441,209,147508,5,2,0:3:0:0:
490,134,147827,2,0,P|495:73|472:37,1,89.9999999999999,0|2,0:0|0:3,0:0:0:0:
396,23,148465,2,0,L|253:39,1,135,4|8,0:0|0:0,0:0:0:0:
172,53,149263,1,0,0:0:0:0:
50,111,149742,6,0,P|35:209|72:258,1,135,4|8,0:0|0:0,0:0:0:0:
130,277,150540,2,0,L|287:255,1,135,8|12,0:0|0:0,0:0:0:0:
473,177,151816,2,0,L|460:109,1,45,2|2,0:0|0:0,0:0:0:0:
378,104,152295,6,0,L|403:247,1,135,12|8,0:0|0:0,0:0:0:0:
370,322,153093,2,0,P|309:361|238:331,1,135,2|0,0:0|0:0,0:0:0:0:
199,272,153891,1,0,0:0:0:0:
218,184,154210,2,0,L|202:81,1,89.9999999999999,2|2,0:3|0:3,0:0:0:0:
130,43,154848,6,0,P|75:45|19:117,1,135,4|8,0:0|0:0,0:0:0:0:
25,190,155646,2,0,L|43:332,1,135,2|0,0:0|0:0,0:0:0:0:
117,373,156444,1,0,0:0:0:0:
206,360,156763,2,0,P|263:343|316:318,1,89.9999999999999,2|2,0:3|0:3,0:0:0:0:
353,266,157401,6,0,P|378:180|364:125,1,135,4|2,0:0|0:0,0:0:0:0:
319,62,158199,2,0,P|233:37|178:51,1,135,2|2,0:0|0:3,0:0:0:0:
106,78,158997,1,0,0:0:0:0:
55,152,159316,2,0,L|75:268,1,89.9999999999999,2|2,0:3|0:3,0:0:0:0:
122,313,159954,6,0,P|196:324|253:286,1,135,4|8,0:0|0:0,0:0:0:0:
300,223,160752,2,0,P|348:206|432:242,1,135,2|12,0:0|0:0,0:0:0:0:
477,306,161550,1,10,0:0:0:0:
405,360,161869,2,0,L|306:351,1,89.9999999999999,4|0,0:0|0:0,0:0:0:0:
245,294,162508,6,0,L|110:307,1,135,4|8,0:0|0:0,0:0:0:0:
44,368,163305,2,0,P|25:289|53:238,1,135,2|0,0:0|0:0,0:0:0:0:
134,217,164103,1,0,0:0:0:0:
223,208,164422,2,0,L|338:199,1,89.9999999999999,2|2,0:3|0:3,0:0:0:0:
402,195,165061,6,0,P|425:135|373:63,1,135,4|8,0:0|0:0,0:0:0:0:
309,45,165859,2,0,L|151:59,1,135,2|4,0:0|0:0,0:0:0:0:
84,62,166657,1,0,0:3:0:0:
26,131,166976,2,0,P|74:152|136:137,1,89.9999999999999,2|2,0:3|0:3,0:0:0:0:
202,149,167614,6,0,L|357:134,1,135,4|8,0:0|0:0,0:0:0:0:
426,128,168412,2,0,P|449:183|433:276,2,135,2|4|8,0:0|0:0|0:0,0:0:0:0:
375,53,169688,1,2,0:0:0:0:
239,57,170167,6,0,P|188:96|196:205,2,180,4|0|8,0:0|0:0|0:0,0:0:0:0:
262,144,171763,1,8,0:0:0:0:
279,232,172082,2,0,L|269:326,2,89.9999999999999,8|8|8,0:0|0:0|0:0,0:0:0:0:
347,173,173040,6,0,P|425:151|484:189,2,135,12|8|12,0:0|0:0|0:0,0:0:0:0:
256,192,174157,12,0,176710,0:0:0:0:
313,299,184210,6,0,L|178:314,1,135,4|8,0:0|0:0,0:0:0:0:
88,322,185008,2,0,P|75:262|96:214,1,89.9999999999999,2|8,0:0|0:0,0:0:0:0:
149,175,185646,2,0,L|362:152,1,180,0|2,0:0|0:0,0:0:0:0:
452,209,186763,6,0,P|463:144|431:75,1,135,4|8,0:0|0:0,0:0:0:0:
348,66,187561,2,0,L|230:76,1,89.9999999999999,2|8,0:0|0:0,0:0:0:0:
170,51,188199,2,0,P|137:108|147:174,1,135,2|2,0:0|0:1,0:0:0:0:
213,236,188997,1,2,0:3:0:0:
291,279,189316,6,0,L|304:134,1,135,4|8,0:0|0:0,0:0:0:0:
348,66,190114,2,0,P|403:69|459:96,1,89.9999999999999,2|8,0:3|0:0,0:0:0:0:
485,155,190752,2,0,P|482:210|455:266,1,89.9999999999999,0|8,0:0|0:0,0:0:0:0:
385,274,191391,1,2,0:1:0:0:
251,291,191869,6,0,L|91:278,1,135,4|8,0:0|0:0,0:0:0:0:
42,229,192667,2,0,P|31:154|64:98,2,135,2|4|8,0:0|0:0|0:0,0:0:0:0:
116,280,193944,2,0,L|250:269,1,135,2|4,0:0|0:0,0:0:0:0:
385,264,194901,5,8,0:0:0:0:
438,191,195220,2,0,P|374:174|316:205,2,135,2|4|8,0:0|0:0|0:0,0:0:0:0:
472,275,196497,2,0,P|435:336|402:351,1,89.9999999999999,2|8,0:0|0:0,0:0:0:0:
330,350,197135,6,0,L|157:337,1,135,12|12,0:0|0:0,0:0:0:0:
66,299,198093,2,0,P|46:227|85:171,2,135,12|12|12,0:0|0:0|0:0,0:0:0:0:
114,375,199369,1,2,0:0:0:0:
195,339,199688,6,0,L|299:325,1,89.9999999999999,12|2,0:0|0:0,0:0:0:0:
365,288,200327,2,0,P|380:207|371:186,1,89.9999999999999,2|10,0:0|0:0,0:0:0:0:
323,131,200965,1,2,0:0:0:0:
72,130,212454,6,0,L|80:182,1,45,6|6,0:0|0:0,0:0:0:0:
293,105,213412,2,0,L|301:157,1,45,6|6,0:0|0:0,0:0:0:0:
462,223,215008,6,0,L|454:275,1,45,6|6,0:0|0:0,0:0:0:0:
237,211,215965,2,0,L|230:255,1,45,6|6,0:0|0:0,0:0:0:0:
78,174,217561,6,0,P|45:95|94:21,1,180,4|2,0:0|0:0,0:0:0:0:
182,23,218518,1,0,0:0:0:0:
254,76,218837,2,0,L|440:64,1,180,4|2,0:0|0:0,0:0:0:0:
511,18,219795,1,0,0:0:0:0:
511,107,220114,6,0,L|496:308,2,180,2|2|2,0:0|0:0|0:0,0:0:0:0:
334,72,222029,2,0,L|337:116,1,45,2|0,0:0|0:0,0:0:0:0:
350,206,222508,6,0,P|265:227|208:200,1,135,4|10,0:0|0:0,0:0:0:0:
162,145,223305,1,10,0:0:0:0:
58,231,223784,2,0,L|75:349,2,89.9999999999999,4|2|2,0:0|0:0|0:3,0:0:0:0:
44,141,224742,1,2,0:3:0:0:
93,65,225061,6,0,P|171:29|236:66,1,135,12|8,0:0|0:0,0:0:0:0:
266,116,225859,2,0,L|248:258,1,135,2|0,0:0|0:0,0:0:0:0:
255,339,226657,1,0,0:0:0:0:
166,353,226976,2,0,P|109:340|56:315,1,89.9999999999999,2|0,0:3|0:0,0:0:0:0:
27,254,227614,6,0,P|2:168|16:113,1,135,4|2,0:0|0:0,0:0:0:0:
55,46,228412,2,0,P|141:21|196:35,1,135,2|2,0:0|0:3,0:0:0:0:
261,75,229210,1,0,0:0:0:0:
299,156,229529,2,0,L|279:272,1,89.9999999999999,2|2,0:3|0:3,0:0:0:0:
333,319,230167,6,0,P|259:330|202:292,1,135,4|8,0:0|0:0,0:0:0:0:
199,211,230965,2,0,P|151:194|67:230,1,135,2|4,0:0|0:0,0:0:0:0:
9,283,231763,1,8,0:0:0:0:
47,364,232082,2,0,L|146:355,1,89.9999999999999,4|0,0:0|0:0,0:0:0:0:
209,300,232720,6,0,L|364:284,1,135,4|8,0:0|0:0,0:0:0:0:
433,279,233518,2,0,P|448:215|401:143,1,135,2|2,0:0|0:3,0:0:0:0:
355,90,234316,1,0,0:0:0:0:
265,90,234635,2,0,L|153:99,1,89.9999999999999,2|2,0:3|0:3,0:0:0:0:
92,132,235274,6,0,P|48:182|82:263,1,135,4|8,0:0|0:0,0:0:0:0:
143,287,236072,2,0,L|303:273,1,135,2|2,0:0|0:3,0:0:0:0:
367,264,236869,1,2,0:3:0:0:
396,180,237189,2,0,P|352:174|311:193,1,89.9999999999999,2|2,0:3|0:3,0:0:0:0:
278,275,237827,6,0,P|205:288|135:238,1,135,4|8,0:0|0:0,0:0:0:0:
96,192,238625,2,0,L|118:56,2,135,2|4|8,0:0|0:0|0:0,0:0:0:0:
29,251,239901,1,2,0:0:0:0:
137,334,240380,6,0,P|229:339|280:261,2,180,4|2|8,0:0|0:3|0:0,0:0:0:0:
68,276,241976,1,8,0:0:0:0:
96,192,242295,2,0,L|112:91,1,89.9999999999999,8|8,0:0|0:0,0:0:0:0:
129,15,242933,1,8,0:0:0:0:
194,77,243252,2,0,L|344:65,1,135,12|12,0:0|0:0,0:0:0:0:
463,62,244210,6,0,P|485:136|455:199,1,135,4|8,0:0|0:0,0:0:0:0:
374,187,245008,2,0,L|368:336,1,135,2|2,0:0|0:3,0:0:0:0:
293,371,245805,1,2,0:0:0:0:
203,380,246125,2,0,L|186:275,1,89.9999999999999,2|2,0:3|0:3,0:0:0:0:
110,247,246763,6,0,L|131:102,1,135,4|8,0:0|0:0,0:0:0:0:
160,28,247561,2,0,P|227:13|283:58,1,135,2|2,0:0|0:3,0:0:0:0:
307,132,248359,1,2,0:0:0:0:
241,193,248678,2,0,L|257:299,1,89.9999999999999,2|2,0:3|0:3,0:0:0:0:
277,369,249316,6,0,P|340:383|398:349,1,135,4|8,0:0|0:0,0:0:0:0:
429,264,250114,2,0,L|403:91,1,135,2|0,0:0|0:0,0:0:0:0:
397,40,250912,1,2,0:3:0:0:
310,14,251231,2,0,P|257:11|217:36,1,89.9999999999999,0|2,0:0|0:3,0:0:0:0:
156,85,251869,6,0,L|175:199,1,89.9999999999999,4|2,0:0|0:0,0:0:0:0:
255,205,252508,2,0,L|236:319,1,89.9999999999999,2|8,0:3|0:0,0:0:0:0:
178,359,253146,2,0,P|113:369|54:278,1,180,4|4,0:0|0:0,0:0:0:0:
72,105,254422,6,0,L|207:118,1,135,2|12,0:3|0:0,0:0:0:0:
269,53,255220,2,0,P|293:114|272:177,1,135,0|2,0:0|0:3,0:0:0:0:
187,208,256017,1,0,0:0:0:0:
101,235,256337,2,0,P|90:286|114:339,1,89.9999999999999,2|2,0:3|0:3,0:0:0:0:
175,372,256975,6,0,P|239:376|288:329,1,135,4|8,0:0|0:0,0:0:0:0:
321,245,257773,2,0,L|304:91,1,135,2|4,0:0|0:0,0:0:0:0:
298,20,258571,1,2,0:3:0:0:
208,24,258890,2,0,P|165:23|100:41,1,89.9999999999999,2|2,0:3|0:3,0:0:0:0:
62,102,259529,6,0,L|77:257,1,135,4|8,0:0|0:0,0:0:0:0:
120,314,260326,2,0,P|175:337|264:301,2,135,2|4|8,0:0|0:0|0:0,0:0:0:0:
75,236,261602,1,0,0:0:0:0:
62,102,262082,6,0,P|101:51|210:59,2,180,4|2|8,0:0|0:3|0:0,0:0:0:0:
148,126,263677,1,8,0:0:0:0:
182,209,263996,2,0,L|192:303,2,89.9999999999999,8|8|8,0:0|0:0|0:0,0:0:0:0:
92,201,264954,6,0,L|109:359,2,135,12|12|12,0:0|0:0|0:0,0:0:0:0:
77,66,266391,5,8,0:0:0:0:
157,24,266710,2,0,P|206:23|251:48,1,89.9999999999999,2|8,0:0|0:0,0:0:0:0:
283,120,267348,2,0,P|342:142|403:111,1,135,4|2,0:0|0:3,0:0:0:0:
447,32,268146,1,2,0:3:0:0:
491,109,268465,6,0,L|477:265,1,135,4|8,0:0|0:0,0:0:0:0:
446,327,269263,2,0,P|380:347|313:294,2,135,2|2|8,0:0|0:3|0:0,0:0:0:0:
478,243,270540,2,0,L|491:109,1,135,2|4,0:0|0:2,0:0:0:0:
374,40,271497,5,2,0:0:0:0:
299,90,271816,2,0,P|240:102|196:81,1,89.9999999999999,2|2,0:0|0:0,0:0:0:0:
137,43,272454,2,0,P|78:31|34:52,2,89.9999999999999,4|2|2,0:2|0:0|0:2,0:0:0:0:
178,171,273571,6,0,L|172:325,1,135,4|2,0:2|0:2,0:0:0:0:
239,367,274369,2,0,P|309:375|368:320,1,135,4|6,0:2|0:0,0:0:0:0:
381,251,275167,1,6,0:0:0:0:
371,161,275486,2,0,L|354:50,2,89.9999999999999,6|6|6,0:0|0:0|0:0,0:0:0:0:
381,251,276444,6,0,P|312:246|218:233,2,135,8|8|12,0:0|0:0|0:0,0:0:0:0:
507,203,277880,1,2,0:0:0:0:
