osu file format v14

[General]
AudioFilename: audio.mp3
AudioLeadIn: 0
PreviewTime: 221949
Countdown: 0
SampleSet: Soft
StackLeniency: 0.3
Mode: 0
LetterboxInBreaks: 0
WidescreenStoryboard: 0

[Editor]
Bookmarks: 2933,13305,23518,33731,43944,54157,64210,74422,85912,91018,101391,111603,121816,132029,139688,142242,152295,162508,173997,176710,184210,191869,197135,202242,212454,217561,225061,232720,244210,254901,265912,277880
DistanceSpacing: 1
BeatDivisor: 4
GridSize: 16
TimelineZoom: 0.8999991

[Metadata]
Title:Absolute Soul
TitleUnicode:Absolute Soul
Artist:Suzuki Konomi
ArtistUnicode:鈴木このみ
Creator:Kalibe
Version:Akitoshi's Normal
Source:アブソリュート・デュオ
Tags:Duo opening full version garden doormat mugiwarasekai irohas akitoshi corinn [c_u_r_i] curi
BeatmapID:1219304
BeatmapSetID:568786

[Difficulty]
HPDrainRate:4
CircleSize:3
OverallDifficulty:4
ApproachRate:5
SliderMultiplier:1.01
SliderTickRate:1

[Events]
//Background and Video events
0,0,"bg2.jpg",0,0
//Break Periods
2,134782,138412
2,176910,183010
2,202242,211254
2,268665,269818
//Storyboard Layer 0 (Background)
//Storyboard Layer 1 (Fail)
//Storyboard Layer 2 (Pass)
//Storyboard Layer 3 (Foreground)
//Storyboard Sound Samples

[TimingPoints]
540,319.148936170213,4,2,5,70,1,0
64210,-100,4,2,5,75,0,1
73784,-100,4,2,5,50,0,0
74422,-100,4,2,5,75,0,1
85912,-100,4,2,5,65,0,0
152295,-100,4,2,5,75,0,1
161869,-100,4,2,5,50,0,0
162508,-100,4,2,5,75,0,1
173997,-100,4,2,5,60,0,0
222508,-100,4,2,5,60,0,0
225061,-100,4,2,5,75,0,1
232082,-100,4,2,5,50,0,0
232720,-100,4,2,5,75,0,1
244130,-100,4,2,5,75,0,0
244210,-100,4,2,5,80,0,1
253784,-100,4,2,5,50,0,0
254901,-100,4,2,5,80,0,1
265912,-100,4,2,5,70,0,0

[Colours]
Combo1 : 223,83,164
Combo2 : 12,165,248
Combo3 : 21,210,182
Combo4 : 167,92,228

[HitObjects]
153,187,540,6,0,L|157:134,1,50.5,2|2,0:0|0:0,0:0:0:0:
166,87,859,2,0,P|216:105|282:94,1,101,8|2,0:0|0:0,0:0:0:0:
303,71,1337,2,0,L|412:80,1,101,8|2,0:0|0:0,0:0:0:0:
445,108,1816,1,8,3:0:0:0:
474,204,2135,1,4,3:0:0:0:
402,275,2454,2,8,L|407:330,1,50.5
310,357,2933,6,0,B|259:364|259:364|193:351,1,101,6|2,0:0|0:0,0:0:0:0:
160,344,3412,1,8,0:0:0:0:
94,266,3731,2,0,L|88:210,1,50.5,2|0,0:0|0:0,0:0:0:0:
122,177,4050,2,0,L|116:121,1,50.5,8|0,0:0|0:0,0:0:0:0:
137,80,4369,2,0,P|184:69|240:84,1,101,2|8,0:0|0:0,0:0:0:0:
313,144,5008,2,0,L|378:137,2,50.5,2|0|8,0:0|0:0|0:0,0:0:0:0:
276,178,5486,6,0,B|267:229|267:229|277:291,1,101,6|2,0:0|0:0,0:0:0:0:
287,326,5965,1,8,0:0:0:0:
380,363,6284,2,0,P|426:366|482:343,1,101,2|8,0:0|0:0,0:0:0:0:
493,299,6763,2,0,L|487:188,1,101
458,156,7242,1,8,0:0:0:0:
381,90,7561,2,0,L|382:35,2,50.5,2|0|8,0:0|0:0|0:0,0:0:0:0:
353,132,8040,6,0,P|302:145|244:137,1,101,6|2,0:0|0:0,0:0:0:0:
208,119,8518,1,8,0:0:0:0:
113,153,8837,2,0,L|112:218,1,50.5,2|0,0:0|0:0,0:0:0:0:
136,248,9157,2,0,L|135:313,1,50.5,8|0,0:0|0:0,0:0:0:0:
163,340,9476,2,0,P|210:352|267:340,1,101,2|8,0:0|0:0,0:0:0:0:
335,274,10114,2,0,P|329:241|328:213,2,50.5,2|0|8,0:0|0:0|0:0,0:0:0:0:
362,316,10593,6,0,L|472:310,1,101,6|2,0:0|0:0,0:0:0:0:
501,278,11071,1,8,0:0:0:0:
495,176,11391,2,0,P|493:147|486:122,1,50.5,2|0,0:0|0:0,0:0:0:0:
462,82,11710,1,8,0:0:0:0:
462,82,11869,2,0,B|415:97|415:97|362:93,2,101,2|2|2,0:0|0:0|0:0,0:0:0:0:
213,39,13305,6,0,L|219:145,1,101,6|2,0:0|0:0,0:0:0:0:
226,240,13944,2,0,L|120:246,1,101,2|2,0:0|0:0,0:0:0:0:
24,245,14582,2,0,L|18:139,1,101,2|2,0:0|0:0,0:0:0:0:
11,43,15220,2,0,L|117:37,1,101,2|2,0:0|0:0,0:0:0:0:
213,39,15859,6,0,P|255:56|312:52,1,101,2|2,0:0|0:0,0:0:0:0:
406,23,16497,2,0,L|404:127,1,101,2|2,0:0|0:0,0:0:0:0:
392,224,17135,2,0,P|442:217|489:178,2,101,2|2|2,0:0|0:0|0:0,0:0:0:0:
297,188,18093,1,2,0:0:0:0:
216,127,18412,6,0,L|95:135,1,101,2|2,0:0|0:0,0:0:0:0:
21,171,19050,2,0,B|11:224|11:224|24:275,1,101,2|2,0:0|0:0,0:0:0:0:
104,328,19688,2,0,L|225:320,1,101,2|2,0:0|0:0,0:0:0:0:
299,286,20327,2,0,B|309:233|309:233|296:182,1,101,2|2,0:0|0:0,0:0:0:0:
216,127,20965,6,0,P|206:70|222:25,2,101,2|2|2,0:0|0:0|0:0,0:0:0:0:
305,81,21922,1,2,0:0:0:0:
305,81,22082,2,0,L|414:72,1,101,8|8,0:0|0:0,0:0:0:0:
487,132,22720,1,8,0:0:0:0:
455,228,23040,2,0,P|412:247|347:239,1,101,8|8,0:0|0:0,0:0:0:0:
313,221,23518,6,0,L|205:225,1,101,6|8,0:0|0:0,0:0:0:0:
111,232,24157,2,0,L|116:293,2,50.5,0|2|8,0:0|0:0|0:0,0:0:0:0:
141,135,24795,2,0,P|181:114|255:122,1,101,2|8,0:0|0:0,0:0:0:0:
282,134,25274,2,0,L|390:128,1,101,2|2,0:0|0:0,0:0:0:0:
424,100,25752,1,8,0:0:0:0:
493,173,26071,6,0,B|504:226|504:226|496:289,1,101,2|8,0:0|0:0,0:0:0:0:
408,319,26710,2,0,P|412:352|412:379,2,50.5,0|2|8,0:0|0:0|0:0,0:0:0:0:
337,247,27348,2,0,B|290:237|290:237|233:246,1,101,2|8,0:0|0:0,0:0:0:0:
198,277,27827,2,0,L|91:271,1,101,2|2,0:0|0:0,0:0:0:0:
46,268,28305,1,8,0:0:0:0:
5,175,28625,6,0,P|13:133|67:91,1,101,2|8,0:0|0:0,0:0:0:0:
151,66,29263,2,0,L|145:12,2,50.5,0|2|8,0:0|0:0|0:0,0:0:0:0:
188,159,29901,2,0,B|242:164|242:164|307:150,1,101,2|8,0:0|0:0,0:0:0:0:
383,122,30540,2,0,L|377:68,2,50.5,2|2|8,0:0|0:0|0:0,0:0:0:0:
390,171,31018,6,0,P|366:223|318:254,1,101,6|0,0:0|0:0,0:0:0:0:
282,260,31497,1,8,0:0:0:0:
189,220,31816,2,0,L|70:229,1,101,2|8,0:0|0:0,0:0:0:0:
26,148,32454,2,0,P|39:96|178:45,1,202,4|0,3:0|3:0,0:0:0:0:
255,84,33412,1,8,0:0:0:0:
325,156,33731,6,0,L|440:149,1,101,6|8,0:0|0:0,0:0:0:0:
436,250,34369,2,0,L|321:257,1,101,2|8,0:0|0:0,0:0:0:0:
233,255,35008,2,0,B|218:301|218:301|218:357,1,101,2|8,0:0|0:0,0:0:0:0:
117,353,35646,2,0,B|117:300|117:300|102:254,1,101,2|8,0:0|0:0,0:0:0:0:
30,182,36284,6,0,L|40:78,1,101,2|8,0:0|0:0,0:0:0:0:
132,41,36922,1,2,0:0:0:0:
233,41,37242,1,8,0:0:0:0:
329,76,37561,2,0,L|339:180,1,101,2|8,0:0|0:0,0:0:0:0:
361,274,38199,2,0,P|400:281|449:267,2,75.75,8|8|8,0:0|0:0|0:0,0:0:0:0:
310,269,38837,6,0,L|196:280,1,101,6|8,0:0|0:0,0:0:0:0:
108,285,39476,2,0,L|97:171,1,101,2|8,0:0|0:0,0:0:0:0:
90,83,40114,2,0,L|204:72,1,101,2|8,0:0|0:0,0:0:0:0:
291,67,40752,2,0,L|302:181,1,101,2|8,0:0|0:0,0:0:0:0:
310,269,41391,6,0,P|363:275|422:256,1,101,2|8,0:0|0:0,0:0:0:0:
479,191,42029,1,2,0:0:0:0:
479,90,42348,1,8,0:0:0:0:
407,18,42667,2,0,P|354:12|295:31,1,101,2|8,0:0|0:0,0:0:0:0:
250,106,43305,2,0,L|255:198,2,75.75,8|8|8,0:0|0:0|0:0,0:0:0:0:
213,69,43944,5,4,0:0:0:0:
256,192,44103,12,2,46497,0:3:0:0:
44,123,49050,6,0,B|145:125|145:125|199:101,1,151.5,2|2,0:3|0:3,0:0:0:0:
325,34,50008,2,0,P|366:58|240:173,1,303,2|2,0:3|0:3,0:0:0:0:
191,104,51284,1,0,0:0:0:0:
104,156,51603,6,0,L|114:309,2,151.5,6|6|6,0:0|0:0|0:0,0:0:0:0:
191,104,52880,2,0,P|238:114|298:101,1,101,2|0,0:0|0:0,0:0:0:0:
388,84,53518,2,0,L|393:141,1,50.5,0|8,0:0|0:0,0:0:0:0:
428,170,53837,2,0,L|433:227,1,50.5,8|8,0:0|0:0,0:0:0:0:
458,264,54157,6,0,P|417:254|303:291,1,151.5,2|2,0:0|0:0,0:0:0:0:
277,317,54795,2,0,L|174:309,1,101,8|0,0:0|0:0,0:0:0:0:
99,244,55433,2,0,B|85:144|85:144|111:84,1,151.5,2|2,0:0|0:0,0:0:0:0:
130,53,56071,2,0,P|180:68|238:63,1,101,8|0,0:0|0:0,0:0:0:0:
313,11,56710,6,0,P|328:81|284:149,1,151.5,2|2,0:0|0:0,0:0:0:0:
248,176,57348,2,0,L|256:283,1,101,8|0,0:0|0:0,0:0:0:0:
154,285,57986,2,0,L|146:178,1,101,2|0,0:0|0:0,0:0:0:0:
131,84,58625,2,8,L|79:87,2,50.5
178,66,59103,6,0,P|231:83|289:70,1,101,6|0,0:0|0:0,0:0:0:0:
319,52,59582,1,8,0:0:0:0:
413,86,59901,2,0,L|464:82,2,50.5,0|2|8,0:0|0:0|0:0,0:0:0:0:
382,126,60380,2,0,B|368:176|368:176|375:241,1,101,2|0,0:0|0:0,0:0:0:0:
381,274,60859,1,8,0:0:0:0:
299,334,61178,2,0,P|300:370|295:399,2,50.5,2|2|8,0:0|0:0|0:0,0:0:0:0:
271,291,61657,6,0,P|216:302|161:282,1,101,6|2,0:0|0:0,0:0:0:0:
130,263,62135,1,8,0:0:0:0:
73,179,62454,2,0,L|70:124,2,50.5,8|8|8,0:0|0:0|0:0,0:0:0:0:
36,214,62933,1,6,0:0:0:0:
36,214,64210,6,0,P|78:199|133:204,1,101,12|0,0:0|0:0,0:0:0:0:
178,226,64688,1,8,0:0:0:0:
261,283,65008,2,0,L|259:352,2,50.5,2|0|8,0:0|0:0|0:0,0:0:0:0:
284,238,65486,2,0,P|333:254|394:242,1,101
474,207,66125,2,0,L|468:99,1,101
390,41,66763,6,0,B|339:52|339:52|273:45,1,101,6|0,0:0|0:0,0:0:0:0:
240,39,67242,1,8,0:0:0:0:
147,79,67561,1,2,0:0:0:0:
110,172,67880,1,8,0:0:0:0:
110,172,68040,2,0,L|117:283,1,101
125,322,68518,1,8,0:0:0:0:
125,322,68678,2,0,P|184:332|232:313,1,101
298,253,69316,6,0,L|412:250,1,101,6|0,0:0|0:0,0:0:0:0:
445,231,69795,1,8,0:0:0:0:
442,130,70114,2,0,P|391:107|338:114,1,101,2|8,0:0|0:0,0:0:0:0:
252,146,70752,2,0,B|201:155|201:155|131:144,1,101,2|8,0:0|0:0,0:0:0:0:
102,141,71231,1,0,0:0:0:0:
33,215,71550,1,0,0:0:0:0:
82,302,71869,6,0,B|132:316|132:316|190:305,1,101,2|0,0:0|0:0,0:0:0:0:
226,285,72348,1,8,0:0:0:0:
226,285,72508,2,0,L|341:289,1,101
414,238,73146,1,8,0:0:0:0:
371,146,73465,2,0,L|373:84,2,50.5,2|2|8,0:0|0:0|0:0,0:0:0:0:
226,285,74422,6,0,B|177:294|177:294|108:283,1,101,6|0,0:0|0:0,0:0:0:0:
76,278,74901,1,8,0:0:0:0:
22,192,75220,2,0,P|16:139|33:89,1,101,2|8,0:0|0:0,0:0:0:0:
67,60,75699,2,0,B|116:73|116:73|177:67,1,101
260,33,76337,2,0,L|360:39,1,101
410,46,76816,1,8,0:0:0:0:
410,46,76976,6,0,B|425:93|425:93|416:150,1,101,6|0,0:0|0:0,0:0:0:0:
407,193,77454,1,8,0:0:0:0:
317,240,77774,2,0,L|323:354,1,101,2|8,0:0|0:0,0:0:0:0:
365,366,78252,2,0,P|414:372|475:353,1,101
495,263,78891,2,0,L|489:149,1,101
444,71,79529,6,0,B|395:58|395:58|337:67,1,101,6|0,0:0|0:0,0:0:0:0:
297,83,80008,1,8,0:0:0:0:
201,116,80327,2,0,L|84:110,1,101,2|8,0:0|0:0,0:0:0:0:
53,128,80805,2,0,P|39:177|51:241,1,101,2|0,0:0|0:0,0:0:0:0:
66,272,81284,1,8,0:0:0:0:
148,329,81603,2,0,L|265:323,1,101,2|8,0:0|0:0,0:0:0:0:
292,298,82082,6,0,B|298:247|298:247|284:194,1,101,2|2,0:0|0:0,0:0:0:0:
271,150,82561,1,8,0:0:0:0:
271,49,82880,2,0,P|335:29|386:39,1,101,2|8,0:0|0:0,0:0:0:0:
452,88,83518,1,0,0:0:0:0:
452,88,83678,2,0,L|460:204,1,101,2|2,0:0|0:0,0:0:0:0:
427,284,84316,1,2,0:0:0:0:
332,319,84635,1,2,0:0:0:0:
247,263,84954,6,0,P|207:253|143:263,1,101,8|2,0:0|0:0,0:0:0:0:
102,281,85433,2,0,L|93:166,1,101,8|2,0:0|0:0,0:0:0:0:
114,133,85912,1,8,0:0:0:0:
256,192,86071,12,6,89742,0:0:0:0:
206,262,90540,2,8,L|203:325,1,50.5
298,348,91018,6,0,L|306:232,1,101,6|2,0:0|0:0,0:0:0:0:
309,196,91497,1,8,0:0:0:0:
266,106,91816,2,0,P|237:103|205:103,1,50.5,2|0,0:0|0:0,0:0:0:0:
166,115,92135,2,0,P|137:118|105:118,1,50.5,8|0,0:0|0:0,0:0:0:0:
70,95,92454,2,0,L|78:215,1,101,2|8,0:0|0:0,0:0:0:0:
116,288,93093,2,0,L|112:346,2,50.5,2|0|8,0:0|0:0|0:0,0:0:0:0:
155,257,93571,6,0,P|198:276|273:267,1,101,6|2,0:0|0:0,0:0:0:0:
299,260,94050,1,8,0:0:0:0:
374,193,94369,2,0,L|372:74,1,101,2|8,0:0|0:0,0:0:0:0:
347,47,94848,2,0,P|299:61|236:50,1,101
199,42,95327,1,8,0:0:0:0:
107,85,95646,2,0,P|68:81|43:83,2,50.5,2|0|8,0:0|0:0|0:0,0:0:0:0:
138,124,96125,6,0,L|132:238,1,101,6|2,0:0|0:0,0:0:0:0:
130,275,96603,1,8,0:0:0:0:
188,357,96922,2,0,P|221:359|259:355,1,50.5,2|0,0:0|0:0,0:0:0:0:
280,329,97242,2,0,P|313:327|351:331,1,50.5,8|0,0:0|0:0,0:0:0:0:
380,329,97561,2,0,P|369:276|369:214,1,101,2|8,0:0|0:0,0:0:0:0:
386,130,98199,2,0,L|442:130,2,50.5,2|0|8,0:0|0:0|0:0,0:0:0:0:
344,103,98678,6,0,P|300:126|231:130,1,101,6|0,0:0|0:0,0:0:0:0:
200,121,99157,1,8,0:0:0:0:
110,73,99476,2,0,L|113:12,2,50.5,2|0|8,0:0|0:0|0:0,0:0:0:0:
83,115,99954,2,0,L|89:227,1,101,6|0,0:0|0:0,0:0:0:0:
91,266,100433,1,8,0:0:0:0:
163,336,100752,2,0,P|191:336|225:329,1,50.5,8|8,0:0|0:0,0:0:0:0:
254,303,101071,2,0,P|282:303|316:310,1,50.5,2|2,0:0|0:0,0:0:0:0:
350,328,101391,5,6,0:0:0:0:
350,328,103305,2,0,B|302:299|302:299|207:311,1,151.5,8|0,0:0|0:0,0:0:0:0:
156,316,103944,6,0,P|136:264|146:207,1,101,2|8,0:0|0:0,0:0:0:0:
181,127,104582,2,0,L|173:71,2,50.5,0|2|8,0:0|0:0|0:0,0:0:0:0:
259,189,105220,2,0,L|364:177,1,101,2|8,0:0|0:0,0:0:0:0:
408,163,105699,2,0,B|411:111|411:111|395:51,1,101,2|2,0:0|0:0,0:0:0:0:
361,29,106178,1,8,0:0:0:0:
273,78,106497,6,0,P|220:85|165:74,1,101,2|8,0:0|0:0,0:0:0:0:
79,113,107135,2,0,L|9:116,2,50.5,0|2|8,0:0|0:0|0:0,0:0:0:0:
155,179,107774,2,0,L|159:289,1,101,2|8,0:0|0:0,0:0:0:0:
252,316,108412,2,0,L|251:374,2,50.5,2|2|8,0:0|0:0|0:0,0:0:0:0:
282,275,108891,6,0,P|327:263|389:285,1,101,6|0,0:0|0:0,0:0:0:0:
415,311,109369,1,8,0:0:0:0:
484,237,109688,2,0,L|477:119,1,101,2|8,0:0|0:0,0:0:0:0:
448,95,110167,1,0,0:0:0:0:
448,95,111603,6,0,B|384:112|324:63|324:63|254:70,1,202,2|8,0:0|0:0,0:0:0:0:
155,80,112561,1,0,0:0:0:0:
93,159,112880,2,0,B|83:209|83:209|90:268,1,101,2|8,0:0|0:0,0:0:0:0:
121,297,113359,2,0,L|231:287,1,101,2|2,0:0|0:0,0:0:0:0:
269,302,113837,1,8,0:0:0:0:
356,250,114157,6,0,B|363:201|363:201|353:147,1,101,2|8,0:0|0:0,0:0:0:0:
290,71,114795,2,0,L|294:8,2,50.5,0|2|8,0:0|0:0|0:0,0:0:0:0:
210,133,115433,2,0,B|159:140|159:140|106:135,1,101,2|8,0:0|0:0,0:0:0:0:
59,129,115912,2,0,P|36:176|42:241,1,101,2|2,0:0|0:0,0:0:0:0:
50,272,116391,1,8,0:0:0:0:
147,298,116710,6,0,B|198:291|198:291|251:296,1,101,2|8,0:0|0:0,0:0:0:0:
345,316,117348,2,0,L|351:370,2,50.5,0|2|8,0:0|0:0|0:0,0:0:0:0:
315,219,117986,2,0,L|323:106,1,101,2|8,0:0|0:0,0:0:0:0:
398,52,118625,2,0,P|396:20|400:-3,2,50.5,2|0|8,0:0|0:0|0:0,0:0:0:0:
433,88,119103,6,0,B|444:143|444:143|439:205,1,101,6|0,0:0|0:0,0:0:0:0:
434,238,119582,1,8,0:0:0:0:
358,305,119901,2,0,P|313:319|251:300,1,101,2|8,0:0|0:0,0:0:0:0:
208,220,120540,2,0,B|153:207|153:207|65:237|65:237|9:222,1,202,4|0,3:0|3:0,0:0:0:0:
3,123,121497,1,0,0:0:0:0:
59,39,121816,6,0,L|165:34,1,101,2|8,0:0|0:0,0:0:0:0:
260,30,122454,2,0,L|265:136,1,101,2|8,0:0|0:0,0:0:0:0:
272,231,123093,2,0,L|166:236,1,101,2|8,0:0|0:0,0:0:0:0:
70,244,123731,2,0,L|65:138,1,101,2|8,0:0|0:0,0:0:0:0:
59,39,124369,6,0,P|123:26|175:36,1,101,2|8,0:0|0:0,0:0:0:0:
253,64,125008,1,2,0:0:0:0:
280,160,125327,1,8,0:0:0:0:
236,251,125646,2,0,L|245:354,1,101,2|8,0:0|0:0,0:0:0:0:
344,338,126284,2,0,L|336:248,2,75.75,8|8|8,0:0|0:0|0:0,0:0:0:0:
389,359,126922,6,0,P|431:363|489:338,1,101,6|2,0:0|0:0,0:0:0:0:
507,242,127561,2,0,L|503:128,1,101,2|2,0:0|0:0,0:0:0:0:
468,46,128199,2,0,P|426:42|368:67,1,101,2|2,0:0|0:0,0:0:0:0:
303,137,128837,2,0,L|180:135,1,101,2|2,0:0|0:0,0:0:0:0:
108,173,129476,6,0,B|96:225|96:225|107:289,1,101,2|2,0:0|0:0,0:0:0:0:
175,343,130114,1,2,0:0:0:0:
275,343,130433,1,0,0:0:0:0:
346,271,130752,2,0,B|358:219|358:219|347:155,1,101,2|2,0:0|0:0,0:0:0:0:
285,93,131391,2,8,L|294:3,2,75.75
251,130,132029,5,2,0:3:0:0:
256,192,132188,12,2,134582,0:3:0:0:
188,73,139688,6,0,L|346:55,2,151.5,6|6|6,0:0|0:0|0:0,0:0:0:0:
88,93,140965,2,0,P|63:145|69:199,1,101,6|0,0:0|0:0,0:0:0:0:
133,261,141603,2,0,L|199:254,1,50.5,0|8,0:0|0:0,0:0:0:0:
227,281,141922,2,0,L|293:274,1,50.5,8|8,0:0|0:0,0:0:0:0:
324,295,142242,6,0,P|312:224|320:135,1,151.5,2|2,0:0|0:0,0:0:0:0:
332,96,142880,2,0,L|437:89,1,101,8|0,0:0|0:0,0:0:0:0:
498,165,143518,2,0,B|510:272|510:272|498:326,1,151.5,2|2,0:0|0:0,0:0:0:0:
478,360,144157,2,0,P|426:351|365:365,1,101,8|0,0:0|0:0,0:0:0:0:
279,375,144795,6,0,L|123:368,1,151.5,2|2,0:0|0:0,0:0:0:0:
82,345,145433,2,0,B|67:296|67:296|81:230,1,101,8|0,0:0|0:0,0:0:0:0:
119,155,146071,2,0,B|168:140|168:140|234:154,1,101,2|0,0:0|0:0,0:0:0:0:
314,175,146710,2,0,P|320:137|320:102,2,50.5,8|8|8,0:0|0:0|0:0,0:0:0:0:
295,221,147188,6,0,L|313:337,1,101,6|0,0:0|0:0,0:0:0:0:
339,362,147667,1,8,0:0:0:0:
439,354,147986,2,0,P|466:358|495:356,2,50.5,0|2|8,0:0|0:0|0:0,0:0:0:0:
412,311,148465,2,0,B|404:252|404:252|416:196,1,101,6|0,0:0|0:0,0:0:0:0:
431,164,148944,1,8,0:0:0:0:
456,66,149263,2,0,L|507:63,2,50.5,2|0|8,0:0|0:0|0:0,0:0:0:0:
410,45,149742,6,0,L|293:37,1,101,6|0,0:0|0:0,0:0:0:0:
260,52,150220,1,8,0:0:0:0:
183,117,150540,2,8,P|191:150|192:177,2,50.5
140,89,151018,1,6,0:0:0:0:
140,89,152295,6,0,B|125:136|125:136|131:207,1,101,12|0,0:0|0:0,0:0:0:0:
137,237,152774,1,8,0:0:0:0:
205,311,153093,2,0,P|198:345|195:371,2,50.5,2|0|8,0:0|0:0|0:0,0:0:0:0:
245,280,153571,2,0,L|347:279,1,101
428,220,154210,2,0,B|443:173|443:173|437:102,1,101
372,45,154848,6,0,P|322:58|252:41,1,101,6|0,0:0|0:0,0:0:0:0:
226,33,155327,1,8,0:0:0:0:
132,70,155646,1,2,0:0:0:0:
95,164,155965,1,8,0:0:0:0:
95,164,156125,2,0,L|104:273,1,101
112,314,156603,1,8,0:0:0:0:
112,314,156763,2,0,P|167:319|217:297,1,101
259,215,157401,6,0,B|305:199|305:199|368:207,1,101,6|0,0:0|0:0,0:0:0:0:
404,223,157880,1,8,0:0:0:0:
495,266,158199,2,0,P|489:321|455:363,1,101,2|8,0:0|0:0,0:0:0:0:
362,369,158837,2,0,L|248:362,1,101,2|8,0:0|0:0,0:0:0:0:
211,355,159316,1,0,0:0:0:0:
133,289,159635,1,0,0:0:0:0:
159,191,159954,6,0,L|151:89,1,101,2|0,0:0|0:0,0:0:0:0:
151,39,160433,1,8,0:0:0:0:
151,39,160593,2,0,P|199:51|258:38,1,101
344,9,161231,1,8,0:0:0:0:
428,63,161550,2,0,L|502:59,2,50.5,2|2|8,0:0|0:0|0:0,0:0:0:0:
246,153,162508,6,0,L|240:272,1,101,6|0,0:0|0:0,0:0:0:0:
215,297,162986,1,8,0:0:0:0:
132,355,163305,2,0,P|91:346|47:294,1,101,2|8,0:0|0:0,0:0:0:0:
37,255,163784,2,0,L|43:136,1,101
71,57,164422,2,0,P|121:65|178:47,1,101
212,25,164901,1,8,0:0:0:0:
212,25,165061,6,0,L|333:33,1,101,6|0,0:0|0:0,0:0:0:0:
362,38,165540,1,8,0:0:0:0:
425,116,165859,2,0,B|442:163|442:163|436:232,1,101,2|8,0:0|0:0,0:0:0:0:
413,258,166337,2,0,L|312:251,1,101
240,179,166976,2,0,L|139:172,1,101
45,209,167614,6,0,B|34:257|34:257|44:310,1,101,6|0,0:0|0:0,0:0:0:0:
71,350,168093,1,8,0:0:0:0:
171,337,168412,2,0,P|214:323|276:339,1,101,2|8,0:0|0:0,0:0:0:0:
307,365,168891,2,0,L|422:359,1,101,2|0,0:0|0:0,0:0:0:0:
453,337,169369,1,8,0:0:0:0:
485,241,169688,2,0,L|476:119,1,101,2|8,0:0|0:0,0:0:0:0:
453,95,170167,6,0,P|408:99|343:80,1,101,2|2,0:0|0:0,0:0:0:0:
309,61,170646,1,8,0:0:0:0:
219,107,170965,2,0,L|223:211,1,101,2|8,0:0|0:0,0:0:0:0:
229,308,171603,1,2,0:0:0:0:
229,308,171763,2,0,P|182:328|125:322,1,101,2|2,0:0|0:0,0:0:0:0:
49,268,172401,1,2,0:0:0:0:
14,172,172720,1,2,0:0:0:0:
57,80,173040,6,0,B|107:72|107:72|167:81,1,101,8|2,0:0|0:0,0:0:0:0:
190,116,173518,2,0,L|298:105,1,101,8|2,0:0|0:0,0:0:0:0:
337,125,173997,1,8,0:0:0:0:
256,192,174157,12,4,176710,3:0:0:0:
14,123,184210,6,0,L|127:114,1,101,6|0,0:0|0:0,0:0:0:0:
162,131,184688,1,8,0:0:0:0:
245,188,185008,2,0,B|254:236|254:236|249:288,1,101,2|8,0:0|0:0,0:0:0:0:
240,337,185486,2,0,P|288:354|345:349,1,101
383,330,185965,1,8,0:0:0:0:
446,251,186284,2,0,L|502:252,2,50.5,2|0|8,0:0|0:0|0:0,0:0:0:0:
398,232,186763,6,0,P|396:180|387:119,1,101,6|0,0:0|0:0,0:0:0:0:
365,86,187242,1,8,0:0:0:0:
265,67,187561,2,0,B|212:73|212:73|150:66,1,101,2|8,0:0|0:0,0:0:0:0:
80,12,188199,2,0,P|64:60|84:128,1,101,2|8,0:0|0:0,0:0:0:0:
103,149,188678,2,0,L|96:258,1,101
97,300,189157,1,8,0:0:0:0:
97,300,189316,6,0,P|147:324|207:320,1,101,6|0,0:0|0:0,0:0:0:0:
241,313,189795,1,8,0:0:0:0:
316,245,190114,2,0,L|312:185,2,50.5,2|0|8,0:0|0:0|0:0,0:0:0:0:
341,288,190593,2,0,L|444:282,1,101,6|2,0:0|0:0,0:0:0:0:
487,260,191071,1,8,0:0:0:0:
508,161,191391,2,0,P|481:115|420:85,1,101,2|8,0:0|0:0,0:0:0:0:
392,99,191869,6,0,B|341:111|341:111|273:101,1,101,2|2,0:0|0:0,0:0:0:0:
242,96,192348,1,8,0:0:0:0:
155,43,192667,2,0,P|141:87|159:156,1,101,2|8,0:0|0:0,0:0:0:0:
180,180,193146,2,0,L|174:292,1,101,2|2,0:0|0:0,0:0:0:0:
150,325,193625,1,8,0:0:0:0:
50,305,193944,2,0,L|44:193,1,101,2|8,0:0|0:0,0:0:0:0:
12,165,194422,6,0,L|18:53,1,101,2|2,0:0|0:0,0:0:0:0:
49,24,194901,1,8,0:0:0:0:
148,39,195220,2,0,B|197:49|197:49|260:40,1,101,2|8,0:0|0:0,0:0:0:0:
297,33,195699,2,0,P|323:79|321:139,1,101,2|2,0:0|0:0,0:0:0:0:
312,175,196178,1,8,0:0:0:0:
244,249,196497,2,0,L|185:243,2,50.5,2|0|8,0:0|0:0|0:0,0:0:0:0:
342,273,197135,6,0,P|380:252|412:196,1,101,6|0,0:0|0:0,0:0:0:0:
414,153,197614,1,6,0:0:0:0:
307,44,198093,2,0,L|189:37,1,101,6|0,0:0|0:0,0:0:0:0:
161,60,198571,1,6,0:0:0:0:
62,175,199050,2,0,B|52:220|52:220|60:279,1,101,6|8,0:0|3:0,0:0:0:0:
256,192,199688,12,2,200965,0:3:0:0:
40,226,212454,5,2,0:0:0:0:
40,226,212614,2,0,L|160:220,1,101,2|0,0:0|0:0,0:0:0:0:
235,103,213411,1,2,0:0:0:0:
235,103,213571,2,0,L|355:97,1,101,2|0,0:0|0:0,0:0:0:0:
462,181,214369,2,0,B|476:232|476:232|466:300,1,101,2|0,0:3|0:0,0:0:0:0:
403,356,215008,5,2,0:0:0:0:
403,356,215168,2,0,L|283:350,1,101,2|0,0:0|0:0,0:0:0:0:
208,233,215965,1,2,0:0:0:0:
208,233,216125,2,0,L|88:227,1,101,2|0,0:0|0:0,0:0:0:0:
17,106,216922,2,0,P|30:68|91:31,1,101,2|0,0:3|0:0,0:0:0:0:
176,54,217561,6,0,B|230:62|230:62|317:34|317:34|379:40,1,202,4|0,3:0|0:0,0:0:0:0:
505,191,218837,2,0,B|451:183|451:183|364:211|364:211|302:205,2,202,4|0|0,3:0|0:0|0:0,0:0:0:0:
349,320,220752,2,0,P|273:321|190:226,1,202,0|2,0:0|0:3,0:0:0:0:
191,233,222508,6,0,L|70:241,1,101,2|2,0:0|0:0,0:0:0:0:
43,222,222986,1,2,0:0:0:0:
5,128,223305,2,0,L|10:58,1,50.5,2|2,0:0|0:0,0:0:0:0:
97,29,223784,2,0,P|129:23|203:51,1,101,2|2,0:0|0:0,0:0:0:0:
227,79,224263,1,0,3:0:0:0:
227,79,224422,2,0,L|342:69,1,101,2|2,0:0|0:0,0:0:0:0:
427,88,225061,6,0,B|442:134|442:134|439:192,1,101,12|2,0:0|0:0,0:0:0:0:
435,237,225540,1,8,0:0:0:0:
368,313,225859,1,2,0:0:0:0:
268,296,226178,1,8,0:0:0:0:
268,296,226337,2,0,P|211:285|160:292,1,101
120,305,226816,1,8,0:0:0:0:
120,305,226976,2,0,L|115:190,1,101
111,103,227614,6,0,P|155:79|228:79,1,101,6|2,0:0|0:0,0:0:0:0:
252,90,228093,1,8,0:0:0:0:
323,161,228412,2,0,L|441:159,1,101,2|8,0:0|0:0,0:0:0:0:
425,260,229050,2,0,L|307:262,1,101,2|8,0:0|0:0,0:0:0:0:
273,263,229529,1,0,0:0:0:0:
194,199,229848,1,0,0:0:0:0:
175,99,230167,6,0,B|125:92|125:92|76:100,1,101,2|0,0:0|0:0,0:0:0:0:
28,120,230646,1,8,0:0:0:0:
28,120,230805,2,0,P|33:176|35:227,1,101
107,290,231444,1,8,0:0:0:0:
207,300,231763,2,0,P|212:338|214:357,2,50.5,2|0|8,0:0|0:0|0:0,0:0:0:0:
188,98,232720,6,0,B|237:83|237:83|302:89,1,101,6|2,0:0|0:0,0:0:0:0:
335,98,233199,1,8,0:0:0:0:
411,163,233518,2,0,P|431:210|424:263,1,101,2|8,0:0|0:0,0:0:0:0:
392,297,233997,2,0,L|284:295,1,101
203,245,234635,2,0,L|95:243,1,101
51,242,235114,1,8,0:0:0:0:
51,242,235274,6,0,B|40:192|40:192|51:125,1,101,2|2,0:0|0:0,0:0:0:0:
63,95,235752,1,8,0:0:0:0:
152,48,236071,2,0,P|201:61|262:44,1,101,2|8,0:0|0:0,0:0:0:0:
290,21,236550,2,0,L|397:26,1,101
456,102,237188,2,0,L|451:209,1,101
396,288,237827,6,0,B|347:301|347:301|279:289,1,101,6|2,0:0|0:0,0:0:0:0:
248,280,238305,1,8,0:0:0:0:
188,197,238625,2,0,L|184:82,1,101,2|8,0:0|0:0,0:0:0:0:
162,50,239103,2,0,P|121:41|48:59,1,101,2|2,0:0|0:0,0:0:0:0:
24,82,239582,1,8,0:0:0:0:
9,181,239901,2,0,L|13:296,1,101,2|8,0:0|0:0,0:0:0:0:
31,328,240380,6,0,B|83:334|83:334|151:322,1,101,2|2,0:0|0:0,0:0:0:0:
179,312,240859,1,8,0:0:0:0:
255,245,241178,2,0,P|249:191|249:133,1,101,2|8,0:0|0:0,0:0:0:0:
285,50,241816,1,2,0:0:0:0:
285,50,241976,2,0,B|331:60|331:60|404:50,1,101,2|2,0:0|0:0,0:0:0:0:
474,97,242614,1,2,0:0:0:0:
507,192,242933,1,2,0:0:0:0:
448,273,243252,6,0,P|409:263|338:270,1,101,8|2,0:0|0:0,0:0:0:0:
303,289,243731,2,0,P|308:319|307:341,2,50.5,8|2|2,0:0|0:0|0:0,0:0:0:0:
267,252,244210,6,0,L|147:247,1,101,6|2,0:0|0:0,0:0:0:0:
115,245,244688,1,8,0:0:0:0:
33,184,245008,2,0,P|24:135|42:77,1,101,2|8,0:0|0:0,0:0:0:0:
70,48,245486,2,0,L|185:42,1,101
262,86,246125,2,0,L|377:80,1,101
452,127,246763,6,0,B|468:174|468:174|463:230,1,101,6|2,0:0|0:0,0:0:0:0:
457,275,247242,1,8,0:0:0:0:
381,342,247561,2,0,P|322:345|279:326,1,101,2|8,0:0|0:0,0:0:0:0:
246,295,248040,2,0,L|132:302,1,101
60,246,248678,2,0,B|50:195|50:195|61:131,1,101
130,76,249316,6,0,L|244:69,1,101,6|0,0:0|0:0,0:0:0:0:
281,66,249795,1,8,0:0:0:0:
352,137,250114,2,0,P|347:203|352:254,1,101,2|8,0:0|0:0,0:0:0:0:
450,244,250752,2,0,P|455:178|450:127,1,101,2|8,0:0|0:0,0:0:0:0:
446,93,251231,1,0,0:0:0:0:
368,28,251550,1,0,0:0:0:0:
269,48,251869,6,0,L|150:40,1,101,2|0,0:0|0:0,0:0:0:0:
119,55,252348,1,8,0:0:0:0:
119,55,252508,2,0,P|97:105|102:172,1,101
145,238,253146,1,8,0:0:0:0:
242,263,253465,2,0,P|248:296|251:322,2,50.5,2|0|8,0:0|0:0|0:0,0:0:0:0:
242,263,254901,6,0,L|347:268,2,101,12|2|8,0:0|0:0|0:0,0:0:0:0:
199,236,255699,2,0,P|187:193|198:133,1,101
207,89,256178,1,8,0:0:0:0:
207,89,256337,2,0,L|87:83,1,101
28,149,256976,6,0,B|12:198|12:198|26:266,1,101,6|2,0:0|0:0,0:0:0:0:
33,295,257454,1,8,0:0:0:0:
111,359,257774,2,0,P|145:365|218:345,1,101,2|8,0:0|0:0,0:0:0:0:
244,315,258252,2,0,L|369:318,1,101
352,216,258891,2,0,L|227:213,1,101
159,171,259529,6,0,P|150:129|180:59,1,101,6|2,0:0|0:0,0:0:0:0:
204,41,260008,1,8,0:0:0:0:
304,49,260327,2,0,B|357:53|357:53|421:45,1,101,2|8,0:0|0:0,0:0:0:0:
454,46,260805,2,0,P|459:94|469:149,1,101,2|0,0:0|0:0,0:0:0:0:
482,194,261284,1,8,0:0:0:0:
436,283,261603,2,0,P|388:290|332:295,1,101,2|8,0:0|0:0,0:0:0:0:
285,290,262082,6,0,L|273:178,1,101,2|0,0:0|0:0,0:0:0:0:
244,148,262561,1,8,0:0:0:0:
170,78,262880,2,0,P|127:75|60:96,1,101,2|8,0:0|0:0,0:0:0:0:
16,174,263518,1,2,0:0:0:0:
16,174,263678,2,0,L|26:290,1,101,2|2,0:0|0:0,0:0:0:0:
87,353,264316,1,2,0:0:0:0:
185,373,264635,1,2,0:0:0:0:
256,302,264954,6,0,P|308:287|374:295,1,101,8|2,0:0|0:0,0:0:0:0:
399,313,265433,2,0,L|404:194,1,101,8|2,0:0|0:0,0:0:0:0:
379,167,265912,1,8,0:0:0:0:
256,192,266071,12,6,268465,0:0:0:0:
192,36,271018,6,0,L|295:33,1,101,6|0,0:0|0:0,0:0:0:0:
341,47,271497,1,8,0:0:0:0:
419,110,271816,2,0,P|425:151|427:177,1,50.5,2|0,0:0|0:0,0:0:0:0:
392,198,272135,2,0,P|386:239|384:265,1,50.5,8|0,0:0|0:0,0:0:0:0:
384,298,272454,2,0,P|332:280|267:290,1,101,2|8,0:0|0:0,0:0:0:0:
243,309,272933,2,0,L|143:303,1,101,2|0,0:0|0:0,0:0:0:0:
42,284,273571,6,0,B|32:230|32:230|41:173,1,101,6|0,0:0|0:0,0:0:0:0:
58,137,274050,1,8,0:0:0:0:
142,81,274369,2,0,L|137:19,2,50.5,2|0|8,0:0|0:0|0:0,0:0:0:0:
180,113,274848,2,0,L|289:99,1,101,2|2,0:0|0:0,0:0:0:0:
378,125,275486,1,2,0:0:0:0:
439,204,275805,1,2,0:0:0:0:
397,296,276125,6,0,P|343:307|285:288,1,101,6|2,0:0|0:0,0:0:0:0:
254,273,276603,1,8,0:0:0:0:
206,183,276922,2,0,L|208:132,2,50.5,8|2|8,0:0|0:0|0:0,0:0:0:0:
171,220,277401,2,0,P|124:213|19:226,1,151.5,8|8,0:0|3:0,0:0:0:0:
