osu file format v14

[General]
AudioFilename: audio.mp3
AudioLeadIn: 0
PreviewTime: 221949
Countdown: 0
SampleSet: Soft
StackLeniency: 0.3
Mode: 0
LetterboxInBreaks: 0
WidescreenStoryboard: 0

[Editor]
DistanceSpacing: 1
BeatDivisor: 4
GridSize: 16
TimelineZoom: 3.699998

[Metadata]
Title:Absolute Soul
TitleUnicode:Absolute Soul
Artist:Suzuki Konomi
ArtistUnicode:鈴木このみ
Creator:Kalibe
Version:Duel
Source:アブソリュート・デュオ
Tags:Duo opening full version garden doormat mugiwarasekai irohas akitoshi corinn [c_u_r_i] curi
BeatmapID:1245276
BeatmapSetID:568786

[Difficulty]
HPDrainRate:6
CircleSize:4
OverallDifficulty:8.5
ApproachRate:9.3
SliderMultiplier:1.8
SliderTickRate:1

[Events]
//Background and Video events
0,0,"bg2.jpg",0,0
//Break Periods
2,176910,182539
//Storyboard Layer 0 (Background)
//Storyboard Layer 1 (Fail)
//Storyboard Layer 2 (Pass)
//Storyboard Layer 3 (Foreground)
//Storyboard Sound Samples

[TimingPoints]
540,319.148936170213,4,2,5,65,1,0
2933,-100,4,2,5,70,0,0
11869,-90.9090909090909,4,2,5,75,0,0
12109,-100,4,2,5,5,0,0
12188,-83.3333333333333,4,2,5,80,0,0
12428,-100,4,2,5,5,0,0
12508,-125,4,2,5,70,0,0
12986,-125,4,2,1,40,0,0
13305,-111.111111111111,4,2,5,60,0,0
21444,-111.111111111111,4,2,1,70,0,0
21922,-111.111111111111,4,2,5,60,0,0
22082,-111.111111111111,4,2,5,70,0,0
23518,-111.111111111111,4,2,5,60,0,0
32454,-111.111111111111,4,2,5,65,0,0
33093,-111.111111111111,4,2,5,70,0,0
33731,-100,4,2,5,70,0,0
38199,-90.9090909090909,4,2,5,70,0,0
38438,-83.3333333333333,4,2,5,75,0,0
38678,-76.9230769230769,4,2,5,80,0,0
38837,-100,4,2,5,70,0,0
42667,-90.9090909090909,4,2,5,75,0,0
43305,-83.3333333333333,4,2,5,80,0,0
43545,-76.9230769230769,4,2,5,80,0,0
43784,-71.4285714285714,4,2,5,80,0,0
43944,-166.666666666667,4,2,1,50,0,0
45220,-142.857142857143,4,2,1,55,0,0
50965,-111.111111111111,4,2,5,60,0,0
51125,-111.111111111111,4,2,5,60,0,0
51603,-111.111111111111,4,2,5,65,0,0
54157,-125,4,2,5,55,0,0
59103,-111.111111111111,4,2,5,60,0,0
60300,-111.111111111111,4,2,5,5,0,0
60380,-100,4,2,5,70,0,0
61657,-90.909090909091,4,2,5,75,0,0
62454,-90.909090909091,4,2,5,80,0,0
62933,-166.666666666667,4,2,1,50,0,0
62973,-166.666666666667,4,2,1,5,0,0
63731,-200,4,2,1,60,0,0
64130,-200,4,2,5,5,0,0
64210,-90.9090909090909,4,2,5,75,0,1
73784,-166.666666666667,4,2,5,50,0,0
73824,-166.666666666667,4,2,5,5,0,0
74263,-166.666666666667,4,2,1,60,0,0
74422,-90.9090909090909,4,2,5,75,0,1
84954,-90.9090909090909,4,2,5,85,0,1
85912,-166.666666666667,4,2,5,65,0,0
87109,-166.666666666667,4,2,5,5,0,0
87188,-166.666666666667,4,2,5,65,0,0
88385,-166.666666666667,4,2,5,5,0,0
88465,-166.666666666667,4,2,5,55,0,0
89662,-166.666666666667,4,2,5,5,0,0
89742,-125,4,2,5,65,0,0
90540,-125,4,2,5,75,0,0
91018,-100,4,2,5,70,0,0
98678,-100,4,2,5,70,0,0
99954,-90.9090909090909,4,2,5,75,0,0
101391,-125,4,2,1,60,0,0
103305,-83.3333333333333,4,2,5,65,0,0
103385,-83.3333333333333,4,2,5,5,0,0
103465,-166.666666666667,4,2,5,65,0,0
103944,-111.111111111111,4,2,5,60,0,0
110167,-142.857142857143,4,2,1,50,0,0
111603,-111.111111111111,4,2,5,60,0,0
111843,-111.111111111111,4,2,5,5,0,0
111922,-111.111111111111,4,2,5,65,0,0
112162,-111.111111111111,4,2,5,5,0,0
112242,-83.3333333333333,4,2,5,80,0,0
112561,-111.111111111111,4,2,5,60,0,0
120540,-111.111111111111,4,2,5,65,0,0
121178,-111.111111111111,4,2,5,75,0,0
121816,-100,4,2,5,70,0,0
126284,-90.9090909090909,4,2,5,70,0,0
126444,-100,4,2,5,5,0,0
126524,-83.3333333333333,4,2,5,75,0,0
126683,-100,4,2,5,5,0,0
126763,-76.9230769230769,4,2,5,80,0,0
126843,-100,4,2,5,5,0,0
126922,-100,4,2,5,60,0,0
128199,-100,4,2,5,65,0,0
129476,-100,4,2,5,70,0,0
130752,-90.9090909090909,4,2,5,70,0,0
131391,-83.3333333333333,4,2,5,70,0,0
131630,-76.9230769230769,4,2,5,70,0,0
131869,-71.4285714285714,4,2,5,70,0,0
132029,-142.857142857143,4,2,1,50,0,0
137135,-200,4,2,1,50,0,0
138412,-142.857142857143,4,2,1,60,0,0
139688,-111.111111111111,4,2,5,65,0,0
142242,-125,4,2,5,55,0,0
147188,-111.111111111111,4,2,5,60,0,0
148385,-111.111111111111,4,2,5,5,0,0
148465,-100,4,2,5,70,0,0
149742,-90.9090909090909,4,2,5,75,0,0
150540,-90.9090909090909,4,2,5,80,0,0
150859,-90.9090909090909,4,2,5,85,0,0
151816,-200,4,2,1,50,0,0
152295,-90.9090909090909,4,2,5,75,0,1
161869,-166.666666666667,4,2,5,50,0,0
162268,-166.666666666667,4,2,5,5,0,0
162348,-166.666666666667,4,2,1,60,0,0
162508,-90.9090909090909,4,2,5,75,0,1
173040,-90.9090909090909,4,2,5,85,0,1
173997,-111.111111111111,4,2,5,60,0,0
183093,-100,4,2,5,60,0,0
183332,-100,4,2,5,5,0,0
183412,-100,4,2,5,60,0,0
183731,-100,4,2,5,70,0,0
184050,-100,4,2,5,80,0,0
184130,-100,4,2,5,5,0,0
184210,-100,4,2,5,65,0,0
191869,-100,4,2,5,60,0,0
193146,-100,4,2,5,65,0,0
194422,-100,4,2,5,70,0,0
195699,-100,4,2,5,75,0,0
197135,-100,4,2,5,80,0,0
197454,-100,4,2,5,60,0,0
197614,-100,4,2,5,80,0,0
197933,-100,4,2,5,60,0,0
198093,-100,4,2,5,80,0,0
198412,-100,4,2,5,60,0,0
198571,-100,4,2,5,80,0,0
199290,-100,4,2,5,5,0,0
199369,-133.333333333333,4,2,5,60,0,0
199609,-133.333333333333,4,2,5,5,0,0
199688,-95.2380952380951,4,2,5,70,0,0
200008,-95.2380952380951,4,2,5,75,0,0
200327,-95.2380952380951,4,2,5,85,0,0
200965,-95.2380952380951,4,2,1,70,0,0
202242,-166.666666666667,4,2,1,45,0,0
209263,-125,4,2,1,60,0,0
209742,-166.666666666667,4,2,1,45,0,0
210859,-166.666666666667,4,2,1,60,0,0
211178,-125,4,2,1,75,0,0
211258,-125,4,2,1,60,0,0
211497,-166.666666666667,4,2,1,45,0,0
212454,-166.666666666667,4,2,5,75,0,0
212933,-166.666666666667,4,2,1,45,0,0
213412,-166.666666666667,4,2,5,75,0,0
213731,-166.666666666667,4,2,1,60,0,0
214050,-166.666666666667,4,2,1,45,0,0
215008,-166.666666666667,4,2,5,75,0,0
215486,-125,4,2,1,60,0,0
215965,-125,4,2,5,75,0,0
216284,-125,4,2,1,60,0,0
216603,-166.666666666667,4,2,1,45,0,0
217561,-142.857142857143,4,2,1,55,0,0
220114,-200,4,2,1,50,0,0
220513,-200,4,2,1,5,0,0
220593,-200,4,2,1,60,0,0
220752,-133.333333333333,4,2,1,65,0,0
221151,-133.333333333333,4,2,1,5,0,0
221231,-133.333333333333,4,2,1,75,0,0
221391,-133.333333333333,4,2,1,85,0,0
222029,-200,4,2,1,50,0,0
222508,-200,4,2,5,70,0,0
224422,-125,4,2,5,80,0,0
224462,-125,4,2,5,5,0,0
224742,-125,4,2,5,80,0,0
224782,-125,4,2,5,5,0,0
225061,-90.9090909090909,4,2,5,75,0,1
232082,-166.666666666667,4,2,5,50,0,0
232481,-90.9090909090909,4,2,5,5,0,0
232561,-90.9090909090909,4,2,1,60,0,0
232720,-90.9090909090909,4,2,5,75,0,1
243252,-90.9090909090909,4,2,5,85,0,1
244130,-90.9090909090909,4,2,5,75,0,0
244210,-90.9090909090909,4,2,5,80,0,1
249555,-90.9090909090909,4,2,5,5,0,1
249635,-90.9090909090909,4,2,5,80,0,1
253784,-166.666666666667,4,2,5,50,0,0
254183,-166.666666666667,4,2,5,5,0,0
254263,-166.666666666667,4,2,1,50,0,0
254422,-117.647058823529,4,2,5,65,0,0
254901,-90.9090909090909,4,2,5,80,0,1
264954,-90.9090909090909,4,2,5,85,0,1
265912,-100,4,2,5,70,0,0
268385,-100,4,2,5,5,0,0
268465,-100,4,2,5,70,0,0
271018,-100,4,3,5,60,0,0
272454,-100,4,3,5,65,0,0
273571,-100,4,3,5,70,0,0
274369,-100,4,3,5,75,0,0
274848,-90.9090909090909,4,2,5,70,0,0
275087,-100,4,2,5,5,0,0
275167,-83.3333333333333,4,2,5,75,0,0
275407,-100,4,2,5,5,0,0
275486,-76.9230769230769,4,2,5,80,0,0
275726,-100,4,2,5,5,0,0
275805,-71.4285714285714,4,2,5,85,0,0
276045,-100,4,2,5,5,0,0
276125,-100,4,2,5,75,0,0
276364,-100,4,2,5,5,0,0
276444,-100,4,2,5,70,0,0
276922,-100,4,2,5,85,0,0
277720,-100,4,2,5,60,0,0

[Colours]
Combo1 : 223,83,164
Combo2 : 12,165,248
Combo3 : 21,210,182
Combo4 : 167,92,228

[HitObjects]
367,96,540,5,2,0:0:0:0:
272,64,699,1,2,0:0:0:0:
460,127,859,1,12,0:0:0:0:
324,225,1018,5,2,0:0:0:0:
356,130,1178,1,2,0:0:0:0:
293,318,1337,1,12,0:0:0:0:
232,196,1497,5,2,0:0:0:0:
420,259,1657,1,2,0:0:0:0:
204,336,1816,6,0,P|247:326|296:317,1,90,8|0,3:0|0:0,0:0:0:0:
508,277,2135,2,0,P|463:268|419:258,1,90,8|2,3:0|0:0,0:0:0:0:
227,214,2454,5,8,0:0:0:0:
508,277,2614,1,8,0:0:0:0:
112,192,2933,6,0,P|205:178|290:166,1,180,4|2,0:0|0:3,0:0:0:0:
144,320,3412,2,0,L|48:304,1,90,8|0,0:0|0:0,0:0:0:0:
192,96,3731,1,2,0:0:0:0:
280,300,3891,1,0,0:0:0:0:
112,192,4050,1,8,0:0:0:0:
287,142,4210,1,0,0:0:0:0:
368,320,4369,6,0,P|311:308|273:299,1,90,2|2,0:0|0:3,0:0:0:0:
158,214,4688,1,8,0:0:0:0:
372,158,4848,2,0,P|338:263|371:323,1,180,2|0,0:0|0:0,0:0:0:0:
446,241,5327,1,8,0:0:0:0:
195,301,5486,6,0,B|296:272|279:352|378:315,1,180,4|2,0:0|0:0,0:0:0:0:
128,240,5965,2,0,L|105:333,1,90,8|0,0:0|0:0,0:0:0:0:
329,245,6284,2,0,L|306:146,1,90,2|0,0:0|0:0,0:0:0:0:
208,223,6603,5,8,0:0:0:0:
368,96,6763,2,0,P|378:52|388:8,1,90,2|2,0:3|0:0,0:0:0:0:
329,245,7081,5,2,0:3:0:0:
240,48,7242,1,8,0:0:0:0:
72,112,7401,2,0,P|46:220|75:279,1,180,2|0,0:1|0:0,0:0:0:0:
192,208,7880,1,8,0:0:0:0:
0,340,8040,6,0,B|71:308|71:308|170:340,1,180,4|2,0:0|0:3,0:0:0:0:
368,272,8518,1,8,0:0:0:0:
176,208,8678,1,0,0:0:0:0:
288,384,8837,1,2,0:0:0:0:
298,161,8997,1,0,0:0:0:0:
168,339,9157,1,8,0:0:0:0:
368,272,9316,1,0,0:0:0:0:
156,120,9476,6,0,P|166:167|178:218,1,90,2|2,0:0|0:3,0:0:0:0:
272,64,9795,1,8,0:0:0:0:
451,182,9954,2,0,P|346:221|280:196,1,180,2|0,0:1|0:0,0:0:0:0:
156,120,10433,1,8,0:0:0:0:
0,216,10593,6,0,B|62:209|62:209|113:238|113:238|183:231,1,180,4|2,0:0|0:3,0:0:0:0:
316,115,11071,2,0,P|299:157|283:206,1,90,8|0,0:0|0:0,0:0:0:0:
304,352,11391,1,2,0:0:0:0:
170,227,11550,1,0,0:0:0:0:
386,178,11710,1,8,0:0:0:0:
224,304,11869,6,0,B|317:323|317:323|361:292,1,148.50000453186,6|0,0:0|0:0,0:0:0:0:
454,239,12188,6,0,P|362:265|313:226,1,161.999995056153,6|0,0:0|0:0,0:0:0:0:
290,115,12508,6,2,B|254:169|314:229|314:229|386:178,1,216,6|2,0:0|0:0,0:1:0:0:
290,115,13305,6,0,P|189:133|143:102,1,161.999995056153,4|2,0:0|0:0,0:0:0:0:
16,176,13784,1,0,0:0:0:0:
112,256,13944,2,0,P|157:248|199:240,1,80.9999975280763,2|0,0:0|0:0,0:0:0:0:
37,337,14263,1,2,0:0:0:0:
37,337,14422,6,0,L|206:358,1,161.999995056153
333,263,14901,2,0,P|332:222|304:172,1,80.9999975280763,2|0,0:0|0:0,0:0:0:0:
225,248,15220,1,2,0:0:0:0:
312,360,15380,1,0,0:0:0:0:
312,360,15540,2,0,P|349:343|399:342,1,80.9999975280763,2|0,0:0|0:0,0:0:0:0:
458,206,15859,6,0,P|392:228|308:174,1,161.999995056153,2|2,0:0|0:0,0:0:0:0:
240,92,16337,1,0,0:0:0:0:
325,26,16497,2,0,P|369:35|435:48,1,80.9999975280763,2|0,0:0|0:0,0:0:0:0:
240,92,16816,1,2,0:0:0:0:
128,32,16976,6,0,P|86:128|106:190,1,161.999995056153
239,319,17454,2,0,P|201:295|159:271,1,80.9999975280763,2|0,0:0|0:0,0:0:0:0:
0,368,17774,2,0,P|35:347|69:325,1,80.9999975280763,2|0,0:0|0:0,0:0:0:0:
170,277,18093,1,2,0:0:0:0:
9,220,18252,1,2,0:0:0:0:
118,192,18412,6,0,L|286:151,1,161.999995056153,2|2,0:0|0:0,0:0:0:0:
384,98,18891,1,0,0:0:0:0:
303,34,19050,2,0,P|255:22|220:18,1,80.9999975280763,2|0,0:0|0:0,0:0:0:0:
416,96,19369,1,2,0:0:0:0:
275,153,19529,6,0,P|246:257|267:310,1,161.999995056153
448,256,20008,2,0,L|352:240,1,80.9999975280763,2|0,0:0|0:0,0:0:0:0:
183,319,20327,1,2,0:0:0:0:
183,319,20486,2,0,L|262:304,1,80.9999975280763,0|2,0:0|0:0,0:0:0:0:
499,356,20805,6,0,B|384:336|384:336|343:371,1,161.999995056153,2|0,0:0|0:0,0:0:0:0:
272,224,21284,1,2,0:0:0:0:
183,318,21444,1,2,0:0:0:0:
150,334,21524,1,2,0:0:0:0:
114,330,21603,1,2,0:0:0:0:
84,308,21683,1,2,0:0:0:0:
81,271,21763,1,2,0:0:0:0:
105,243,21843,1,2,0:0:0:0:
139,234,21922,2,0,P|156:236|183:245,1,40.4999987640381,2|0,0:0|0:0,0:0:0:0:
272,304,22082,5,12,0:0:0:0:
0,240,22401,1,8,0:0:0:0:
373,159,22720,5,8,0:0:0:0:
105,243,23040,1,8,0:0:0:0:
343,282,23359,5,8,0:0:0:0:
343,282,23438,1,8,0:0:0:0:
343,282,23518,2,0,P|385:275|429:268,1,80.9999975280763,4|0,0:0|0:0,0:0:0:0:
278,150,23837,2,0,P|238:144|198:137,1,80.9999975280763,8|0,0:0|0:0,0:0:0:0:
106,329,24157,2,0,P|175:367|251:346,1,161.999995056153,2|8,0:0|0:0,0:0:0:0:
343,282,24635,1,0,0:0:0:0:
176,224,24795,6,0,L|80:240,1,80.9999975280763,2|2,0:0|0:3,0:0:0:0:
73,247,25034,1,2,0:3:0:0:
73,247,25114,1,8,0:0:0:0:
160,131,25274,2,0,L|327:161,1,161.999995056153,2|2,0:0|0:0,0:0:0:0:
443,248,25752,1,8,0:0:0:0:
317,350,25912,1,0,0:0:0:0:
456,151,26071,6,0,P|470:203|475:233,1,80.9999975280763,2|0,0:0|0:0,0:0:0:0:
317,350,26391,2,0,P|324:310|335:271,1,80.9999975280763,8|0,0:0|0:0,0:0:0:0:
464,334,26710,2,0,P|393:370|309:343,1,161.999995056153,0|8,0:0|0:0,0:0:0:0:
208,249,27188,1,0,0:0:0:0:
64,352,27348,6,0,P|115:343|163:337,1,80.9999975280763,2|2,0:0|0:3,0:0:0:0:
185,336,27587,1,2,0:3:0:0:
185,336,27667,1,8,0:0:0:0:
126,161,27827,1,2,0:0:0:0:
5,237,27986,2,0,P|51:247|117:263,1,80.9999975280763,0|2,0:0|0:0,0:0:0:0:
302,199,28305,2,0,P|251:206|197:218,1,80.9999975280763,8|0,0:0|0:0,0:0:0:0:
12,80,28625,6,0,P|92:119|163:92,1,161.999995056153,4|8,0:0|0:0,0:0:0:0:
93,20,29103,1,0,0:0:0:0:
207,175,29263,2,0,P|258:162|295:156,1,80.9999975280763,2|2,0:0|0:3,0:0:0:0:
320,157,29502,1,2,0:3:0:0:
320,157,29582,1,8,0:0:0:0:
298,312,29742,6,0,P|205:334|143:298,1,161.999995056153
46,139,30220,2,0,B|84:237|84:237|54:289,1,161.999995056153,8|2,0:0|0:0,0:0:0:0:
207,175,30699,1,2,0:0:0:0:
240,368,30859,1,8,0:0:0:0:
441,299,31018,6,0,P|346:255|277:267,1,161.999995056153,4|2,0:0|0:0,0:0:0:0:
160,352,31497,2,0,P|201:360|250:370,1,80.9999975280763,8|2,0:0|0:3,0:0:0:0:
286,159,31816,2,0,P|246:166|206:174,1,80.9999975280763,0|2,0:0|0:0,0:0:0:0:
96,256,32135,1,8,0:0:0:0:
304,304,32295,1,0,0:0:0:0:
176,160,32454,5,4,0:0:0:0:
239,367,32614,1,0,0:0:0:0:
352,224,32774,1,8,0:0:0:0:
128,272,32933,1,2,0:0:0:0:
352,384,33093,1,2,0:3:0:0:
250,254,33252,1,8,0:0:0:0:
250,254,33332,1,8,0:0:0:0:
250,254,33412,1,8,0:0:0:0:
67,368,33571,2,8,L|79:308,1,40.4999987640381
88,226,33731,6,0,P|190:273|264:242,1,180,4|8,0:0|0:0,0:0:0:0:
370,167,34210,1,2,0:3:0:0:
256,352,34369,5,2,0:0:0:0:
256,352,34449,2,0,P|305:358|381:381,1,90,2|2,0:0|0:0,0:0:0:0:
496,304,34688,2,0,L|416:320,1,45,8|0,0:0|0:0,0:0:0:0:
360,258,34848,2,0,P|316:249|272:240,1,90,2|2,0:0|0:0,0:0:0:0:
512,160,35167,5,2,0:0:0:0:
352,80,35327,1,8,0:0:0:0:
272,240,35486,1,2,0:3:0:0:
166,56,35646,5,2,0:0:0:0:
166,56,35726,2,0,P|172:100|182:152,1,90,2|2,0:0|0:0,0:0:0:0:
51,218,35965,2,0,P|73:214|95:208,1,45,8|0,0:0|0:0,0:0:0:0:
185,267,36125,2,0,P|235:275|294:288,1,90,2|2,0:0|0:0,0:0:0:0:
16,352,36444,5,2,0:0:0:0:
185,267,36603,1,8,0:0:0:0:
16,208,36763,1,2,0:3:0:0:
135,371,36922,5,2,0:0:0:0:
135,371,37002,2,0,B|181:375|181:375|224:357,1,90,2|2,0:0|0:0,0:0:0:0:
317,291,37242,2,0,L|259:280,1,45,8|0,0:0|0:0,0:0:0:0:
183,224,37401,1,2,0:0:0:0:
392,140,37561,5,2,0:0:0:0:
383,149,37641,2,0,P|338:149|300:126,1,90,2|2,0:0|0:0,0:0:0:0:
208,64,37880,2,0,L|163:69,1,45,8|0,0:0|0:0,0:0:0:0:
64,112,38040,1,2,0:0:0:0:
291,32,38199,6,0,P|339:42|387:52,1,99.0000030212403,12|0,0:0|0:0,0:0:0:0:
490,135,38438,6,0,P|423:142|379:149,1,107.999996704102,12|0,0:0|0:0,0:0:0:0:
250,225,38678,6,0,P|285:231|315:238,1,58.4999973220826,12|0,0:0|0:0,0:0:0:0:
455,307,38837,5,4,0:0:0:0:
350,169,38997,1,0,0:0:0:0:
225,314,39157,2,0,P|164:323|124:333,1,90,8|0,0:0|0:0,0:0:0:0:
0,208,39476,2,0,P|80:235|135:211,1,135,2|0,0:0|0:0,0:0:0:0:
158,201,39795,1,2,0:0:0:0:
0,128,39954,1,2,0:3:0:0:
128,16,40114,6,0,P|114:87|109:113,1,90,4|0,0:0|0:0,0:0:0:0:
272,240,40433,2,0,P|263:195|254:151,1,90,2|0,0:0|0:0,0:0:0:0:
46,313,40752,2,0,P|121:345|181:328,1,135,2|0,0:0|0:0,0:0:0:0:
201,315,41071,1,2,0:0:0:0:
254,151,41231,1,2,0:3:0:0:
432,288,41391,6,0,P|381:278|337:269,1,90,4|0,0:0|0:0,0:0:0:0:
162,219,41710,1,2,0:0:0:0:
287,138,41869,1,0,0:0:0:0:
303,360,42029,2,0,P|220:343|167:333,1,135,6|0,0:0|0:0,0:0:0:0:
128,322,42348,1,2,0:0:0:0:
343,270,42508,1,0,0:0:0:0:
89,192,42667,6,0,P|140:200|189:175,1,99.0000030212403,6|2,0:0|0:0,0:0:0:0:
351,135,42907,2,0,P|306:115|257:124,1,99.0000030212403
162,40,43146,2,0,L|173:88,1,49.5000015106202,2|0,0:0|0:0,0:0:0:0:
198,257,43305,6,0,B|264:270|264:270|312:246,1,107.999996704102,12|0,0:0|0:0,0:0:0:0:
483,199,43545,6,0,B|414:213|414:213|367:188,1,116.999994644165,12|0,0:0|0:0,0:0:0:0:
273,89,43784,6,0,L|285:156,1,62.9999980773926,12|0,0:0|0:0,0:0:0:0:
238,351,43944,6,0,P|312:279|194:266,1,269.999991760254,4|2,0:2|0:0,0:0:0:0:
198,257,44901,1,0,0:0:0:0:
88,303,45220,6,0,P|72:219|97:175,1,125.999996154785
290,113,45859,2,0,P|231:132|172:113,1,125.999996154785,2|0,0:0|0:0,0:0:0:0:
84,52,46337,1,0,0:0:0:0:
0,164,46497,6,0,P|74:171|126:190,1,125.999996154785,2|0,0:0|0:0,0:0:0:0:
88,303,46976,2,0,P|162:296|214:277,1,125.999996154785,2|2,0:0|0:0,0:0:0:0:
300,222,47454,1,0,0:0:0:0:
398,265,47614,1,0,0:0:0:0:
355,363,47774,6,0,B|292:354|292:354|241:380|241:380|173:371,1,188.999994232178,2|0,0:0|0:0,0:0:0:0:
88,303,48412,1,2,0:0:0:0:
210,278,48571,1,0,0:0:0:0:
122,188,48731,1,2,0:0:0:0:
122,188,48891,1,2,0:0:0:0:
324,256,49050,6,0,P|250:288|207:276,1,125.999996154785,2|0,0:0|0:0,0:0:0:0:
7,166,49529,2,0,P|81:198|124:186,1,125.999996154785,2|0,0:0|0:0,0:0:0:0:
318,141,50008,6,0,P|221:110|257:206,1,251.999992309571,2|0,0:0|0:0,0:0:0:0:
255,205,50965,5,10,0:3:0:0:
238,330,51125,2,0,L|234:363,3,26.9999991760254,4|0|0|0,3:0|3:0|3:0|3:0,0:0:0:0:
255,205,51444,1,2,0:0:0:0:
393,337,51603,6,0,B|293:311|293:311|231:331,1,161.999995056153,4|8,0:0|0:0,0:0:0:0:
16,256,52082,2,0,P|114:281|166:246,1,161.999995056153,4|8,0:0|0:0,0:0:0:0:
410,201,52561,2,0,B|351:191|351:191|309:210|309:210|253:203,1,161.999995056153,4|6,0:0|0:0,0:0:0:0:
167,154,53040,5,0,0:0:0:0:
254,204,53199,1,2,0:0:0:0:
161,251,53359,1,2,0:0:0:0:
202,69,53518,1,2,0:0:0:0:
304,304,53678,5,8,0:0:0:0:
352,80,53837,1,8,0:0:0:0:
304,304,53997,1,8,0:0:0:0:
512,240,54157,6,0,P|404:217|352:208,1,144,4|2,0:0|0:3,0:0:0:0:
240,256,54635,1,2,0:0:0:0:
368,352,54795,2,0,P|418:344|467:337,1,72,8|0,0:0|0:3,0:0:0:0:
311,266,55114,2,0,P|275:261|239:255,1,72
32,288,55433,5,2,0:0:0:0:
32,288,55593,1,2,0:0:0:0:
128,176,55752,2,0,P|76:170|46:155,1,72,2|2,0:3|0:0,0:0:0:0:
178,306,56071,2,0,P|253:266|318:267,1,144,8|2,0:0|0:3,0:0:0:0:
427,312,56550,1,0,0:0:0:0:
289,359,56710,5,2,0:0:0:0:
289,359,56869,1,2,0:0:0:0:
380,248,57029,2,0,P|345:256|310:265,1,72,2|0,0:3|0:0,0:0:0:0:
128,176,57348,2,0,P|205:197|261:173,1,144,8|2,0:0|0:3,0:0:0:0:
336,96,57827,1,0,0:0:0:0:
144,32,57986,6,0,L|160:112,1,72,2|0,0:0|0:0,0:0:0:0:
350,25,58305,2,0,L|334:105,1,72,2|2,0:3|0:0,0:0:0:0:
240,48,58625,5,8,0:0:0:0:
464,96,58784,1,8,0:0:0:0:
464,96,58944,1,8,0:0:0:0:
240,48,59103,6,0,B|208:125|273:135|233:209,1,161.999995056153,4|2,0:0|0:3,0:0:0:0:
235,204,59502,1,2,0:3:0:0:
235,204,59582,1,8,0:0:0:0:
48,288,59742,6,0,P|149:277|196:322,1,161.999995056153,2|2,0:3|0:3,0:0:0:0:
201,342,60141,1,2,0:3:0:0:
201,342,60220,2,0,L|251:332,1,40.4999987640381,8|0,0:0|0:0,0:0:0:0:
456,298,60380,6,0,P|351:317|299:266,1,180,4|2,0:0|0:3,0:0:0:0:
288,245,60779,1,2,0:3:0:0:
288,245,60859,1,8,0:0:0:0:
496,160,61018,6,0,B|429:150|429:150|384:175|384:175|321:165,1,180,2|2,0:3|0:3,0:0:0:0:
298,163,61417,1,2,0:3:0:0:
298,163,61497,2,0,L|287:106,1,45,8|2,0:0|0:3,0:0:0:0:
128,89,61657,6,0,B|72:175|160:195|107:286,1,198.000006042481,4|8,0:0|0:0,0:0:0:0:
204,145,62135,5,12,0:0:0:0:
32,66,62295,1,8,0:0:0:0:
298,163,62454,5,12,0:0:0:0:
41,232,62614,1,10,0:0:0:0:
316,380,62774,6,0,P|282:375|256:366,1,49.5000015106202,12|0,0:0|0:0,0:0:0:0:
195,267,62933,6,0,B|322:224|287:330|432:273,1,242.999992584229,2|0,0:0|0:0,0:0:0:0:
456,258,63731,1,2,0:0:0:0:
181,341,63891,6,0,B|172:308|172:308|180:275,1,67.5
195,267,64210,6,0,B|68:242|68:242|30:259|48:304,1,198.000006042481,12|2,0:0|0:0,0:0:0:0:
160,371,64688,2,0,B|261:335|246:415|354:367,1,198.000006042481,8|2,0:0|0:0,0:0:0:0:
512,298,65167,2,0,P|455:303|413:277,1,99.0000030212403,2|8,0:3|0:0,0:0:0:0:
208,192,65486,6,0,P|257:200|306:171,1,99.0000030212403,2|2,0:3|0:0,0:0:0:0:
239,102,65805,1,2,0:3:0:0:
293,300,65965,1,8,0:0:0:0:
476,216,66125,2,0,P|413:198|374:187,1,99.0000030212403,2|2,0:3|0:0,0:0:0:0:
179,275,66444,1,2,0:3:0:0:
351,368,66603,1,8,0:0:0:0:
97,327,66763,6,0,P|209:311|337:295,1,198.000006042481,4|2,0:0|0:0,0:0:0:0:
102,238,67242,2,0,P|45:244|-6:250,1,99.0000030212403,8|0,0:0|0:0,0:0:0:0:
207,123,67561,2,0,P|264:129|315:135,1,99.0000030212403,2|0,0:0|0:0,0:0:0:0:
74,208,67880,1,8,0:0:0:0:
198,271,68040,6,0,P|258:290|311:305,1,99.0000030212403,2|2,0:3|0:0,0:0:0:0:
496,256,68359,1,0,0:0:0:0:
304,176,68518,1,8,0:0:0:0:
448,48,68678,6,0,L|426:153,1,99.0000030212403,2|2,0:3|0:0,0:0:0:0:
392,320,68997,1,2,0:3:0:0:
292,115,69157,2,0,L|273:182,1,49.5000015106202,8|0,0:0|0:0,0:0:0:0:
240,272,69316,6,0,B|160:252|160:252|107:274|107:274|26:255,1,198.000006042481,4|2,0:0|0:0,0:0:0:0:
208,368,69795,2,0,L|314:357,1,99.0000030212403,2|2,0:0|0:3,0:0:0:0:
272,192,70114,1,2,0:0:0:0:
176,345,70274,1,2,0:3:0:0:
80,144,70433,1,8,0:0:0:0:
8,275,70593,6,0,P|159:238|222:223,1,198.000006042481
383,287,71071,1,8,0:0:0:0:
293,346,71231,2,0,P|273:290|280:252,1,99.0000030212403,2|2,0:3|0:0,0:0:0:0:
477,301,71550,2,0,P|428:306|383:287,1,99.0000030212403,2|8,0:3|0:0,0:0:0:0:
160,192,71869,6,0,B|262:153|242:244|358:191,1,198.000006042481,4|0,0:0|0:0,0:0:0:0:
160,64,72348,1,2,0:0:0:0:
295,130,72508,1,2,0:3:0:0:
79,223,72667,1,2,0:0:0:0:
194,368,72827,5,2,0:0:0:0:
199,333,72907,1,2,0:0:0:0:
205,299,72986,1,8,0:0:0:0:
210,264,73066,1,2,0:0:0:0:
214,229,73146,6,0,P|125:201|75:228,1,148.50000453186,4|0,0:0|0:0,0:0:0:0:
57,247,73465,1,8,0:0:0:0:
320,208,73625,2,0,L|400:192,1,49.5000015106202,8|0,0:0|0:0,0:0:0:0:
480,320,73784,6,0,P|393:328|351:288,1,134.999995880127,4|0,0:0|0:0,0:0:0:0:
345,279,74263,1,2,0:0:0:0:
93,352,74422,6,0,B|197:315|180:399|289:351,1,198.000006042481,4|0,0:0|0:0,0:0:0:0:
416,224,74901,1,8,0:0:0:0:
233,289,75061,1,0,0:0:0:0:
480,368,75220,1,2,0:0:0:0:
345,279,75380,1,2,0:0:0:0:
512,192,75540,1,8,0:0:0:0:
288,112,75699,6,0,P|416:150|476:115,1,198.000006042481,2|0,0:3|0:0,0:0:0:0:
352,32,76178,1,8,0:0:0:0:
208,224,76337,1,2,0:3:0:0:
112,64,76497,1,2,0:0:0:0:
288,112,76657,1,2,0:0:0:0:
48,192,76816,1,8,0:0:0:0:
261,345,76976,6,0,P|129:292|65:311,1,198.000006042481,4|2,0:0|0:0,0:0:0:0:
208,224,77454,1,8,0:0:0:0:
352,304,77614,2,0,P|405:313|453:321,1,99.0000030212403,0|2,0:0|0:0,0:0:0:0:
240,208,77933,2,0,P|191:199|142:190,1,99.0000030212403,0|8,0:0|0:0,0:0:0:0:
0,336,78252,6,0,B|54:292|54:292|194:317,1,198.000006042481,0|2,0:0|0:0,0:0:0:0:
350,214,78731,1,8,0:0:0:0:
350,214,78811,1,0,0:0:0:0:
350,214,78891,2,0,L|241:234,1,99.0000030212403,2|2,0:3|0:0,0:0:0:0:
16,192,79210,2,0,L|125:172,1,99.0000030212403,2|8,0:3|0:0,0:0:0:0:
277,54,79529,6,0,P|231:184|263:244,1,198.000006042481,4|2,0:0|0:0,0:0:0:0:
352,128,80008,1,8,0:0:0:0:
128,208,80167,1,2,0:3:0:0:
320,352,80327,1,2,0:0:0:0:
252,231,80486,1,0,0:0:0:0:
96,384,80646,1,8,0:0:0:0:
3,264,80805,6,0,B|101:223|81:316|192:270,1,198.000006042481,4|2,0:0|0:0,0:0:0:0:
432,224,81284,2,0,P|366:209|297:196,1,99.0000030212403,8|2,0:0|0:3,0:0:0:0:
96,128,81603,2,0,P|144:118|192:107,1,99.0000030212403,2|2,0:0|0:3,0:0:0:0:
357,68,81922,1,8,0:0:0:0:
131,0,82082,6,0,L|335:50,1,198.000006042481,4|0,0:0|0:0,0:0:0:0:
496,96,82561,1,8,0:0:0:0:
240,192,82720,1,0,0:0:0:0:
495,276,82880,5,2,0:0:0:0:
460,247,82960,1,2,0:0:0:0:
415,242,83040,1,8,0:0:0:0:
372,253,83119,1,8,0:0:0:0:
331,271,83199,1,2,0:0:0:0:
286,268,83279,1,8,0:0:0:0:
251,239,83359,2,0,P|241:208|240:175,1,49.5000015106202,8|8,0:0|0:0,0:0:0:0:
288,112,83518,1,4,0:0:0:0:
160,288,83678,6,0,P|98:300|32:320,1,99.0000030212403,10|0,0:0|0:0,0:0:0:0:
398,254,83997,6,0,P|460:266|526:286,1,99.0000030212403,10|0,0:0|0:0,0:0:0:0:
144,176,84316,6,0,P|82:164|16:144,1,99.0000030212403,10|0,0:0|0:0,0:0:0:0:
400,144,84635,6,0,P|462:132|528:112,1,99.0000030212403,10|0,0:0|0:0,0:0:0:0:
144,16,84954,5,12,0:0:0:0:
384,64,85114,1,2,0:0:0:0:
176,176,85274,1,2,0:3:0:0:
464,144,85433,5,12,0:0:0:0:
261,222,85593,1,2,0:0:0:0:
272,0,85752,1,2,0:0:0:0:
176,176,85912,6,0,B|183:243|225:267|267:299|366:268|358:172|283:128|200:173|183:243|214:311,1,404.999987640381,4|0,0:0|0:0,0:0:0:0:
271,368,87188,6,0,B|207:318|97:385|97:385|135:315|135:315|67:369|4:321,1,404.999987640381,4|0,0:0|0:0,0:0:0:0:
7,323,88465,6,0,B|36:256|36:256|8:158|8:158|76:191|147:123|99:55|46:50|15:99|47:133,1,404.999987640381,4|0,0:0|0:0,0:0:0:0:
40,124,89742,6,0,P|152:210|284:165,1,288,4|0,0:0|0:0,0:0:0:0:
240,64,90540,5,10,0:0:0:0:
176,336,90699,1,10,0:0:0:0:
176,336,91018,6,0,P|301:350|350:388,1,180,4|0,0:0|0:0,0:0:0:0:
512,288,91497,2,0,P|452:301|413:314,1,90,8|0,0:0|0:0,0:0:0:0:
219,208,91816,2,0,P|279:221|318:234,1,90,2|0,0:0|0:0,0:0:0:0:
464,176,92135,1,8,0:0:0:0:
288,112,92295,1,0,0:0:0:0:
480,32,92454,6,0,L|384:48,1,90,2|0,0:0|0:0,0:0:0:0:
192,128,92774,1,8,0:0:0:0:
342,211,92933,1,0,0:0:0:0:
219,47,93093,1,2,0:0:0:0:
80,160,93252,1,2,0:3:0:0:
80,160,93332,1,2,0:3:0:0:
80,160,93412,1,8,0:0:0:0:
240,272,93571,6,0,P|133:231|73:253,1,180,4|2,0:0|0:0,0:0:0:0:
172,373,94050,2,0,L|284:357,1,90,8|0,0:0|0:0,0:0:0:0:
397,263,94369,2,0,L|485:279,1,90,2|0,0:0|0:0,0:0:0:0:
357,170,94688,1,8,0:0:0:0:
480,64,94848,1,2,0:3:0:0:
240,80,95008,5,2,0:0:0:0:
450,169,95167,1,2,0:0:0:0:
272,240,95327,1,8,0:0:0:0:
380,2,95486,2,0,B|357:65|357:65|377:109|377:109|357:170,1,180,2|0,0:3|0:0,0:0:0:0:
459,56,95965,1,8,0:0:0:0:
278,125,96125,6,0,P|215:147|103:108,1,180,4|2,0:0|0:0,0:0:0:0:
0,232,96603,2,0,P|36:207|82:203,1,90,8|0,0:0|0:0,0:0:0:0:
204,39,96922,1,2,0:0:0:0:
68,117,97082,1,2,0:3:0:0:
247,234,97242,1,8,0:0:0:0:
192,109,97401,1,2,0:3:0:0:
400,192,97561,5,2,0:0:0:0:
288,144,97720,1,2,0:3:0:0:
336,352,97880,1,8,0:0:0:0:
495,299,98040,2,0,L|319:265,1,180,2|0,0:3|0:0,0:0:0:0:
224,384,98518,1,8,0:0:0:0:
32,304,98678,6,0,B|159:276|159:276|198:311,1,180,4|0,0:0|0:0,0:0:0:0:
416,256,99157,2,0,L|320:240,1,90,8|8,0:0|0:0,0:0:0:0:
287,250,99396,5,8,0:0:0:0:
319,225,99476,1,10,0:0:0:0:
330,186,99555,1,0,0:0:0:0:
308,151,99635,1,8,0:0:0:0:
294,112,99715,1,8,0:0:0:0:
292,71,99795,2,0,P|300:54|318:31,1,45,10|10,0:0|0:0,0:0:0:0:
443,168,99954,6,0,P|349:178|303:146,1,148.50000453186,4|0,0:0|0:0,0:0:0:0:
294,112,100274,1,2,0:3:0:0:
480,176,100433,5,8,0:0:0:0:
224,224,100593,1,10,0:0:0:0:
384,96,100752,5,10,0:0:0:0:
128,160,100912,1,12,0:0:0:0:
400,304,101071,5,10,0:0:0:0:
96,256,101231,1,12,0:0:0:0:
346,206,101391,6,0,P|255:220|195:230,1,144,4|0,0:0|0:0,0:0:0:0:
96,256,101869,1,0,0:0:0:0:
173,332,102029,2,0,P|224:345|250:354,1,72,2|0,0:0|0:0,0:0:0:0:
74,246,102348,1,0,0:0:0:0:
132,155,102508,6,0,P|166:144|201:135,1,72,2|0,0:0|0:0,0:0:0:0:
314,78,102827,1,0,0:0:0:0:
482,225,102986,2,0,P|410:211|362:203,1,108,2|0,0:0|0:0,0:0:0:0:
337,198,103305,2,0,L|348:255,1,53.9999983520508,8|0,0:0|0:0,0:0:0:0:
391,85,103465,6,0,P|338:90|313:77,1,80.9999975280763,4|0,0:0|0:0,0:0:0:0:
208,32,103784,2,0,L|234:27,1,26.9999991760254,8|8,0:0|0:0,0:0:0:0:
112,112,103944,6,0,L|32:96,1,80.9999975280763,4|0,0:0|0:0,0:0:0:0:
213,191,104263,2,0,L|301:177,1,80.9999975280763,8|0,0:0|0:0,0:0:0:0:
90,237,104582,2,0,P|54:336|82:395,1,161.999995056153,2|8,0:3|0:0,0:0:0:0:
180,285,105061,1,2,0:3:0:0:
180,285,105220,6,0,P|232:295|270:307,1,80.9999975280763,2|0,0:0|0:0,0:0:0:0:
464,352,105540,2,0,P|411:362|374:374,1,80.9999975280763,8|2,0:0|0:0,0:0:0:0:
258,303,105859,1,0,0:0:0:0:
384,192,106018,2,0,P|375:231|366:276,1,80.9999975280763,2|8,0:3|0:0,0:0:0:0:
464,128,106337,1,0,0:0:0:0:
288,208,106497,6,0,P|186:215|131:178,1,161.999995056153,2|8,0:0|0:0,0:0:0:0:
32,112,106976,1,0,0:0:0:0:
25,300,107135,2,0,L|121:284,1,80.9999975280763,2|2,0:3|0:0,0:0:0:0:
136,284,107375,1,2,0:3:0:0:
136,284,107454,1,8,0:0:0:0:
352,352,107614,6,0,B|241:320|241:320|199:360,1,161.999995056153
207,352,108013,1,2,0:3:0:0:
207,352,108093,1,8,0:0:0:0:
112,256,108252,1,0,0:0:0:0:
272,208,108412,2,0,P|323:220|369:242,1,80.9999975280763,2|2,0:0|0:0,0:0:0:0:
144,160,108731,1,8,0:0:0:0:
256,80,108891,6,0,P|364:63|426:69,1,161.999995056153,4|0,0:0|0:0,0:0:0:0:
341,240,109369,1,8,0:0:0:0:
240,112,109529,1,0,0:0:0:0:
127,325,109688,1,2,0:0:0:0:
16,128,109848,1,2,0:3:0:0:
16,128,109928,1,2,0:3:0:0:
16,128,110008,1,8,0:0:0:0:
48,272,110167,6,0,P|83:261|121:249,1,62.9999980773926,2|0,0:0|0:0,0:0:0:0:
167,171,110486,2,0,P|204:178|233:185,1,62.9999980773926,2|0,0:0|0:0,0:0:0:0:
16,128,110805,2,0,P|45:118|76:109,1,62.9999980773926,2|0,0:0|0:0,0:0:0:0:
108,253,111124,2,0,P|138:260|169:265,1,62.9999980773926,2|0,0:0|0:0,0:0:0:0:
384,192,111444,2,0,L|345:202,1,31.4999990386963,2|2,0:0|0:0,0:0:0:0:
287,252,111603,6,0,P|267:184|296:135,1,121.499996292114,2|0,0:0|0:0,0:0:0:0:
384,192,111922,2,0,P|405:247|382:302,1,121.499996292114,2|0,0:0|0:0,0:0:0:0:
284,352,112242,6,0,B|384:298|384:400|494:342,1,215.999993408203,12|2,0:0|0:0,0:0:0:0:
384,192,112720,1,0,0:0:0:0:
207,238,112880,6,0,P|247:244|287:252,1,80.9999975280763,2|2,0:0|0:3,0:0:0:0:
318,260,113119,1,2,0:3:0:0:
318,260,113199,1,8,0:0:0:0:
436,135,113359,2,0,P|343:165|285:139,1,161.999995056153,2|2,0:0|0:3,0:0:0:0:
264,127,113758,1,2,0:3:0:0:
264,127,113837,1,8,0:0:0:0:
169,216,113997,1,0,0:0:0:0:
34,112,114157,6,0,P|42:157|51:198,1,80.9999975280763,4|0,0:0|0:0,0:0:0:0:
279,48,114476,2,0,P|270:93|262:134,1,80.9999975280763,8|0,0:0|0:0,0:0:0:0:
144,240,114795,1,2,0:3:0:0:
256,160,114954,1,0,0:0:0:0:
256,160,115034,1,2,0:3:0:0:
256,160,115114,1,8,0:0:0:0:
64,304,115274,6,0,P|152:286|240:272,1,161.999995056153
416,336,115752,1,12,0:0:0:0:
293,378,115912,1,2,0:0:0:0:
225,240,116071,2,0,P|263:245|313:256,1,80.9999975280763,0|2,0:0|0:0,0:0:0:0:
338,266,116311,1,2,0:3:0:0:
338,266,116391,1,8,0:0:0:0:
439,177,116550,1,0,0:0:0:0:
252,97,116710,6,0,P|208:199|235:252,1,161.999995056153,2|8,0:0|0:0,0:0:0:0:
368,112,117188,1,0,0:0:0:0:
448,320,117348,1,2,0:3:0:0:
304,208,117508,2,0,L|357:199,1,40.4999987640381,2|2,0:0|0:0,0:0:0:0:
448,176,117667,1,8,0:0:0:0:
336,95,117827,1,0,0:0:0:0:
211,260,117986,6,0,P|163:248|125:239,1,80.9999975280763,2|0,0:0|0:0,0:0:0:0:
327,335,118305,2,0,P|389:327|481:315,1,121.499996292114,8|0,0:0|0:0,0:0:0:0:
482,315,118625,1,2,0:0:0:0:
320,240,118784,1,2,0:0:0:0:
192,368,118944,1,8,0:0:0:0:
48,272,119103,6,0,P|37:166|74:115,1,161.999995056153,4|0,0:0|0:0,0:0:0:0:
299,209,119582,2,0,B|233:183|208:243|139:210,1,161.999995056153,8|2,0:0|0:3,0:0:0:0:
64,123,120061,1,2,0:0:0:0:
208,32,120220,2,0,P|216:72|233:147,1,80.9999975280763,8|0,0:0|0:0,0:0:0:0:
272,320,120540,5,4,0:0:0:0:
336,192,120699,1,0,0:0:0:0:
144,368,120859,1,2,0:0:0:0:
64,160,121018,1,2,0:0:0:0:
0,320,121178,5,2,0:0:0:0:
34,291,121258,1,0,0:0:0:0:
77,285,121337,1,8,0:0:0:0:
121,291,121417,1,8,0:0:0:0:
161,317,121497,5,10,0:0:0:0:
205,337,121577,1,2,0:0:0:0:
253,336,121657,1,8,0:0:0:0:
295,313,121736,1,8,0:0:0:0:
342,302,121816,6,0,P|389:312|458:337,1,90,4|2,0:0|0:0,0:0:0:0:
245,204,122135,2,0,P|198:214|129:239,1,90,2|2,0:0|0:0,0:0:0:0:
368,96,122454,6,0,B|388:140|388:140|371:189,1,90,2|8,0:0|0:0,0:0:0:0:
245,204,122694,2,0,B|231:164|231:164|251:120,1,90,2|0,0:0|0:0,0:0:0:0:
348,257,122933,2,0,L|338:328,1,45,8|0,0:0|0:0,0:0:0:0:
254,366,123093,6,0,P|202:344|166:336,1,90,2|8,0:0|0:0,0:0:0:0:
0,304,123412,1,2,0:0:0:0:
0,304,123492,1,2,0:0:0:0:
0,304,123571,1,8,0:0:0:0:
227,216,123731,6,0,P|167:227|118:239,1,90,2|8,0:0|0:0,0:0:0:0:
0,144,123970,2,0,P|60:155|109:167,1,90,2|0,0:0|0:0,0:0:0:0:
208,112,124210,2,0,L|144:96,1,45,8|0,0:0|0:0,0:0:0:0:
64,48,124369,5,2,0:0:0:0:
138,233,124529,1,8,0:0:0:0:
304,176,124688,2,0,L|347:187,2,45,2|0|8,0:0|0:0|0:0,0:0:0:0:
138,233,125008,6,0,P|124:288|132:319,1,90,2|8,0:0|0:0,0:0:0:0:
223,238,125247,2,0,P|180:223|137:232,1,90,2|0,0:0|0:0,0:0:0:0:
43,251,125486,2,0,P|39:283|40:305,1,45,8|0,0:0|0:0,0:0:0:0:
141,364,125646,6,0,P|194:375|241:385,1,90,2|8,0:0|0:0,0:0:0:0:
400,352,125885,2,0,P|346:340|300:331,1,90,2|0,0:0|0:0,0:0:0:0:
223,238,126125,2,0,P|249:244|284:253,1,45,8|0,0:0|0:0,0:0:0:0:
464,224,126284,6,0,P|401:226|366:201,1,99.0000030212403,12|0,0:0|0:0,0:0:0:0:
208,144,126524,6,0,P|271:146|314:115,1,107.999996704102,12|0,0:0|0:0,0:0:0:0:
448,64,126763,6,0,L|375:48,1,58.4999973220826,12|0,0:0|0:0,0:0:0:0:
272,16,126922,5,4,0:0:0:0:
250,21,127002,1,2,0:0:0:0:
227,25,127082,1,8,0:0:0:0:
205,30,127162,1,2,0:0:0:0:
183,35,127242,1,8,0:0:0:0:
161,40,127321,1,2,0:0:0:0:
139,46,127401,1,8,0:0:0:0:
117,51,127481,1,2,0:0:0:0:
95,58,127561,6,0,B|84:102|84:102|102:158,1,90,2|8,0:0|0:0,0:0:0:0:
227,219,127800,2,0,B|183:208|183:208|127:226,1,90,2|0,0:0|0:0,0:0:0:0:
48,272,128040,2,0,L|-16:257,1,45,8|0,0:0|0:0,0:0:0:0:
112,352,128199,5,4,0:0:0:0:
136,339,128279,1,2,0:0:0:0:
160,327,128359,1,8,0:0:0:0:
186,321,128438,1,2,0:0:0:0:
212,318,128518,1,8,0:0:0:0:
238,323,128598,1,2,0:0:0:0:
264,330,128678,1,8,0:0:0:0:
287,342,128758,1,2,0:0:0:0:
309,357,128837,6,0,P|353:351|398:346,1,90,4|8,0:0|0:0,0:0:0:0:
480,272,129077,2,0,P|435:266|390:259,1,90,2|0,0:0|0:0,0:0:0:0:
256,208,129316,2,0,P|283:203|305:199,1,45,8|0,0:0|0:0,0:0:0:0:
432,144,129476,5,4,0:0:0:0:
402,153,129555,1,2,0:0:0:0:
370,149,129635,1,8,0:0:0:0:
341,135,129715,1,2,0:0:0:0:
316,115,129795,1,8,0:0:0:0:
286,103,129875,1,2,0:0:0:0:
254,100,129954,1,8,0:0:0:0:
223,107,130034,1,2,0:0:0:0:
193,118,130114,6,0,P|113:102|66:93,1,90,4|8,0:0|0:0,0:0:0:0:
0,80,130353,2,0,P|8:124|17:168,1,90,4|2,0:0|0:0,0:0:0:0:
36,276,130593,2,0,L|84:260,1,45,8|0,0:0|0:0,0:0:0:0:
176,192,130752,6,0,B|223:208|223:208|273:194,1,99.0000030212403,4|8,0:0|0:0,0:0:0:0:
385,104,130992,2,0,P|360:157|375:201,1,99.0000030212403,2|0,0:0|0:0,0:0:0:0:
496,288,131231,2,0,P|451:272|408:269,1,49.5000015106202,8|0,0:0|0:0,0:0:0:0:
260,346,131391,6,0,P|317:359|369:331,1,107.999996704102,12|0,0:0|0:0,0:0:0:0:
475,183,131630,6,0,P|411:169|364:200,1,116.999994644165,12|0,0:0|0:0,0:0:0:0:
243,263,131869,6,0,L|304:278,1,62.9999980773926,8|0,0:0|0:0,0:0:0:0:
448,368,132029,5,6,0:0:0:0:
8,223,132667,6,0,P|83:232|131:204,1,125.999996154785,2|0,0:0|0:0,0:0:0:0:
264,29,133305,2,0,P|204:75|190:129,1,125.999996154785,2|0,0:0|0:0,0:0:0:0:
293,324,133944,2,0,P|275:250|233:214,1,125.999996154785,2|0,0:0|0:0,0:0:0:0:
50,310,134582,6,0,B|199:268|141:376|306:319,1,251.999992309571,2|2,0:0|0:0,0:0:0:0:
450,280,135540,1,0,0:0:0:0:
449,286,135699,1,0,0:0:0:0:
449,292,135859,6,0,P|341:320|327:204,1,251.999992309571,2|2,0:0|0:0,0:0:0:0:
344,196,137135,6,0,L|243:181,1,90,2|0,0:0|0:0,0:0:0:0:
192,128,137614,2,0,L|103:142,1,90,2|0,0:0|0:0,0:0:0:0:
32,192,138093,1,2,0:0:0:0:
32,192,138412,6,0,P|9:272|39:320,1,125.999996154785
112,224,138891,1,0,0:0:0:0:
192,368,139050,1,2,0:0:0:0:
224,354,139130,1,2,0:0:0:0:
257,345,139210,1,2,0:0:0:0:
291,338,139290,1,2,0:0:0:0:
325,338,139369,1,4,3:0:0:0:
416,272,139529,1,2,0:0:0:0:
242,222,139688,6,0,P|334:260|392:241,1,161.999995056153,4|8,0:0|0:0,0:0:0:0:
289,124,140167,2,0,B|258:106|258:106|201:169|250:233,1,161.999995056153,4|8,0:0|0:0,0:0:0:0:
291,338,140646,2,0,B|220:305|201:369|123:320,1,161.999995056153,4|4,0:0|0:0,0:0:0:0:
46,384,141125,6,0,P|28:346|35:302,1,80.9999975280763,2|2,0:3|0:3,0:0:0:0:
166,207,141444,2,0,P|205:203|241:220,1,80.9999975280763,2|2,0:3|0:0,0:0:0:0:
70,226,141763,5,8,0:0:0:0:
240,123,141922,1,8,0:0:0:0:
291,338,142082,1,8,0:0:0:0:
137,300,142242,6,0,L|290:324,1,144,4|2,0:0|0:3,0:0:0:0:
416,256,142720,1,2,0:0:0:0:
336,176,142880,2,0,B|311:117|366:94|334:29,1,144,8|2,0:0|0:3,0:0:0:0:
254,69,143359,1,0,0:0:0:0:
415,142,143518,6,0,P|442:137|492:127,1,72,2|0,0:0|0:0,0:0:0:0:
240,192,143837,2,0,P|204:184|169:178,1,72,2|2,0:3|0:0,0:0:0:0:
328,272,144157,2,0,P|401:290|491:313,1,144,8|2,0:0|0:3,0:0:0:0:
453,213,144635,1,0,0:0:0:0:
308,355,144795,6,0,P|218:373|166:350,1,144,2|2,0:0|0:3,0:0:0:0:
185,225,145274,1,2,0:0:0:0:
32,288,145433,2,0,P|83:280|117:277,1,72,8|0,0:0|0:0,0:0:0:0:
20,168,145752,2,0,P|71:175|105:179,1,72,2|0,0:3|0:0,0:0:0:0:
256,240,146071,6,0,P|218:232|177:224,1,72,2|2,0:0|0:0,0:0:0:0:
101,368,146391,2,0,P|139:360|180:352,1,72,2|2,0:3|0:0,0:0:0:0:
384,320,146710,5,8,0:0:0:0:
176,256,146869,1,8,0:0:0:0:
176,256,147029,1,8,0:0:0:0:
432,176,147188,6,0,P|327:196|243:221,1,161.999995056153,4|2,0:0|0:3,0:0:0:0:
247,224,147587,1,2,0:3:0:0:
247,224,147667,1,8,0:0:0:0:
369,266,147827,6,0,B|486:306|486:306|468:349,1,161.999995056153,0|2,0:0|0:3,0:0:0:0:
459,371,148226,1,2,0:3:0:0:
459,371,148305,2,0,L|414:356,1,40.4999987640381,8|0,0:0|0:0,0:0:0:0:
295,286,148465,6,0,B|221:252|194:325|121:280,1,180,4|2,0:0|0:3,0:0:0:0:
102,267,148864,1,2,0:3:0:0:
102,267,148944,1,8,0:0:0:0:
0,152,149103,6,0,B|112:183|112:183|183:164,1,180,0|2,0:0|0:3,0:0:0:0:
208,144,149502,1,2,0:3:0:0:
208,144,149582,2,0,L|192:210,1,45,8|8,0:0|0:0,0:0:0:0:
144,64,149742,6,0,P|259:83|304:16,1,198.000006042481,4|8,0:0|0:0,0:0:0:0:
124,78,150220,5,8,0:0:0:0:
368,160,150380,1,8,0:0:0:0:
123,279,150540,5,8,0:0:0:0:
224,95,150699,1,10,0:0:0:0:
288,368,150859,5,8,0:0:0:0:
10,212,151018,1,12,0:0:0:0:
35,194,151816,6,0,L|86:203,1,45,2|2,0:0|0:0,0:0:0:0:
227,193,152295,6,0,B|154:180|154:180|88:203|88:203|25:192,1,198.000006042481,12|2,0:0|0:0,0:0:0:0:
167,80,152774,2,0,L|266:101,1,99.0000030212403,8|2,0:0|0:3,0:0:0:0:
385,189,153093,1,2,0:0:0:0:
224,306,153252,2,0,P|202:258|215:209,1,99.0000030212403,2|8,0:3|0:0,0:0:0:0:
460,133,153571,6,0,P|482:181|469:230,1,99.0000030212403,2|2,0:3|0:0,0:0:0:0:
336,48,153891,1,0,0:0:0:0:
227,193,154050,1,8,0:0:0:0:
342,269,154210,2,0,P|332:329|328:368,1,99.0000030212403,2|2,0:3|0:0,0:0:0:0:
451,254,154529,1,2,0:3:0:0:
331,133,154688,1,8,0:0:0:0:
188,287,154848,6,0,P|103:335|7:303,1,198.000006042481,4|2,0:0|0:0,0:0:0:0:
176,192,155327,2,0,P|224:202|272:215,1,99.0000030212403,8|0,0:0|0:0,0:0:0:0:
48,144,155646,2,0,P|26:98|37:48,1,99.0000030212403,2|0,0:0|0:0,0:0:0:0:
157,3,155965,1,8,0:0:0:0:
292,119,156125,6,0,P|282:167|271:215,1,99.0000030212403,2|0,0:3|0:0,0:0:0:0:
192,112,156444,1,0,0:0:0:0:
384,208,156603,1,8,0:0:0:0:
240,368,156763,1,2,0:3:0:0:
108,287,156922,2,0,P|44:298|-19:317,1,99.0000030212403,2|2,0:0|0:3,0:0:0:0:
255,178,157242,2,8,L|305:191,1,49.5000015106202,8|0,0:0|0:0,0:0:0:0:
455,261,157401,6,0,B|369:222|340:309|260:267,1,198.000006042481,4|0,0:0|0:0,0:0:0:0:
276,101,157880,2,0,P|305:155|300:202,1,99.0000030212403,2|0,0:0|0:0,0:0:0:0:
238,360,158199,2,0,P|239:311|265:269,1,99.0000030212403,2|0,0:0|0:0,0:0:0:0:
428,178,158518,1,8,0:0:0:0:
275,101,158678,1,2,0:3:0:0:
478,40,158837,6,0,P|367:92|294:69,1,198.000006042481,2|8,0:0|0:0,0:0:0:0:
112,0,159316,2,0,P|138:79|143:116,1,99.0000030212403,2|2,0:3|0:0,0:0:0:0:
0,184,159635,2,0,P|10:135|28:89,1,99.0000030212403,2|8,0:3|0:0,0:0:0:0:
296,164,159954,6,8,B|261:136|202:145|202:145|162:181|109:165,1,198.000006042481,4|2,0:0|0:0,0:0:0:0:
336,256,160433,1,8,0:0:0:0:
176,352,160593,2,0,L|112:336,1,49.5000015106202,0|2,0:0|0:0,0:0:0:0:
28,254,160752,5,2,0:0:0:0:
22,224,160832,1,0,0:0:0:0:
27,194,160912,1,8,0:0:0:0:
41,168,160992,1,8,0:0:0:0:
63,149,161071,2,0,P|94:157|121:172,1,49.5000015106202,10|8,0:0|0:0,0:0:0:0:
196,254,161231,6,0,P|288:275|346:248,1,148.50000453186,12|0,0:0|0:0,0:0:0:0:
378,242,161550,2,0,P|407:251|443:270,1,49.5000015106202,10|0,0:0|0:0,0:0:0:0:
288,160,161710,2,0,P|258:169|223:188,1,49.5000015106202,10|0,0:0|0:0,0:0:0:0:
400,128,161869,6,0,P|413:47|387:3,1,134.999995880127,4|0,0:0|0:0,0:0:0:0:
356,0,162348,1,2,0:0:0:0:
477,183,162508,6,0,B|389:125|364:214|277:152,1,198.000006042481,4|0,0:0|0:0,0:0:0:0:
112,80,162986,1,8,0:0:0:0:
256,32,163146,1,0,0:0:0:0:
48,152,163305,1,2,0:0:0:0:
168,16,163465,1,2,0:3:0:0:
256,240,163625,1,8,0:0:0:0:
112,80,163784,6,0,P|65:209|81:268,1,198.000006042481
208,112,164263,1,8,0:0:0:0:
381,261,164422,2,0,P|315:237|249:222,1,99.0000030212403,2|2,0:3|0:0,0:0:0:0:
87,289,164742,1,2,0:3:0:0:
242,379,164901,2,0,L|265:310,1,49.5000015106202,8|0,0:0|0:0,0:0:0:0:
322,164,165061,6,0,P|205:212|144:185,1,198.000006042481,4|2,0:0|0:0,0:0:0:0:
240,80,165540,1,8,0:0:0:0:
368,288,165699,1,2,0:3:0:0:
320,144,165859,1,2,0:0:0:0:
227,371,166018,1,0,0:0:0:0:
117,186,166178,1,8,0:0:0:0:
0,320,166337,6,0,B|131:285|131:285|200:312,1,198.000006042481,4|0,0:0|0:3,0:0:0:0:
386,265,166816,1,8,0:0:0:0:
218,190,166976,2,0,P|158:198|106:206,1,99.0000030212403,2|2,0:3|0:0,0:0:0:0:
382,126,167295,2,0,P|442:134|494:142,1,99.0000030212403,2|8,0:3|0:0,0:0:0:0:
254,17,167614,6,0,P|197:140|223:196,1,198.000006042481,4|2,0:0|0:0,0:0:0:0:
340,123,168093,1,8,0:0:0:0:
119,203,168252,1,2,0:3:0:0:
288,288,168412,1,2,0:0:0:0:
197,95,168571,1,2,0:0:0:0:
80,324,168731,1,8,0:0:0:0:
372,262,168891,6,0,B|299:248|299:248|247:273|247:273|176:263,1,198.000006042481,4|2,0:0|0:0,2:0:0:0:
12,196,169369,2,0,P|65:188|131:173,1,99.0000030212403,8|2,0:0|0:3,0:0:0:0:
353,137,169688,2,0,P|305:139|256:116,1,99.0000030212403,2|0,0:0|0:0,0:0:0:0:
113,25,170008,1,8,0:0:0:0:
12,196,170167,6,0,P|116:264|192:240,1,198.000006042481,4|8,0:0|0:0,0:0:0:0:
74,130,170646,1,2,0:0:0:0:
127,364,170805,1,0,0:0:0:0:
273,222,170965,5,2,0:0:0:0:
315,207,171045,1,0,0:0:0:0:
358,214,171125,1,8,0:0:0:0:
393,239,171204,1,8,0:0:0:0:
437,245,171284,1,10,0:0:0:0:
472,217,171364,1,8,0:0:0:0:
468,172,171444,2,0,L|409:160,1,49.5000015106202,8|8,0:0|0:0,0:0:0:0:
272,90,171603,1,4,0:0:0:0:
454,79,171763,6,0,P|475:128|460:184,1,99.0000030212403,8|0,0:0|0:0,0:0:0:0:
198,292,172082,6,0,P|177:243|192:187,1,99.0000030212403,8|0,0:0|0:0,0:0:0:0:
429,351,172401,6,0,P|380:358|336:337,1,99.0000030212403,8|0,0:0|0:0,0:0:0:0:
272,90,172720,6,0,P|316:69|364:76,1,99.0000030212403,8|0,0:0|0:0,0:0:0:0:
197,292,173040,5,12,0:0:0:0:
400,224,173199,1,2,0:0:0:0:
176,96,173359,1,4,0:0:0:0:
236,359,173518,5,8,0:0:0:0:
379,146,173678,1,2,0:0:0:0:
496,336,173837,1,2,0:0:0:0:
216,270,173997,5,12,0:0:0:0:
256,192,174077,12,0,176710,0:0:0:0:
15,93,183093,6,0,B|104:114|104:114|148:94,1,135,4|0,0:0|0:0,0:0:0:0:
177,79,183412,5,8,0:0:0:0:
240,240,183571,1,8,0:0:0:0:
272,32,183731,5,10,0:0:0:0:
352,256,183891,1,10,0:0:0:0:
464,32,184050,6,0,L|452:96,1,45,10|0,0:0|0:0,0:0:0:0:
436,184,184210,6,0,P|327:128|271:137,1,180,4|2,0:0|0:3,0:0:0:0:
148,236,184688,1,8,0:0:0:0:
148,236,184848,1,0,0:0:0:0:
0,167,185008,2,0,P|43:157|86:143,1,90,2|2,0:0|0:1,0:0:0:0:
35,66,185327,1,8,0:0:0:0:
148,236,185486,6,0,P|256:271|321:243,1,180,2|0,0:0|0:0,0:0:0:0:
480,352,185965,2,0,L|371:329,1,90,8|0,0:0|0:0,0:0:0:0:
306,208,186284,1,2,0:0:0:0:
203,323,186444,1,2,0:1:0:0:
96,144,186603,1,8,0:0:0:0:
32,316,186763,6,0,P|172:287|237:278,1,180,4|2,0:0|0:3,0:0:0:0:
390,238,187242,2,0,P|346:239|294:217,1,90,8|0,0:0|0:0,0:0:0:0:
59,105,187561,5,2,0:0:0:0:
158,173,187720,2,0,P|202:174|254:152,1,90,2|8,0:1|0:0,0:0:0:0:
438,57,188040,6,0,P|376:44|338:37,1,90,2|2,0:1|0:0,0:0:0:0:
184,87,188359,1,0,0:0:0:0:
303,223,188518,1,8,0:0:0:0:
184,342,188678,2,0,P|168:279|152:236,1,90,2|2,0:1|0:0,0:0:0:0:
431,212,188997,2,0,P|416:254|407:298,1,90,2|8,0:3|0:0,0:0:0:0:
195,183,189316,6,2,P|314:196|362:155,1,180,4|0,0:0|0:0,0:1:0:0:
224,74,189795,1,8,0:0:0:0:
159,255,189954,1,0,0:0:0:0:
16,192,190114,1,2,0:3:0:0:
16,192,190194,1,2,0:3:0:0:
16,192,190274,1,2,0:1:0:0:
112,368,190433,1,8,0:0:0:0:
352,320,190593,6,0,P|308:309|265:295,1,90,4|0,0:0|0:0,0:0:0:0:
121,189,190912,1,2,0:0:0:0:
0,304,191071,2,0,P|54:288|94:278,1,90,8|2,0:0|0:3,0:0:0:0:
288,224,191391,1,2,0:1:0:0:
96,160,191550,1,2,0:0:0:0:
141,383,191710,1,8,0:0:0:0:
196,199,191869,5,4,0:0:0:0:
203,177,191949,1,0,0:0:0:0:
199,154,192029,1,2,0:0:0:0:
195,131,192109,1,0,0:0:0:0:
204,110,192188,1,2,0:1:0:0:
212,89,192268,1,2,0:0:0:0:
206,67,192348,2,0,P|232:72|256:76,3,45,8|0|2|0,0:0|0:0|0:1|0:0,0:0:0:0:
336,128,192667,5,2,0:0:0:0:
361,135,192747,1,0,0:0:0:0:
388,133,192827,1,0,0:0:0:0:
413,124,192907,1,0,0:0:0:0:
436,111,192986,2,0,L|450:162,1,45,8|0,0:0|0:0,0:0:0:0:
512,272,193146,5,4,0:0:0:0:
479,257,193226,1,0,0:0:0:0:
443,257,193305,1,2,0:1:0:0:
408,269,193385,1,0,0:0:0:0:
384,296,193465,1,2,0:0:0:0:
352,314,193545,1,0,0:0:0:0:
315,311,193625,5,8,0:0:0:0:
283,294,193704,1,0,0:0:0:0:
271,259,193784,1,0,0:0:0:0:
282,224,193864,1,0,0:0:0:0:
310,202,193944,1,2,0:0:0:0:
346,201,194024,1,0,0:0:0:0:
380,210,194103,1,2,0:1:0:0:
406,234,194183,1,2,0:1:0:0:
408,269,194263,2,0,L|400:328,1,45,8|0,0:0|0:0,0:0:0:0:
272,368,194422,5,4,0:0:0:0:
234,353,194502,1,0,0:0:0:0:
204,325,194582,1,2,0:1:0:0:
184,289,194662,1,0,0:0:0:0:
184,248,194742,1,2,0:0:0:0:
200,211,194821,1,2,0:1:0:0:
227,181,194901,2,0,P|249:186|296:198,3,45,8|0|0|0,0:0|0:0|0:0|0:0,0:0:0:0:
176,112,195220,5,2,0:0:0:0:
137,99,195300,1,0,0:0:0:0:
96,101,195380,1,2,0:1:0:0:
57,114,195460,1,0,0:0:0:0:
24,138,195540,2,0,L|14:198,1,45,8|0,0:0|0:0,0:0:0:0:
0,320,195699,5,4,0:0:0:0:
39,297,195779,1,0,0:0:0:0:
83,302,195859,1,2,0:1:0:0:
118,328,195938,1,0,0:0:0:0:
160,341,196018,1,2,0:0:0:0:
204,335,196098,1,0,0:0:0:0:
240,308,196178,2,0,L|250:257,3,45,8|0|0|0,0:0|0:0|0:0|0:0,0:0:0:0:
340,258,196497,5,2,0:0:0:0:
326,214,196577,1,0,0:0:0:0:
290,186,196657,1,2,0:1:0:0:
246,178,196736,1,0,0:0:0:0:
201,186,196816,2,0,P|173:216|153:244,1,45,8|0,0:0|0:0,0:0:0:0:
41,336,196976,2,0,P|2:321|-28:304,1,45,8|0,0:0|0:0,0:0:0:0:
87,170,197135,5,12,0:0:0:0:
340,258,197295,1,2,0:0:0:0:
340,258,197454,1,2,0:0:0:0:
137,254,197614,5,12,0:0:0:0:
409,176,197774,1,2,0:0:0:0:
409,176,197933,1,2,0:0:0:0:
238,263,198093,5,12,0:0:0:0:
463,90,198252,1,2,0:0:0:0:
463,90,198412,1,2,0:0:0:0:
213,185,198571,5,12,0:0:0:0:
476,307,198731,1,2,0:0:0:0:
476,307,198891,1,2,0:0:0:0:
288,368,199050,6,0,P|269:292|297:242,1,135,12|0,0:0|0:0,0:0:0:0:
476,307,199369,6,0,P|440:299|370:285,1,101.250003862381,2|0,0:0|0:0,0:0:0:0:
364,276,199688,5,12,0:0:0:0:
288,368,199848,1,2,0:0:0:0:
324,165,200008,5,2,0:0:0:0:
144,336,200167,1,2,0:0:0:0:
240,80,200327,5,2,0:0:0:0:
57,269,200486,1,10,0:0:0:0:
106,240,200566,1,8,0:0:0:0:
162,239,200646,1,10,0:0:0:0:
214,260,200726,1,8,0:0:0:0:
258,294,200805,1,10,0:0:0:0:
310,315,200885,1,8,0:0:0:0:
365,304,200965,1,2,0:0:0:0:
365,304,202242,6,0,P|355:270|349:245,1,53.9999983520508
223,223,202561,2,0,P|256:213|282:207,1,53.9999983520508,2|2,0:0|0:0,0:0:0:0:
304,81,202880,2,0,P|313:114|320:140,1,53.9999983520508,2|2,0:0|0:0,0:0:0:0:
444,163,203199,2,0,P|410:172|385:179,1,53.9999983520508,2|2,0:0|0:0,0:0:0:0:
203,65,203518,6,0,P|265:90|312:76,1,107.999996704102,2|2,0:0|0:0,0:0:0:0:
134,123,204157,2,0,P|110:170|117:223,1,107.999996704102,2|0,0:0|0:0,0:0:0:0:
245,341,204795,6,0,P|165:326|123:317,1,107.999996704102,2|0,0:0|0:0,0:0:0:0:
18,240,205274,1,2,0:0:0:0:
18,240,205433,2,0,P|70:248|117:224,1,107.999996704102
57,173,205912,6,0,B|112:200|161:173|161:173|215:142|263:172,1,215.999993408203
336,240,206710,2,0,L|324:296,1,53.9999983520508,2|2,0:0|0:0,0:0:0:0:
432,160,207029,2,0,L|447:219,1,53.9999983520508,2|0,0:0|0:0,0:0:0:0:
299,70,207348,6,0,P|280:122|259:182,1,107.999996704102,2|2,0:0|0:0,0:0:0:0:
230,251,207827,1,0,0:0:0:0:
91,188,207986,2,0,P|128:195|156:201,1,53.9999983520508,2|0,0:0|0:0,0:0:0:0:
377,302,208305,2,0,P|350:298|324:292,1,53.9999983520508,2|0,0:0|0:0,0:0:0:0:
103,355,208625,6,0,P|154:329|211:336,1,107.999996704102,2|0,0:0|0:0,0:0:0:0:
308,279,209103,1,0,0:0:0:0:
134,185,209263,6,0,P|201:204|261:167,1,144,2|0,0:0|0:0,0:0:0:0:
179,60,209742,6,0,P|117:121|137:188,1,161.999995056153,0|2,0:0|0:0,0:0:0:0:
32,237,210380,1,0,0:0:0:0:
135,186,210539,1,2,0:0:0:0:
39,122,210699,1,0,0:0:0:0:
96,320,210859,5,2,0:0:0:0:
192,263,211018,1,0,0:0:0:0:
384,384,211178,6,0,P|338:371|297:362,1,72,2|0,0:0|0:0,0:0:0:0:
192,263,211497,6,0,P|227:254|262:245,1,53.9999983520508,0|2,0:0|0:0,0:0:0:0:
421,183,211816,2,0,P|375:170|350:165,1,53.9999983520508,2|2,0:0|0:0,0:0:0:0:
217,55,212135,2,0,P|225:90|234:121,1,53.9999983520508,2|0,0:0|0:0,0:0:0:0:
338,282,212454,5,6,0:0:0:0:
444,265,212614,1,6,0:0:0:0:
444,265,212933,6,0,P|390:270|337:281,1,107.999996704102,2|0,0:0|0:0,0:0:0:0:
144,352,213412,5,6,0:0:0:0:
37,335,213571,1,6,0:0:0:0:
37,335,213731,6,0,P|90:340|143:351,1,107.999996704102,2|0,0:0|0:0,0:0:0:0:
246,319,214210,1,0,0:0:0:0:
160,240,214369,2,0,P|111:251|95:256,1,53.9999983520508,2|2,0:0|0:0,0:0:0:0:
307,180,214688,2,0,P|355:191|372:196,1,53.9999983520508,2|0,0:0|0:0,0:0:0:0:
175,94,215008,5,6,0:0:0:0:
45,134,215167,1,6,0:0:0:0:
45,134,215486,6,0,P|115:134|175:95,1,144,2|0,0:0|0:0,0:0:0:0:
236,205,215966,5,6,0:0:0:0:
87,268,216125,1,6,0:0:0:0:
87,268,216284,6,0,P|221:234|342:324,1,288,2|2,0:0|0:0,0:0:0:0:
306,180,217242,1,0,0:0:0:0:
160,368,217561,6,0,P|76:353|12:342,1,125.999996154785,4|0,0:0|0:0,0:0:0:0:
217,287,218040,1,0,0:0:0:0:
211,289,218199,2,0,P|127:274|63:263,1,125.999996154785,2|0,0:0|0:0,0:0:0:0:
164,177,218678,1,0,0:0:0:0:
320,336,218837,6,0,P|402:353|442:332,1,125.999996154785,4|0,0:0|0:0,0:0:0:0:
323,214,219316,1,0,0:0:0:0:
319,218,219476,2,0,P|302:300|323:340,1,125.999996154785,2|0,0:0|0:0,0:0:0:0:
211,289,219954,1,0,0:0:0:0:
429,239,220114,6,0,P|362:226|307:215,1,112.5,2|0,0:0|0:0,0:0:0:0:
293,212,220593,1,2,0:0:0:0:
134,257,220752,6,0,B|67:265|16:275|16:275|-10:254|14:213,1,168.750006437302,2|0,0:0|0:0,0:0:0:0:
20,211,221231,1,2,0:0:0:0:
282,316,221391,5,2,0:0:0:0:
282,316,222029,6,0,L|272:371,1,45,2|0,0:0|0:0,0:0:0:0:
107,239,222508,6,0,L|217:222,1,90,4|8,0:0|0:0,0:0:0:0:
310,205,222986,1,10,0:0:0:0:
310,205,223305,5,10,0:0:0:0:
107,239,223465,1,10,0:0:0:0:
392,222,223784,6,0,P|339:224|308:203,1,90,4|2,0:0|0:0,0:0:0:0:
217,132,224263,1,8,0:0:0:0:
159,309,224422,6,0,L|134:305,1,18,2|0,0:3|0:0,0:0:0:0:
390,220,224742,2,0,L|408:223,1,18,2|0,0:3|0:0,0:0:0:0:
141,306,225061,6,0,B|254:269|213:362|346:314,1,198.000006042481,12|2,0:0|0:0,0:0:0:0:
499,248,225540,2,0,P|436:243|403:217,1,99.0000030212403,8|0,0:0|0:0,0:0:0:0:
281,97,225859,1,2,0:0:0:0:
134,209,226018,2,0,P|201:193|247:187,1,99.0000030212403,0|8,0:0|0:0,0:0:0:0:
456,56,226337,6,0,P|386:45|338:25,1,99.0000030212403,2|2,0:3|0:0,0:0:0:0:
191,111,226657,1,0,0:0:0:0:
408,222,226816,1,8,0:0:0:0:
265,286,226976,2,0,P|266:338|273:396,1,99.0000030212403,2|2,0:3|0:0,0:0:0:0:
376,302,227295,1,2,0:0:0:0:
152,228,227454,1,8,0:0:0:0:
356,132,227614,6,0,P|251:163|187:101,1,198.000006042481,4|0,0:0|0:0,0:0:0:0:
29,15,228093,2,0,P|45:61|56:109,1,99.0000030212403,2|0,0:0|0:0,0:0:0:0:
188,217,228412,1,2,0:0:0:0:
128,336,228572,2,0,P|62:345|12:371,1,99.0000030212403,2|8,0:3|0:0,0:0:0:0:
0,212,228891,6,0,B|77:197|77:197|131:227|131:227|198:216,1,198.000006042481,2|0,0:3|0:0,0:0:0:0:
10,103,229369,1,8,0:0:0:0:
176,12,229529,2,0,B|189:60|189:60|169:112,1,99.0000030212403,2|2,0:3|0:0,0:0:0:0:
0,257,229848,2,0,L|105:237,1,99.0000030212403,2|8,0:3|0:0,0:0:0:0:
377,212,230167,6,0,B|291:160|273:254|182:200,1,198.000006042481,4|2,0:0|0:0,0:0:0:0:
236,94,230646,1,8,0:0:0:0:
376,293,230805,5,0,0:0:0:0:
373,302,230885,1,2,0:0:0:0:
370,311,230965,2,0,P|324:303|306:295,1,49.5000015106202,2|0,0:0|0:0,0:0:0:0:
187,203,231124,5,0,0:0:0:0:
190,212,231204,1,8,0:0:0:0:
193,221,231284,2,0,P|239:213|257:205,1,49.5000015106202,10|8,0:0|0:0,0:0:0:0:
467,157,231444,6,0,B|416:142|368:170|368:170|315:155,1,148.50000453186,4|0,0:0|0:0,0:0:0:0:
292,149,231763,1,8,0:0:0:0:
78,233,231922,1,8,0:0:0:0:
185,82,232082,6,0,P|160:142|187:202,1,134.999995880127,4|0,0:0|0:0,0:0:0:0:
201,223,232561,1,2,0:0:0:0:
370,311,232720,6,0,B|241:283|241:283|198:304|220:344,1,198.000006042481,4|0,0:0|0:0,0:0:0:0:
216,335,233119,1,2,0:0:0:0:
216,335,233199,1,8,0:0:0:0:
404,287,233359,1,2,0:3:0:0:
187,202,233518,1,2,0:0:0:0:
358,104,233678,1,2,0:3:0:0:
273,282,233837,1,8,0:0:0:0:
161,120,233997,6,0,P|264:171|342:137,1,198.000006042481,2|0,0:3|0:0,0:0:0:0:
224,64,234476,1,8,0:0:0:0:
112,224,234635,2,0,P|28:239|-27:263,1,99.0000030212403,2|2,0:3|0:0,0:0:0:0:
161,120,234954,1,2,0:3:0:0:
368,208,235114,1,8,0:0:0:0:
256,368,235274,6,0,P|220:247|251:180,1,198.000006042481,4|2,0:0|0:0,0:0:0:0:
384,96,235752,1,8,0:0:0:0:
320,288,235912,1,2,0:3:0:0:
208,160,236071,1,2,0:0:0:0:
400,224,236231,1,2,0:3:0:0:
176,320,236391,1,8,0:0:0:0:
445,334,236550,6,0,P|389:317|331:301,1,99.0000030212403,2|2,0:3|0:0,0:0:0:0:
152,220,236869,1,2,0:3:0:0:
320,144,237029,1,8,0:0:0:0:
73,271,237188,2,0,P|58:225|70:175,1,99.0000030212403,2|2,0:3|0:0,0:0:0:0:
267,348,237508,2,0,P|221:363|171:350,1,99.0000030212403,2|8,0:3|0:0,0:0:0:0:
246,185,237827,6,0,B|348:143|328:237|452:183,1,198.000006042481,4|0,0:0|0:0,0:0:0:0:
216,284,238305,2,0,P|155:271|101:260,1,99.0000030212403,8|2,0:0|0:3,0:0:0:0:
246,185,238625,1,2,0:0:0:0:
336,320,238784,1,0,0:0:0:0:
480,176,238944,1,8,0:0:0:0:
311,72,239103,6,0,P|266:185|300:255,1,198.000006042481,4|2,0:0|0:0,0:0:0:0:
367,144,239582,1,8,0:0:0:0:
216,284,239742,1,2,0:3:0:0:
100,145,239901,1,2,0:0:0:0:
48,352,240061,1,2,0:3:0:0:
294,248,240220,1,8,0:0:0:0:
25,181,240380,6,0,B|162:209|162:209|196:184|170:139,1,198.000006042481,4|2,0:0|0:0,0:0:0:0:
48,96,240859,1,8,0:0:0:0:
92,338,241018,1,2,0:3:0:0:
178,157,241178,5,2,0:0:0:0:
222,179,241258,1,2,0:0:0:0:
270,175,241337,1,8,0:0:0:0:
313,151,241417,1,8,0:0:0:0:
359,134,241497,1,8,0:0:0:0:
408,142,241577,1,8,0:0:0:0:
444,175,241657,2,0,L|434:244,1,49.5000015106202,8|8,0:0|0:0,0:0:0:0:
416,368,241816,1,4,0:0:0:0:
259,268,241976,6,0,B|249:222|249:222|271:172,1,99.0000030212403,8|0,0:0|0:0,0:0:0:0:
416,368,242295,6,0,B|370:378|370:378|320:356,1,99.0000030212403,8|0,0:0|0:0,0:0:0:0:
176,163,242614,6,0,B|222:153|222:153|272:175,1,99.0000030212403,8|0,0:0|0:0,0:0:0:0:
56,343,242933,6,0,B|46:297|46:297|68:247,1,99.0000030212403,8|0,0:0|0:0,0:0:0:0:
272,96,243252,5,12,0:0:0:0:
144,304,243412,1,2,0:0:0:0:
16,160,243571,1,2,0:3:0:0:
330,322,243731,5,12,0:0:0:0:
202,114,243891,1,2,0:0:0:0:
74,258,244050,1,2,0:0:0:0:
353,191,244210,6,0,B|297:166|243:191|243:191|201:213|155:189,1,198.000006042481,4|2,0:0|0:0,0:0:0:0:
0,81,244688,2,0,P|117:121|171:77,1,198.000006042481,8|2,0:0|0:0,0:0:0:0:
85,30,245167,1,2,0:3:0:0:
256,144,245327,1,8,0:0:0:0:
16,240,245486,6,0,B|86:228|86:228|143:259|143:259|225:248,1,198.000006042481,2|2,0:3|0:0,0:0:0:0:
367,159,245965,1,8,0:0:0:0:
512,288,246125,2,0,B|464:304|464:304|417:289,1,99.0000030212403,2|2,0:3|0:0,0:0:0:0:
277,133,246444,2,0,B|325:131|325:131|367:159,1,99.0000030212403,2|8,0:3|0:0,2:0:0:0:
270,356,246763,6,0,P|145:352|86:308,1,198.000006042481,4|2,0:0|0:0,0:0:0:0:
176,144,247242,1,8,0:0:0:0:
64,352,247401,1,2,0:3:0:0:
240,272,247561,1,2,0:0:0:0:
0,192,247720,1,2,0:3:0:0:
208,112,247880,1,8,0:0:0:0:
77,48,248040,6,0,P|40:179|72:232,1,198.000006042481,2|2,0:3|0:0,0:0:0:0:
277,133,248518,1,8,0:0:0:0:
96,208,248678,1,2,0:3:0:0:
96,208,248758,1,2,0:3:0:0:
96,208,248837,1,2,0:0:0:0:
288,288,248997,1,2,0:3:0:0:
130,99,249157,2,0,L|61:86,1,49.5000015106202,8|0,0:0|0:0,0:0:0:0:
272,192,249316,6,0,P|363:180|438:171,1,148.50000453186,4|0,0:0|0:0,0:0:0:0:
452,167,249635,1,2,0:0:0:0:
265,95,249795,1,8,0:0:0:0:
388,29,249954,1,0,0:0:0:0:
189,164,250114,5,2,0:0:0:0:
354,224,250274,2,0,P|376:268|378:319,1,99.0000030212403,2|8,0:3|0:0,0:0:0:0:
156,336,250593,6,0,P|133:246|198:158,1,198.000006042481,0|0,0:0|0:3,0:0:0:0:
364,103,251071,1,8,0:0:0:0:
242,22,251231,2,0,L|132:36,1,99.0000030212403,2|2,0:3|0:0,0:0:0:0:
283,127,251550,1,2,0:3:0:0:
66,213,251710,1,8,0:0:0:0:
66,213,251790,1,2,0:0:0:0:
66,213,251869,6,0,B|133:222|133:222|181:192|181:192|264:205,1,198.000006042481,4|2,0:0|0:0,0:0:0:0:
96,112,252348,1,8,0:0:0:0:
212,289,252508,5,2,0:3:0:0:
258,305,252587,1,0,0:0:0:0:
306,295,252667,1,2,0:0:0:0:
344,263,252747,1,8,0:0:0:0:
388,240,252827,1,8,0:0:0:0:
436,250,252907,1,8,0:0:0:0:
466,288,252986,1,8,0:0:0:0:
453,336,253066,1,8,0:0:0:0:
413,365,253146,6,0,P|365:371|266:310,1,148.50000453186,4|0,0:0|0:0,0:0:0:0:
258,305,253465,1,8,0:0:0:0:
464,240,253625,1,8,0:0:0:0:
157,196,253784,6,0,P|241:188|302:182,1,134.999995880127,4|0,0:0|0:0,0:0:0:0:
326,178,254263,1,2,0:0:0:0:
112,124,254422,6,0,P|72:195|100:257,1,153.000002918243,2|4,0:3|3:0,0:0:0:0:
189,301,254821,1,4,3:0:0:0:
189,301,254901,6,0,B|76:259|105:349|-3:303,1,198.000006042481,12|2,0:0|0:0,0:0:0:0:
157,196,255380,1,2,0:3:0:0:
251,371,255540,1,8,0:0:0:0:
400,272,255699,6,0,P|411:139|368:80,1,198.000006042481,2|0,0:3|0:0,0:0:0:0:
240,208,256178,1,8,0:0:0:0:
423,286,256337,1,2,0:3:0:0:
320,137,256497,1,2,0:0:0:0:
176,296,256657,1,2,0:3:0:0:
96,64,256816,2,0,L|31:74,1,49.5000015106202,8|0,0:0|0:0,0:0:0:0:
13,193,256976,6,0,B|71:185|71:185|142:242|208:210,1,198.000006042481,4|2,0:0|0:0,0:0:0:0:
416,128,257454,1,8,0:0:0:0:
256,32,257614,2,0,P|226:93|221:143,1,99.0000030212403,2|2,0:3|0:0,0:0:0:0:
320,352,257933,2,0,P|309:303|285:260,1,99.0000030212403,2|8,0:3|0:0,0:0:0:0:
50,344,258252,6,0,P|173:370|234:330,1,198.000006042481,4|2,0:0|0:3,0:0:0:0:
229,335,258651,1,2,0:3:0:0:
229,335,258731,1,8,0:0:0:0:
417,238,258891,2,0,B|368:255|368:255|319:238,1,99.0000030212403,2|2,0:3|0:0,0:0:0:0:
73,167,259210,2,0,B|122:184|122:184|171:167,1,99.0000030212403,2|8,0:3|0:0,0:0:0:0:
416,80,259529,6,0,P|312:125|231:94,1,198.000006042481,4|2,0:0|0:0,0:0:0:0:
96,32,260008,1,8,0:0:0:0:
169,251,260167,1,2,0:3:0:0:
237,98,260327,1,2,0:0:0:0:
46,196,260486,1,2,0:0:0:0:
288,304,260646,1,8,0:0:0:0:
86,336,260805,6,0,P|176:271|260:285,1,198.000006042481,4|2,0:0|0:0,0:0:0:0:
464,224,261284,2,0,L|352:192,1,99.0000030212403,8|0,0:0|0:0,0:0:0:0:
251,369,261603,2,0,L|361:342,1,99.0000030212403
257,153,261922,1,8,0:0:0:0:
16,236,262082,6,0,B|120:187|96:285|211:228,1,198.000006042481,4|2,0:0|0:0,0:0:0:0:
384,176,262561,1,8,0:0:0:0:
112,112,262720,1,2,0:3:0:0:
277,32,262880,5,2,0:0:0:0:
292,74,262960,1,2,0:0:0:0:
282,117,263040,1,8,0:0:0:0:
257,153,263119,1,8,0:0:0:0:
244,195,263199,1,10,0:0:0:0:
254,238,263279,1,8,0:0:0:0:
277,276,263359,2,0,L|337:290,1,49.5000015106202,8|8,0:0|0:0,0:0:0:0:
450,266,263518,1,4,0:0:0:0:
244,195,263678,6,0,P|195:206|147:218,1,99.0000030212403,8|0,0:0|0:0,0:0:0:0:
384,144,263997,6,0,P|432:154|480:166,1,99.0000030212403,8|0,0:0|0:0,0:0:0:0:
289,55,264316,6,0,P|240:65|192:79,1,99.0000030212403,8|0,0:0|0:0,0:0:0:0:
51,195,264635,6,0,P|100:206|148:218,1,99.0000030212403,8|0,0:0|0:0,0:0:0:0:
416,272,264954,5,12,0:0:0:0:
216,154,265114,1,2,0:0:0:0:
432,64,265274,1,2,0:3:0:0:
147,217,265433,5,12,0:0:0:0:
368,144,265593,1,2,0:0:0:0:
208,0,265752,1,2,0:0:0:0:
461,57,265912,6,0,P|353:105|291:83,1,180,12|2,0:0|0:0,0:0:0:0:
146,31,266391,2,0,P|160:79|175:127,1,90,8|0,0:0|0:0,0:0:0:0:
160,336,266710,2,0,P|174:288|189:240,1,90,2|0,0:0|0:0,0:0:0:0:
384,160,267029,2,0,P|336:174|288:189,1,90,8|0,0:0|0:0,0:0:0:0:
80,256,267348,5,4,0:0:0:0:
199,163,267508,1,2,0:3:0:0:
266,373,267667,1,8,0:0:0:0:
384,318,267827,2,0,P|419:223|364:146,1,180,2|2,0:3|0:3,0:0:0:0:
185,249,268305,2,0,L|171:299,1,45,8|0,0:0|0:0,0:0:0:0:
266,373,268465,6,0,L|309:195,1,180,4|2,0:0|0:0,0:0:0:0:
162,331,268944,1,8,0:0:0:0:
32,256,269103,1,0,0:0:0:0:
131,121,269263,2,0,P|173:108|217:118,1,90,2|0,0:0|0:0,0:0:0:0:
384,318,269582,2,0,P|339:317|301:294,1,90,8|2,0:0|0:3,0:0:0:0:
179,187,269901,5,2,0:0:0:0:
320,144,270061,1,2,0:3:0:0:
393,357,270220,1,8,0:0:0:0:
512,249,270380,2,0,L|416:229,1,90,2|2,0:1|0:0,0:0:0:0:
176,320,270699,5,4,3:0:0:0:
288,288,270859,1,4,3:0:0:0:
42,182,271018,6,0,P|153:229|212:210,1,180,4|4,0:2|0:0,0:0:0:0:
241,198,271417,1,4,0:0:0:0:
241,198,271497,1,2,0:0:0:0:
64,160,271657,5,4,0:0:0:0:
16,336,271816,1,2,0:0:0:0:
176,128,271976,5,4,0:0:0:0:
128,336,272135,1,2,0:0:0:0:
288,96,272295,5,4,0:0:0:0:
288,96,272375,1,4,0:0:0:0:
288,96,272454,1,4,0:2:0:0:
293,131,272534,1,0,0:0:0:0:
299,166,272614,1,0,0:0:0:0:
305,201,272694,1,0,0:0:0:0:
310,236,272774,2,0,L|365:254,1,45,2|0,0:0|0:0,0:0:0:0:
511,314,272933,5,8,0:2:0:0:
471,305,273013,1,0,0:0:0:0:
432,318,273093,1,2,0:2:0:0:
399,341,273172,1,0,0:0:0:0:
359,350,273252,1,2,0:0:0:0:
319,340,273332,1,2,0:0:0:0:
286,315,273412,1,2,0:2:0:0:
247,302,273492,1,0,0:0:0:0:
207,309,273571,6,0,L|196:359,3,45,4|0|2|0,0:2|0:0|0:2|0:0,0:0:0:0:
114,287,273891,2,0,L|50:295,1,45,2|0,0:2|0:0,0:0:0:0:
169,207,274050,5,2,0:2:0:0:
210,190,274130,1,0,0:0:0:0:
254,197,274210,1,2,0:0:0:0:
293,218,274290,1,2,0:0:0:0:
337,238,274369,1,4,0:2:0:0:
386,230,274449,1,8,0:2:0:0:
417,191,274529,1,8,0:2:0:0:
405,142,274609,1,8,0:2:0:0:
361,118,274688,2,0,P|327:122|299:135,1,45,8|8,0:2|0:2,0:0:0:0:
254,197,274848,6,0,B|234:251|234:251|249:293|249:293|233:345,1,148.50000453186,6|0,0:0|0:0,0:0:0:0:
131,288,275167,6,0,B|31:264|31:264|-3:278|3:315,1,161.999995056153,6|0,0:0|0:0,0:0:0:0:
96,371,275486,6,0,P|129:255|105:199,1,175.499991966248,6|0,0:0|0:0,0:0:0:0:
0,146,275805,6,0,B|120:170|120:170|172:124,1,188.999994232178,6|0,0:0|0:0,0:0:0:0:
360,233,276125,6,0,P|274:219|216:209,1,135,6|0,0:0|0:0,0:0:0:0:
194,206,276444,5,8,0:0:0:0:
336,144,276603,1,8,0:0:0:0:
416,304,276763,1,4,0:1:0:0:
288,80,276922,5,8,0:0:0:0:
128,304,277082,1,8,0:0:0:0:
403,228,277242,1,8,0:0:0:0:
132,139,277401,1,12,0:0:0:0:
151,118,277720,6,0,L|195:107,1,45,8|4,0:0|3:0,0:0:0:0:
373,66,277880,1,2,0:0:0:0:
