osu file format v14

[General]
AudioFilename: audio.mp3
AudioLeadIn: 0
PreviewTime: 57051
Countdown: 0
SampleSet: Soft
StackLeniency: 0.7
Mode: 0
LetterboxInBreaks: 0
WidescreenStoryboard: 0

[Editor]
DistanceSpacing: 1.4
BeatDivisor: 4
GridSize: 8
TimelineZoom: 1.6

[Metadata]
Title:AVENGE WORLD (TV Size)
TitleUnicode:AVENGE WORLD (TV Size)
Artist:Suzuki Konomi
ArtistUnicode:鈴木このみ
Creator:Sotarks
Version:FREEZING
Source:フリージング ヴァイブレーション
Tags:Freezing Vibration op opening japanese female vocalist j-pop jpop pop akitoshi corinn -laura- irohas mugiwarasekai kuon- xahlt kalibe
BeatmapID:3180890
BeatmapSetID:1557051

[Difficulty]
HPDrainRate:5.2
CircleSize:4
OverallDifficulty:8.7
ApproachRate:9.2
SliderMultiplier:1.82
SliderTickRate:1

[Events]
//Background and Video events
0,0,"bg.png",0,0
//Break Periods
//Storyboard Layer 0 (Background)
//Storyboard Layer 1 (Fail)
//Storyboard Layer 2 (Pass)
//Storyboard Layer 3 (Foreground)
//Storyboard Layer 4 (Overlay)
//Storyboard Sound Samples

[TimingPoints]
700,324.324324324324,4,2,22,82,1,0
5889,-161.290322580645,4,2,22,82,0,0
6213,-161.290322580645,4,2,22,52,0,0
7024,-161.290322580645,4,2,22,82,0,0
7429,-161.290322580645,4,2,22,52,0,0
8483,-161.290322580645,4,2,22,82,0,0
8808,-161.290322580645,4,2,22,52,0,0
9618,-108.695652173913,4,2,22,82,0,0
9781,-108.695652173913,4,2,22,72,0,0
12213,-89.2857142857143,4,2,22,82,0,0
12456,-89.2857142857143,4,2,22,5,0,0
12537,-89.2857142857143,4,2,22,72,0,0
12699,-108.695652173913,4,2,22,72,0,0
14808,-98.0392156862745,4,2,22,72,0,0
15051,-98.0392156862745,4,2,22,5,0,0
15132,-98.0392156862745,4,2,22,72,0,0
15294,-108.695652173913,4,2,22,72,0,0
16267,-89.2857142857143,4,2,22,72,0,0
16510,-89.2857142857143,4,2,22,5,0,0
16591,-89.2857142857143,4,2,22,72,0,0
16754,-108.695652173913,4,2,22,62,0,0
19348,-108.695652173913,4,2,22,32,0,0
19672,-108.695652173913,4,2,22,42,0,0
19997,-108.695652173913,4,2,22,52,0,0
20321,-108.695652173913,4,2,22,62,0,0
20970,-108.695652173913,4,2,22,72,0,0
21456,-98.0392156862745,4,2,22,62,0,0
22267,-108.695652173913,4,2,22,62,0,0
23727,-89.2857142857143,4,2,22,62,0,0
24051,-108.695652173913,4,2,22,62,0,0
26645,-89.2857142857143,4,2,22,62,0,0
26970,-108.695652173913,4,2,22,62,0,0
28916,-89.2857142857143,4,2,22,62,0,0
29889,-192.307692307692,4,2,22,62,0,0
30213,-89.2857142857143,4,2,22,62,0,0
30537,-108.695652173913,4,2,22,62,0,0
31835,-89.2857142857143,4,2,22,72,0,0
32159,-98.0392156862745,4,2,22,72,0,0
33132,-108.695652173913,4,2,22,72,0,0
34429,-98.0392156862745,4,2,22,72,0,0
34916,-108.695652173913,4,2,22,72,0,0
37024,-98.0392156862745,4,2,22,72,0,0
37997,-108.695652173913,4,2,22,72,0,0
39618,-98.0392156862745,4,2,22,72,0,0
46267,-108.695652173913,4,2,22,72,0,0
47402,-121.951219512195,4,2,22,72,0,0
47889,-108.695652173913,4,2,22,72,0,0
48537,-98.0392156862745,4,2,22,72,0,0
49024,-121.951219512195,4,2,22,72,0,0
52591,-108.695652173913,4,2,22,72,0,0
57132,-81.9672131147541,4,2,22,62,0,0
57213,-81.9672131147541,4,2,22,5,0,0
57294,-121.951219512195,4,2,22,62,0,0
57537,-121.951219512195,4,2,22,5,0,0
57618,-81.967213114754,4,2,22,82,0,0
58105,-98.0392156862745,4,2,22,82,0,0
60213,-81.9672131147541,4,2,22,82,0,0
61835,-98.0392156862745,4,2,22,82,0,0
63294,-81.9672131147541,4,2,22,82,0,0
65564,-98.0392156862745,4,2,22,82,0,0
67997,-81.9672131147541,4,2,22,82,0,0
68483,-98.0392156862745,4,2,22,82,0,0
70591,-81.9672131147541,4,2,22,82,0,0
71077,-98.0392156862745,4,2,22,82,0,0
73672,-81.9672131147541,4,2,22,82,0,0
75942,-98.0392156862745,4,2,22,82,0,0
78537,-81.9672131147541,4,2,22,72,0,0
78861,-98.0392156862745,4,2,22,72,0,0
79672,-108.695652173913,4,2,22,72,0,0
81132,-108.695652173913,4,2,22,42,0,0
81456,-108.695652173913,4,2,22,52,0,0
81781,-108.695652173913,4,2,22,62,0,0
82429,-108.695652173913,4,2,22,72,0,0
83078,-108.695652173913,4,2,22,62,0,0
83240,-138.888888888889,4,2,22,62,0,0
83645,-138.888888888889,4,2,22,5,0,0
83727,-454.545454545455,4,2,22,72,0,0
87618,-454.545454545455,4,2,22,12,0,0

[Colours]
Combo1 : 0,232,232
Combo2 : 255,128,64
Combo3 : 250,43,37
Combo4 : 226,244,0

[HitObjects]
98,257,5889,5,14,0:2:0:0:
365,125,6051,1,8,0:2:0:0:
188,61,6213,1,0,0:2:0:0:
277,95,6375,2,0,P|269:37|268:16,1,56.4199977616578,0|0,0:2|0:2,0:2:0:0:
188,61,6699,2,0,P|192:88|195:116,1,56.4199977616578,0|0,0:2|0:2,0:2:0:0:
203,349,7024,5,14,0:2:0:0:
405,71,7348,2,0,B|445:178|445:178|421:248|353:242|353:242|352:233|352:233|300:215|251:252,1,338.519986569947,8|0,0:2|0:2,0:2:0:0:
512,262,8483,5,14,0:2:0:0:
198,193,8645,1,8,0:2:0:0:
338,137,8808,1,0,0:2:0:0:
256,136,8970,2,0,P|269:174|274:199,1,56.4199977616578,0|0,0:2|0:2,0:2:0:0:
354,190,9294,2,0,P|341:152|336:127,1,56.4199977616578,0|0,0:2|0:2,0:2:0:0:
175,365,9618,6,0,P|134:354|93:347,1,83.7199971895753,14|0,0:2|0:2,0:2:0:0:
166,265,9943,1,0,1:2:0:0:
304,356,10105,2,8,P|349:343|359:341,1,41.8599985947876,8|8,0:2|0:2,0:2:0:0:
407,230,10267,2,8,P|395:275|392:285,1,41.8599985947876,8|8,0:2|0:2,0:2:0:0:
440,364,10429,1,8,0:3:0:0:
275,245,10591,1,8,0:2:0:0:
367,96,10754,1,8,0:2:0:0:
402,116,10835,1,8,0:2:0:0:
424,152,10916,1,8,0:2:0:0:
425,193,10997,1,8,0:2:0:0:
407,230,11078,5,6,1:2:0:0:
223,121,11240,1,0,1:2:0:0:
352,6,11402,1,8,0:2:0:0:
275,245,11564,2,0,P|214:227|165:223,1,83.7199971895753,0|0,0:2|1:2,0:2:0:0:
181,7,11889,2,0,P|242:25|291:29,1,83.7199971895753,0|8,3:2|0:2,0:2:0:0:
482,110,12213,6,0,B|401:108|417:145|316:143,1,152.880001866211,14|0,0:2|0:2,0:2:0:0:
306,130,12537,1,8,0:2:0:0:
332,353,12699,2,0,P|344:299|358:269,1,83.7199971895753,0|0,0:2|3:2,0:2:0:0:
114,158,13024,1,0,1:2:0:0:
232,278,13186,1,0,3:2:0:0:
306,130,13348,1,8,0:2:0:0:
201,79,13510,1,0,1:2:0:0:
201,79,13591,1,0,1:2:0:0:
201,79,13672,5,14,0:2:0:0:
355,273,13835,1,8,0:2:0:0:
456,41,13997,1,0,1:2:0:0:
309,121,14159,2,0,P|327:168|334:217,1,83.7199971895753,0|0,3:2|1:2,0:2:0:0:
414,178,14483,2,0,P|396:131|389:82,1,83.7199971895753,0|8,3:2|0:2,0:2:0:0:
232,278,14808,6,0,P|166:306|88:294,1,139.230000849792,14|0,0:2|0:2,0:2:0:0:
76,289,15132,1,0,1:2:0:0:
234,188,15294,2,0,P|282:201|291:202,1,41.8599985947876,8|8,0:2|0:2,0:2:0:0:
266,350,15456,2,8,P|314:337|323:336,1,41.8599985947876,8|8,0:2|0:2,0:2:0:0:
364,248,15618,1,8,0:3:0:0:
177,329,15781,1,0,1:2:0:0:
160,331,15862,1,0,1:2:0:0:
144,336,15943,1,8,0:2:0:0:
41,245,16105,1,0,1:2:0:0:
56,250,16186,1,0,1:2:0:0:
73,252,16267,6,0,B|83:175|48:186|73:92,1,152.880001866211,14|0,0:2|0:2,0:2:0:0:
61,78,16591,1,2,1:2:0:0:
181,218,16754,2,0,P|237:231|268:243,1,83.7199971895753,2|0,0:2|1:2,0:2:0:0:
295,83,17078,2,0,P|267:114|236:142,1,83.7199971895753,2|0,0:2|1:2,0:2:0:0:
371,246,17402,2,0,P|357:206|349:165,1,83.7199971895753,2|0,0:2|1:2,0:2:0:0:
292,360,17727,5,2,0:2:0:0:
460,289,17889,1,0,1:2:0:0:
292,360,18051,2,0,P|233:349|198:340,1,83.7199971895753,2|0,0:2|1:2,0:2:0:0:
52,305,18375,1,2,1:2:0:0:
52,305,18456,1,0,1:2:0:0:
52,305,18537,2,0,P|71:361|81:396,1,83.7199971895753,2|0,1:2|0:2,0:2:0:0:
172,227,18862,6,0,P|196:163|153:87,1,125.579995784363,2|0,1:2|0:2,0:2:0:0:
160,91,19186,1,10,0:2:0:0:
289,223,19348,2,8,P|334:237|347:244,3,41.8599985947876,10|8|8|8,0:2|0:2|1:2|0:2,0:2:0:0:
437,255,19672,2,8,P|426:209|426:194,3,41.8599985947876,10|8|8|8,0:2|0:2|1:2|0:2,0:2:0:0:
380,112,19997,2,8,P|345:143|332:151,3,41.8599985947876,10|8|8|8,0:2|0:2|1:2|0:2,0:2:0:0:
398,37,20321,6,8,L|334:48,1,41.8599985947876,10|8,0:2|0:2,0:2:0:0:
259,83,20483,2,8,L|195:94,1,41.8599985947876,8|8,1:2|0:2,0:2:0:0:
98,70,20645,1,10,0:2:0:0:
77,66,20726,1,8,0:2:0:0:
57,64,20807,1,8,1:2:0:0:
183,167,20970,1,10,0:2:0:0:
209,198,21051,1,8,0:2:0:0:
208,238,21132,1,10,1:3:0:0:
180,268,21213,1,8,0:3:0:0:
162,300,21294,1,4,0:3:0:0:
161,341,21375,1,4,0:3:0:0:
187,372,21456,6,0,B|265:377|246:335|354:349,1,139.230000849792,4|0,1:2|0:2,0:2:0:0:
349,359,21781,1,2,1:2:0:0:
400,207,21943,1,2,0:2:0:0:
335,127,22105,1,2,1:2:0:0:
371,288,22267,2,0,P|421:272|461:270,1,83.7199971895753,2|0,0:2|1:2,0:2:0:0:
451,269,22591,1,2,0:2:0:0:
276,252,22754,6,0,P|228:241|222:241,2,41.8599985947876,2|0|0,1:2|0:2|0:2,0:2:0:0:
185,172,23078,2,0,P|197:244|209:313,1,125.579995784363,2|0,1:2|0:2,0:2:0:0:
208,319,23402,1,2,1:2:0:0:
185,172,23564,1,2,0:2:0:0:
167,74,23727,2,0,B|199:49|186:0|186:0|210:27|179:96,1,152.880001866211,10|0,0:2|0:2,0:2:0:0:
112,24,24051,6,0,B|199:24|183:56|294:51,1,167.439994379151,0|2,1:2|1:2,0:2:0:0:
388,12,24537,1,2,0:2:0:0:
331,190,24699,1,2,1:2:0:0:
449,139,24862,2,0,P|459:188|468:224,1,83.7199971895753,2|0,0:2|1:2,0:2:0:0:
467,220,25186,1,2,0:2:0:0:
362,101,25348,6,0,B|314:105|280:110|280:110|277:115|277:115|235:121|186:125,1,167.439994379151,2|2,1:2|1:2,0:2:0:0:
67,96,25835,2,0,P|95:145|103:186,1,83.7199971895753,2|0,0:2|1:2,0:2:0:0:
27,321,26159,2,0,P|55:272|86:244,1,83.7199971895753,2|8,0:2|0:2,0:2:0:0:
248,243,26483,1,10,0:2:0:0:
206,244,26564,1,8,0:2:0:0:
165,235,26645,6,0,P|263:224|379:209,1,203.840002488281,4|2,1:2|1:2,0:2:0:0:
470,159,27132,2,0,P|460:226|469:269,1,83.7199971895753,0|0,0:2|1:2,0:2:0:0:
307,136,27456,1,0,0:2:0:0:
378,89,27618,2,0,P|388:156|379:199,1,83.7199971895753,0|0,1:2|0:2,0:2:0:0:
191,62,27943,6,0,P|145:49|132:47,2,41.8599985947876,0|0|0,1:2|0:2|0:2,0:2:0:0:
258,22,28267,1,0,1:2:0:0:
86,77,28429,1,0,0:2:0:0:
244,176,28591,1,0,1:2:0:0:
124,151,28754,1,0,0:2:0:0:
307,225,28916,6,0,B|335:191|316:148|316:148|342:193|330:228,1,152.880001866211,8|0,0:2|0:2,0:2:0:0:
244,176,29240,5,0,1:2:0:0:
404,239,29402,1,8,0:2:0:0:
254,295,29564,1,0,1:2:0:0:
348,357,29727,1,0,1:2:0:0:
345,347,29808,1,0,1:2:0:0:
343,337,29889,2,0,L|335:310,1,23.6599998555908,0|0,1:2|1:2,0:2:0:0:
313,247,30051,2,0,L|306:224,1,23.6599998555908,0|0,1:2|1:2,0:2:0:0:
269,148,30213,6,0,P|267:102|280:151,1,152.880001866211,8|0,0:2|0:2,0:2:0:0:
201,192,30537,6,0,B|295:195|270:154|362:157,1,167.439994379151,0|0,1:2|1:2,0:2:0:0:
177,124,31024,1,10,0:2:0:0:
433,182,31186,1,2,1:2:0:0:
177,124,31348,1,10,0:2:0:0:
433,182,31510,1,2,1:2:0:0:
250,64,31672,1,10,0:2:0:0:
253,85,31753,1,8,0:2:0:0:
257,106,31835,6,0,B|362:92|362:92|374:71|361:34,1,152.880001866211,4|0,1:2|0:2,0:2:0:0:
274,9,32159,2,0,P|222:21|176:31,1,92.8200005665283,8|0,0:2|0:2,0:2:0:0:
78,238,32483,1,2,1:2:0:0:
257,106,32645,1,2,1:2:0:0:
96,12,32808,1,10,0:2:0:0:
11,138,32970,1,2,1:2:0:0:
193,306,33132,6,0,P|180:258|170:207,1,83.7199971895753,2|0,0:2|1:2,0:2:0:0:
79,237,33456,2,0,P|92:285|101:342,1,83.7199971895753,10|0,0:2|0:2,0:2:0:0:
261,229,33781,1,2,1:2:0:0:
6,308,33943,1,2,1:2:0:0:
261,229,34105,2,0,P|307:234|354:241,1,83.7199971895753,10|8,0:2|0:2,0:2:0:0:
437,294,34348,1,8,0:2:0:0:
437,294,34429,6,0,B|420:221|453:236|424:136,1,139.230000849792,0|0,1:2|0:2,0:2:0:0:
431,130,34754,1,10,0:2:0:0:
317,20,34916,2,0,P|335:77|343:109,1,83.7199971895753,2|0,0:2|1:2,0:2:0:0:
244,40,35240,2,0,P|258:84|267:124,1,83.7199971895753,2|8,1:2|0:2,0:2:0:0:
197,256,35564,1,2,1:2:0:0:
197,256,35645,1,0,1:2:0:0:
197,256,35727,6,0,P|283:240|336:253,1,125.579995784363,2|0,1:2|0:2,0:2:0:0:
346,260,36051,1,10,0:2:0:0:
157,312,36213,2,0,P|148:253|130:218,1,83.7199971895753,2|0,0:2|1:2,0:2:0:0:
391,195,36537,2,0,P|400:254|418:289,1,83.7199971895753,2|8,1:2|0:2,0:2:0:0:
292,374,36862,1,10,0:2:0:0:
292,374,36943,1,8,0:2:0:0:
292,374,37024,6,0,B|262:279|305:294|271:165,2,185.640001133057,4|8|0,1:2|0:2|1:2,0:2:0:0:
277,69,37997,1,10,0:2:0:0:
449,103,38159,1,2,1:2:0:0:
277,69,38321,6,0,P|226:79|176:99,1,83.7199971895753,2|0,0:2|1:2,0:2:0:0:
17,50,38645,1,10,0:2:0:0:
100,7,38808,2,0,P|93:57|87:103,1,83.7199971895753,2|0,0:2|1:2,0:2:0:0:
51,317,39132,2,0,P|58:267|64:221,1,83.7199971895753,2|8,1:2|0:2,0:2:0:0:
188,128,39456,1,2,1:2:0:0:
188,128,39537,1,0,1:2:0:0:
188,128,39618,6,0,B|88:109|112:162|6:153,2,185.640001133057,0|8|0,1:2|0:2|1:2,0:2:0:0:
446,159,40591,1,10,0:2:0:0:
411,1,40754,1,2,1:2:0:0:
446,159,40916,6,0,P|438:236|431:313,1,139.230000849792,0|0,0:2|0:2,0:2:0:0:
441,324,41240,1,10,0:2:0:0:
320,130,41402,2,0,P|244:147|191:156,1,92.8200005665283,2|0,0:2|1:2,0:2:0:0:
215,374,41727,2,0,P|291:357|344:348,1,92.8200005665283,2|8,1:2|0:2,0:2:0:0:
255,243,42051,1,2,1:2:0:0:
255,243,42132,1,0,1:2:0:0:
255,243,42213,6,0,L|200:254,1,46.4100002832642,4|0,3:2|0:2,0:2:0:0:
139,218,42375,2,0,L|84:229,1,46.4100002832642,0|0,3:2|0:2,0:2:0:0:
50,309,42537,2,0,B|58:257|58:257|45:226|45:226|59:149,1,139.230000849792,8|0,0:2|0:2,0:2:0:0:
57,147,42862,1,0,1:2:0:0:
150,8,43024,2,0,L|173:116,1,92.8200005665283,0|8,3:2|0:2,0:2:0:0:
341,192,43348,1,0,1:2:0:0:
262,93,43510,6,0,L|239:201,1,92.8200005665283,0|0,3:2|1:2,0:2:0:0:
342,363,43835,1,8,0:2:0:0:
209,260,43997,1,0,3:2:0:0:
195,263,44078,1,0,1:2:0:0:
181,266,44159,1,0,1:2:0:0:
302,284,44321,1,0,1:2:0:0:
85,222,44483,2,0,L|108:330,1,92.8200005665283,8|8,0:2|0:2,0:2:0:0:
88,347,44727,1,8,0:2:0:0:
88,347,44808,5,0,1:2:0:0:
156,122,44970,1,8,0:2:0:0:
320,230,45132,1,0,1:2:0:0:
183,292,45294,1,0,1:2:0:0:
313,83,45456,1,8,0:2:0:0:
359,306,45618,1,8,0:2:0:0:
364,328,45699,1,8,0:2:0:0:
369,351,45780,1,8,0:2:0:0:
229,212,45943,1,2,1:2:0:0:
229,212,46024,1,0,1:2:0:0:
229,212,46105,5,10,0:3:0:0:
453,267,46267,2,0,P|441:206|442:171,1,83.7199971895753,6|0,0:3|1:2,0:2:0:0:
261,86,46591,2,8,P|271:130|273:156,1,41.8599985947876,10|8,0:2|0:2,0:2:0:0:
209,301,46754,5,8,0:2:0:0:
412,204,46916,1,10,0:2:0:0:
132,294,47078,1,10,0:2:0:0:
512,196,47240,1,8,0:2:0:0:
310,375,47402,5,6,1:2:0:0:
412,204,47564,2,0,L|380:103,1,74.6200011386109,2|0,1:2|0:2,0:2:0:0:
305,344,47889,5,2,1:2:0:0:
420,175,48051,2,0,L|384:62,1,83.7199971895753,10|0,0:2|1:2,0:2:0:0:
301,313,48375,5,2,0:2:0:0:
427,149,48537,2,0,L|390:32,1,92.8200005665283,2|0,1:2|0:2,0:2:0:0:
249,205,48862,5,8,0:2:0:0:
271,209,48943,1,8,0:2:0:0:
294,213,49024,2,0,P|298:164|277:129,1,74.6200011386109,0|0,1:2|1:2,0:2:0:0:
130,43,49348,1,0,1:2:0:0:
224,0,49510,2,0,P|217:42|209:91,1,74.6200011386109,8|0,0:2|1:2,0:2:0:0:
157,307,49835,1,8,0:2:0:0:
344,142,49997,5,6,1:2:0:0:
93,222,50159,1,2,1:2:0:0:
413,351,50483,5,2,1:2:0:0:
227,236,50645,1,10,0:2:0:0:
344,142,50808,1,0,1:2:0:0:
232,343,50970,1,2,1:2:0:0:
364,237,51132,5,10,0:2:0:0:
367,251,51213,1,8,0:2:0:0:
371,265,51294,1,8,1:2:0:0:
234,208,51456,1,8,0:2:0:0:
231,222,51537,1,8,0:2:0:0:
227,236,51618,1,8,1:2:0:0:
101,162,51781,5,0,1:2:0:0:
160,318,51943,1,0,1:2:0:0:
101,162,52105,1,0,1:2:0:0:
247,57,52267,1,8,0:2:0:0:
135,0,52429,1,0,1:2:0:0:
272,233,52591,6,0,P|332:210|368:210,1,83.7199971895753,6|0,1:2|3:2,0:2:0:0:
325,32,52916,2,0,P|265:55|229:55,1,83.7199971895753,8|0,0:2|3:2,0:2:0:0:
219,52,53159,1,0,3:2:0:0:
218,53,53240,1,0,1:2:0:0:
404,117,53402,1,0,1:2:0:0:
204,175,53564,2,0,P|157:189|106:202,1,83.7199971895753,10|0,0:2|0:2,0:2:0:0:
329,341,53889,6,0,L|337:295,2,41.8599985947876,2|0|0,1:2|3:2|3:2,3:2:0:0:
390,246,54213,1,8,0:2:0:0:
237,368,54375,2,0,P|177:345|141:345,1,83.7199971895753,2|0,3:2|1:2,0:2:0:0:
230,266,54699,1,0,3:2:0:0:
402,384,54862,2,0,P|462:361|498:361,1,83.7199971895753,8|0,0:2|3:2,0:2:0:0:
296,135,55186,5,2,1:2:0:0:
296,135,55348,1,0,1:2:0:0:
378,288,55510,1,10,0:2:0:0:
287,43,55672,1,8,0:2:0:0:
287,43,55754,1,8,0:2:0:0:
287,43,55835,6,8,L|233:64,1,41.8599985947876,10|8,1:2|0:2,0:2:0:0:
303,225,55997,2,8,L|342:209,1,41.8599985947876,8|8,0:2|0:2,0:2:0:0:
157,117,56159,2,8,L|103:138,1,41.8599985947876,10|8,0:2|0:2,0:2:0:0:
133,226,56321,2,8,L|172:210,1,41.8599985947876,8|8,0:2|0:2,0:2:0:0:
24,187,56483,1,2,1:2:0:0:
24,187,57132,6,0,P|9:153|20:120,1,55.5099977130586,14|0,0:3|0:2,0:2:0:0:
130,20,57294,2,0,P|122:88|116:143,1,111.930001707916,14|0,0:3|0:2,0:2:0:0:
24,187,57618,6,0,B|121:149|121:149|148:177|131:220,1,166.529993139176,6|0,1:2|0:2,0:2:0:0:
122,227,57943,1,2,1:2:0:0:
315,161,58105,2,0,P|370:170|423:179,1,92.8200005665283,10|0,0:2|0:2,0:2:0:0:
287,74,58429,1,2,1:2:0:0:
208,277,58591,1,2,1:2:0:0:
424,258,58754,1,10,0:2:0:0:
315,161,58916,1,2,0:2:0:0:
230,379,59078,5,2,1:2:0:0:
297,254,59240,2,0,P|221:276|177:276,1,92.8200005665283,2|8,1:2|0:2,0:2:0:0:
353,352,59564,1,10,0:2:0:0:
375,345,59645,1,8,0:2:0:0:
398,341,59726,1,8,0:2:0:0:
207,276,59889,1,2,1:2:0:0:
382,140,60051,1,8,0:2:0:0:
297,254,60213,6,0,B|274:166|316:186|280:60,1,166.529993139176,6|0,1:2|0:2,0:2:0:0:
281,70,60537,1,2,1:2:0:0:
114,200,60699,1,10,0:2:0:0:
114,200,60862,1,0,0:2:0:0:
202,99,61024,1,2,1:2:0:0:
21,225,61186,1,2,1:2:0:0:
202,99,61348,1,10,0:2:0:0:
21,225,61510,1,2,1:2:0:0:
201,264,61672,5,10,0:2:0:0:
114,200,61835,2,0,P|106:262|98:301,1,92.8200005665283,2|0,1:2|1:2,0:2:0:0:
288,328,62159,2,0,P|296:266|304:227,1,92.8200005665283,10|0,0:2|1:2,0:2:0:0:
340,58,62483,1,2,1:2:0:0:
259,120,62645,1,10,0:2:0:0:
278,144,62726,1,8,0:2:0:0:
306,159,62807,1,8,0:2:0:0:
338,162,62888,1,8,0:2:0:0:
369,152,62970,5,10,0:3:0:0:
161,63,63132,1,8,0:3:0:0:
256,292,63294,6,0,B|280:190|280:190|260:155|198:171,1,166.529993139176,12|0,0:2|0:2,0:2:0:0:
197,189,63618,1,6,0:3:0:0:
380,267,63781,1,4,0:3:0:0:
122,297,63943,6,0,B|100:330|127:378|127:378|172:364|176:304,1,166.529993139176,12|0,0:2|0:2,0:2:0:0:
172,288,64267,1,6,0:3:0:0:
0,342,64429,1,4,0:3:0:0:
289,358,64591,6,0,B|308:269|258:288|290:156,1,166.529993139176,12|0,0:2|0:2,0:2:0:0:
289,164,64916,1,2,1:2:0:0:
134,215,65078,1,0,1:2:0:0:
397,296,65240,6,0,P|433:252|386:144,1,166.529993139176,12|0,0:2|0:2,0:2:0:0:
409,129,65564,6,0,P|356:138|313:147,1,92.8200005665283,6|0,1:2|1:2,0:2:0:0:
188,134,65889,2,0,P|142:143|96:150,1,92.8200005665283,8|0,0:2|0:2,0:2:0:0:
133,61,66213,1,2,1:2:0:0:
166,220,66375,1,2,1:2:0:0:
133,61,66537,1,8,0:2:0:0:
166,220,66699,6,0,P|174:274|181:318,1,92.8200005665283,2|0,1:2|0:2,0:2:0:0:
179,311,67024,1,10,0:3:0:0:
228,146,67186,1,8,0:2:0:0:
254,128,67267,1,0,1:2:0:0:
286,124,67348,1,2,1:2:0:0:
317,131,67429,1,0,1:2:0:0:
342,151,67510,1,8,0:2:0:0:
369,169,67591,1,0,1:2:0:0:
400,174,67672,1,2,1:2:0:0:
432,166,67753,1,0,1:2:0:0:
456,146,67835,2,0,L|446:89,1,46.4100002832642,8|8,0:2|0:2,0:2:0:0:
295,67,67997,6,0,B|256:180|256:180|276:213|326:206,1,166.529993139176,6|0,1:2|0:2,0:2:0:0:
316,192,68321,1,2,1:2:0:0:
184,109,68483,2,0,P|132:118|73:128,1,92.8200005665283,10|0,0:2|0:2,0:2:0:0:
202,219,68808,1,2,1:2:0:0:
108,45,68970,1,2,1:2:0:0:
0,159,69132,1,10,0:2:0:0:
101,225,69294,1,2,0:2:0:0:
6,2,69456,5,2,1:2:0:0:
101,225,69618,2,0,P|113:287|105:331,1,92.8200005665283,2|8,1:2|0:2,0:2:0:0:
298,282,69943,2,0,P|286:220|294:176,1,92.8200005665283,2|0,0:2|1:2,0:2:0:0:
199,257,70267,1,2,1:2:0:0:
380,218,70429,1,8,0:2:0:0:
223,358,70591,6,0,B|315:334|295:392|400:363,1,166.529993139176,6|0,1:2|0:2,0:2:0:0:
402,353,70916,1,2,1:2:0:0:
204,135,71078,1,10,0:2:0:0:
204,135,71240,1,0,0:2:0:0:
292,268,71402,1,2,1:2:0:0:
306,167,71564,1,2,1:2:0:0:
320,66,71727,1,10,0:2:0:0:
409,193,71889,1,10,0:2:0:0:
409,193,71970,1,8,0:2:0:0:
409,193,72051,5,2,1:2:0:0:
173,88,72213,2,0,P|171:160|161:197,1,92.8200005665283,2|0,1:2|1:2,0:2:0:0:
443,245,72537,2,0,P|445:173|455:136,1,92.8200005665283,10|0,0:2|1:2,0:2:0:0:
306,167,72862,1,2,1:2:0:0:
404,348,73024,1,10,0:2:0:0:
404,348,73105,1,8,0:2:0:0:
404,348,73186,1,8,0:2:0:0:
404,348,73267,1,8,0:2:0:0:
404,348,73348,5,10,0:3:0:0:
196,266,73510,1,8,0:3:0:0:
347,384,73672,6,0,B|375:270|375:270|351:245|317:256,1,166.529993139176,12|0,0:2|0:2,0:2:0:0:
309,269,73997,1,6,0:3:0:0:
254,58,74159,1,4,0:3:0:0:
368,152,74321,6,0,B|280:149|295:190|181:185,1,166.529993139176,12|0,0:2|0:2,0:2:0:0:
181,176,74645,1,6,0:3:0:0:
330,252,74808,1,4,0:3:0:0:
117,113,74970,6,0,B|82:122|73:153|73:153|119:257,1,166.529993139176,12|0,0:2|0:2,0:2:0:0:
125,270,75294,1,2,1:2:0:0:
0,206,75456,1,0,1:2:0:0:
128,363,75618,6,0,P|200:334|291:340,1,166.529993139176,12|0,0:2|0:2,0:2:0:0:
316,363,75943,6,0,P|321:317|326:263,1,92.8200005665283,6|0,1:2|1:2,0:2:0:0:
300,157,76267,2,0,P|305:110|309:64,1,92.8200005665283,8|0,0:2|0:2,0:2:0:0:
398,123,76591,1,2,1:2:0:0:
214,99,76754,1,2,1:2:0:0:
398,123,76916,1,10,0:2:0:0:
214,99,77078,6,0,P|157:106|110:110,1,92.8200005665283,2|0,1:2|0:2,0:2:0:0:
145,340,77402,2,0,P|202:333|249:329,1,92.8200005665283,10|8,0:3|0:2,0:2:0:0:
319,180,77727,1,10,0:2:0:0:
296,184,77808,1,8,0:2:0:0:
273,188,77889,1,8,0:2:0:0:
149,235,78051,1,10,0:2:0:0:
126,239,78132,1,8,0:2:0:0:
103,243,78213,1,8,0:2:0:0:
34,204,78537,6,0,B|132:190|121:229|213:210,1,166.529993139176,6|0,1:2|0:2,0:2:0:0:
221,196,78862,2,0,P|244:251|232:288,1,92.8200005665283,8|0,0:2|0:2,0:2:0:0:
166,371,79186,1,2,1:2:0:0:
318,330,79348,1,2,0:2:0:0:
166,371,79510,1,2,1:2:0:0:
318,330,79672,6,0,P|359:335|417:356,1,83.7199971895753,2|0,0:2|1:2,0:2:0:0:
223,195,79997,2,0,P|198:232|172:261,1,83.7199971895753,2|0,0:2|1:2,0:2:0:0:
378,219,80321,2,0,P|338:137|312:51,1,167.439994379151,2|0,0:2|0:2,0:2:0:0:
315,64,80808,2,0,P|265:97|230:88,1,83.7199971895753,2|0,1:2|0:2,0:2:0:0:
69,79,81132,6,8,L|82:131,3,41.8599985947876,10|8|8|8,1:2|0:2|0:2|0:2,0:2:0:0:
166,129,81456,2,8,L|153:77,3,41.8599985947876,8|8|8|8,1:2|0:2|0:2|0:2,0:2:0:0:
58,198,81781,2,8,L|71:250,1,41.8599985947876,10|8,1:2|0:2,0:2:0:0:
222,245,81943,2,8,L|211:204,1,41.8599985947876,10|8,0:2|0:2,0:2:0:0:
122,313,82105,2,8,L|135:365,1,41.8599985947876,10|8,1:2|0:2,0:2:0:0:
205,361,82267,2,8,L|194:320,1,41.8599985947876,10|8,0:2|0:2,0:2:0:0:
29,321,82429,5,8,1:2:0:0:
299,341,82591,1,10,1:2:0:0:
58,198,83078,5,8,0:3:0:0:
198,167,83240,2,0,B|239:131|213:73|213:73|214:130|177:142,1,163.800003999024,12|0,0:3|0:2,0:2:0:0:
35,124,83727,6,0,B|179:52|264:159|222:186|336:282|474:206,1,480.480014663086,6|0,1:2|0:2,0:2:0:0:
