osu file format v14

[General]
AudioFilename: audio.mp3
AudioLeadIn: 0
PreviewTime: 58998
Countdown: 0
SampleSet: Normal
StackLeniency: 0.7
Mode: 1
LetterboxInBreaks: 0
WidescreenStoryboard: 0

[Editor]
DistanceSpacing: 0.5
BeatDivisor: 4
GridSize: 32
TimelineZoom: 1.6

[Metadata]
Title:ANOTHER REAL
TitleUnicode:ANOTHER REAL
Artist:Suzuki Konomi
ArtistUnicode:鈴木このみ
Creator:Faputa
Version:MUZUKASHII
Source:Witch's Weapon -魔女兵器-
Tags:Majo Heiki 4thアルバム Fourth Album 高橋修平 Takahashi Shuhei 月丘りあ子 Tsukioka Riako Video Game Japanese Jrock J-rock OP Opening Short Ver. Version Shake Up!
BeatmapID:2808493
BeatmapSetID:1357075

[Difficulty]
HPDrainRate:6.5
CircleSize:2
OverallDifficulty:5
ApproachRate:10
SliderMultiplier:1.4
SliderTickRate:1

[Events]
//Background and Video events
0,0,"weapon.jpg",0,60
//Break Periods
//Storyboard Layer 0 (Background)
//Storyboard Layer 1 (Fail)
//Storyboard Layer 2 (Pass)
//Storyboard Layer 3 (Foreground)
//Storyboard Layer 4 (Overlay)
//Storyboard Sound Samples

[TimingPoints]
134,324.324324324324,4,1,0,70,1,0
6377,-100,4,1,0,75,0,0
11890,-100,4,1,0,80,0,0
14323,-100,4,1,0,85,0,0
24863,-100,4,1,0,75,0,0
35079,-100,4,1,0,80,0,0
45620,-100,4,1,0,70,0,0
50647,-100,4,1,0,85,0,0
55998,-100,4,1,0,65,0,0
57296,-100,4,1,0,75,0,0
57782,-100,4,1,0,80,0,0
58269,-100,4,1,0,85,0,0
59566,-100,4,1,0,95,0,0
59647,-100,4,1,0,95,0,1
83161,-100,4,1,0,95,0,0
83242,-100,4,1,0,70,0,0
85512,-100,4,1,0,75,0,0
85836,-100,4,1,0,80,0,0
88269,-100,4,1,0,85,0,0
92566,-100,4,1,0,80,0,0
92971,-100,4,1,0,75,0,0

[HitObjects]
256,192,1269,5,8,0:0:0:0:
256,192,1755,1,8,0:0:0:0:
256,192,2404,1,8,0:0:0:0:
256,192,2566,1,0,0:0:0:0:
256,192,3052,1,8,0:0:0:0:
256,192,3701,1,8,0:0:0:0:
256,192,3863,1,8,0:0:0:0:
256,192,4350,1,8,0:0:0:0:
256,192,4512,1,0,0:0:0:0:
256,192,4836,1,8,0:0:0:0:
256,192,5161,1,0,0:0:0:0:
256,192,5485,1,8,0:0:0:0:
256,192,5647,1,0,0:0:0:0:
256,192,5971,1,0,0:0:0:0:
256,192,6296,1,8,0:0:0:0:
256,192,6458,1,4,0:0:0:0:
256,192,6944,1,8,0:0:0:0:
256,192,7269,1,0,0:0:0:0:
256,192,7593,1,8,0:0:0:0:
256,192,7755,1,4,0:0:0:0:
256,192,8242,1,8,0:0:0:0:
256,192,8566,1,0,0:0:0:0:
256,192,8728,1,0,0:0:0:0:
256,192,9052,1,12,0:0:0:0:
256,192,9539,1,8,0:0:0:0:
256,192,10188,1,8,0:0:0:0:
256,192,10350,1,8,0:0:0:0:
256,192,10836,1,8,0:0:0:0:
256,192,11485,1,8,0:0:0:0:
256,192,11647,1,4,0:0:0:0:
256,192,11971,1,0,0:0:0:0:
256,192,12133,1,0,0:0:0:0:
256,192,12296,1,0,0:0:0:0:
256,192,12458,1,0,0:0:0:0:
256,192,12620,1,8,0:0:0:0:
256,192,12782,1,8,0:0:0:0:
256,192,12944,1,8,0:0:0:0:
256,192,13269,1,0,0:0:0:0:
256,192,13593,1,8,0:0:0:0:
256,192,13674,1,8,0:0:0:0:
256,192,13755,1,8,0:0:0:0:
256,192,13917,1,0,0:0:0:0:
256,192,14079,1,0,0:0:0:0:
256,192,14404,1,12,0:0:0:0:
256,192,14728,1,8,0:0:0:0:
256,192,15052,1,0,0:0:0:0:
256,192,15215,1,0,0:0:0:0:
256,192,15377,1,8,0:0:0:0:
256,192,15539,1,4,0:0:0:0:
256,192,15863,1,8,0:0:0:0:
256,192,16025,1,8,0:0:0:0:
256,192,16188,1,0,0:0:0:0:
256,192,16269,1,0,0:0:0:0:
256,192,16350,1,0,0:0:0:0:
256,192,16512,1,8,0:0:0:0:
256,192,16998,1,12,0:0:0:0:
256,192,17323,1,8,0:0:0:0:
256,192,17647,1,0,0:0:0:0:
256,192,17809,1,8,0:0:0:0:
256,192,17971,1,8,0:0:0:0:
256,192,18133,1,4,0:0:0:0:
256,192,18458,1,0,0:0:0:0:
256,192,18620,1,8,0:0:0:0:
256,192,18782,1,8,0:0:0:0:
256,192,18863,1,8,0:0:0:0:
256,192,18944,1,8,0:0:0:0:
256,192,19106,1,0,0:0:0:0:
256,192,19593,1,12,0:0:0:0:
256,192,19917,1,8,0:0:0:0:
256,192,20242,1,0,0:0:0:0:
256,192,20404,1,8,0:0:0:0:
256,192,20566,1,0,0:0:0:0:
256,192,20728,1,4,0:0:0:0:
256,192,21052,1,0,0:0:0:0:
256,192,21215,1,8,0:0:0:0:
256,192,21377,1,0,0:0:0:0:
256,192,21458,1,0,0:0:0:0:
256,192,21539,1,0,0:0:0:0:
256,192,21701,1,8,0:0:0:0:
256,192,22188,1,12,0:0:0:0:
256,192,22512,1,8,0:0:0:0:
256,192,22674,1,0,0:0:0:0:
256,192,22836,1,8,0:0:0:0:
256,192,22998,1,8,0:0:0:0:
256,192,23161,1,0,0:0:0:0:
256,192,23323,1,8,0:0:0:0:
256,192,23647,1,8,0:0:0:0:
256,192,23971,1,8,0:0:0:0:
256,192,24052,1,8,0:0:0:0:
256,192,24133,1,8,0:0:0:0:
256,192,24296,1,0,0:0:0:0:
256,192,24458,1,8,0:0:0:0:
256,192,24782,1,12,0:0:0:0:
256,192,25269,1,8,0:0:0:0:
256,192,25755,1,8,0:0:0:0:
256,192,25917,1,8,0:0:0:0:
256,192,26242,1,0,0:0:0:0:
256,192,26566,1,8,0:0:0:0:
256,192,26728,1,0,0:0:0:0:
256,192,27052,1,8,0:0:0:0:
256,192,27215,1,0,0:0:0:0:
256,192,27377,1,0,0:0:0:0:
256,192,28350,1,0,0:0:0:0:
256,192,28836,1,0,0:0:0:0:
256,192,28998,1,8,0:0:0:0:
256,192,29161,1,8,0:0:0:0:
256,192,29485,1,0,0:0:0:0:
256,192,29647,1,0,0:0:0:0:
256,192,29971,1,12,0:0:0:0:
256,192,30458,1,8,0:0:0:0:
256,192,30944,1,0,0:0:0:0:
256,192,31106,1,0,0:0:0:0:
256,192,31431,1,8,0:0:0:0:
256,192,31755,1,0,0:0:0:0:
256,192,32079,1,0,0:0:0:0:
256,192,32242,1,8,0:0:0:0:
256,192,32404,1,0,0:0:0:0:
256,192,32566,1,8,0:0:0:0:
256,192,33052,1,8,0:0:0:0:
256,192,33133,1,8,0:0:0:0:
256,192,33215,1,8,0:0:0:0:
256,192,33539,1,0,0:0:0:0:
256,192,33701,1,8,0:0:0:0:
256,192,34674,1,8,0:0:0:0:
256,192,34755,1,8,0:0:0:0:
256,192,34836,1,8,0:0:0:0:
256,192,35161,1,4,0:0:0:0:
256,192,35485,1,8,0:0:0:0:
256,192,35647,1,0,0:0:0:0:
256,192,35971,1,0,0:0:0:0:
256,192,36133,1,8,0:0:0:0:
256,192,36296,1,8,0:0:0:0:
256,192,36620,1,0,0:0:0:0:
256,192,36782,1,8,0:0:0:0:
256,192,36944,1,8,0:0:0:0:
256,192,37106,1,0,0:0:0:0:
256,192,37269,1,8,0:0:0:0:
256,192,37593,1,8,0:0:0:0:
256,192,37755,1,0,0:0:0:0:
256,192,37917,1,0,0:0:0:0:
256,192,38079,1,8,0:0:0:0:
256,192,38566,1,0,0:0:0:0:
256,192,38728,1,8,0:0:0:0:
256,192,38890,1,8,0:0:0:0:
256,192,39052,1,0,0:0:0:0:
256,192,39377,1,8,0:0:0:0:
256,192,39701,1,0,0:0:0:0:
256,192,39863,1,8,0:0:0:0:
256,192,40025,1,0,0:0:0:0:
256,192,40188,1,8,0:0:0:0:
256,192,40350,1,4,0:0:0:0:
256,192,40674,1,8,0:0:0:0:
256,192,40836,1,8,0:0:0:0:
256,192,40998,1,0,0:0:0:0:
256,192,41323,1,8,0:0:0:0:
256,192,41485,1,8,0:0:0:0:
256,192,41647,1,0,0:0:0:0:
256,192,41809,1,8,0:0:0:0:
256,192,42133,1,8,0:0:0:0:
256,192,42296,1,0,0:0:0:0:
256,192,42458,1,8,0:0:0:0:
256,192,42782,1,8,0:0:0:0:
256,192,42944,1,8,0:0:0:0:
256,192,43269,1,0,0:0:0:0:
256,192,43431,1,12,0:0:0:0:
256,192,43917,1,12,0:0:0:0:
256,192,44242,1,0,0:0:0:0:
256,192,44404,1,8,0:0:0:0:
256,192,44728,1,8,0:0:0:0:
256,192,44809,1,8,0:0:0:0:
256,192,44890,1,8,0:0:0:0:
256,192,45052,1,0,0:0:0:0:
256,192,45215,1,8,0:0:0:0:
256,192,45377,1,0,0:0:0:0:
256,192,45539,1,12,0:0:0:0:
256,192,45863,1,8,0:0:0:0:
256,192,46188,1,8,0:0:0:0:
256,192,46512,1,8,0:0:0:0:
256,192,46836,1,0,0:0:0:0:
256,192,47161,1,0,0:0:0:0:
256,192,47485,1,0,0:0:0:0:
256,192,47647,1,8,0:0:0:0:
256,192,47809,1,0,0:0:0:0:
256,192,48133,1,8,0:0:0:0:
256,192,48458,1,8,0:0:0:0:
256,192,48620,1,8,0:0:0:0:
256,192,48944,1,0,0:0:0:0:
256,192,49269,1,8,0:0:0:0:
256,192,49593,1,8,0:0:0:0:
256,192,49917,1,0,0:0:0:0:
256,192,50079,1,8,0:0:0:0:
256,192,50242,1,0,0:0:0:0:
256,192,50728,1,4,0:0:0:0:
256,192,51215,1,8,0:0:0:0:
256,192,51296,1,8,0:0:0:0:
256,192,51377,1,8,0:0:0:0:
256,192,51701,1,0,0:0:0:0:
256,192,51863,1,8,0:0:0:0:
256,192,52188,1,8,0:0:0:0:
256,192,52350,1,0,0:0:0:0:
256,192,52674,1,12,0:0:0:0:
256,192,52998,1,8,0:0:0:0:
256,192,53079,1,8,0:0:0:0:
256,192,53161,1,8,0:0:0:0:
256,192,53323,1,4,0:0:0:0:
256,192,53809,1,0,0:0:0:0:
256,192,53890,1,0,0:0:0:0:
256,192,53971,1,0,0:0:0:0:
256,192,54296,1,0,0:0:0:0:
256,192,54458,1,8,0:0:0:0:
256,192,54782,1,8,0:0:0:0:
256,192,54944,1,8,0:0:0:0:
256,192,55106,1,0,0:0:0:0:
256,192,55269,1,8,0:0:0:0:
256,192,55350,1,8,0:0:0:0:
256,192,55431,1,8,0:0:0:0:
256,192,55593,1,0,0:0:0:0:
256,192,55674,1,0,0:0:0:0:
256,192,55755,1,0,0:0:0:0:
256,192,55917,1,8,0:0:0:0:
256,192,57377,1,8,0:0:0:0:
256,192,57539,1,8,0:0:0:0:
256,192,57701,1,0,0:0:0:0:
256,192,57863,1,12,0:0:0:0:
256,192,58188,1,8,0:0:0:0:
256,192,58350,1,4,0:0:0:0:
256,192,58674,1,8,0:0:0:0:
256,192,58755,1,8,0:0:0:0:
256,192,58836,1,8,0:0:0:0:
256,192,59161,1,0,0:0:0:0:
256,192,59647,1,12,0:0:0:0:
256,192,59971,1,0,0:0:0:0:
256,192,60133,1,8,0:0:0:0:
256,192,60458,1,0,0:0:0:0:
256,192,60620,1,8,0:0:0:0:
256,192,60782,1,0,0:0:0:0:
256,192,60944,1,8,0:0:0:0:
256,192,61269,1,8,0:0:0:0:
256,192,61431,1,8,0:0:0:0:
256,192,61755,1,0,0:0:0:0:
256,192,62079,1,8,0:0:0:0:
256,192,62242,1,4,0:0:0:0:
256,192,62728,1,8,0:0:0:0:
256,192,62890,1,0,0:0:0:0:
256,192,63215,1,8,0:0:0:0:
256,192,63377,1,0,0:0:0:0:
256,192,63539,1,12,0:0:0:0:
256,192,63863,1,0,0:0:0:0:
256,192,64025,1,8,0:0:0:0:
256,192,64188,1,0,0:0:0:0:
256,192,64269,1,0,0:0:0:0:
256,192,64350,1,0,0:0:0:0:
256,192,64512,1,0,0:0:0:0:
256,192,64674,1,8,0:0:0:0:
256,192,64836,1,4,0:0:0:0:
256,192,65323,1,8,0:0:0:0:
256,192,65647,1,0,0:0:0:0:
256,192,65809,1,0,0:0:0:0:
256,192,65971,1,8,0:0:0:0:
256,192,66133,1,0,0:0:0:0:
256,192,66458,1,0,0:0:0:0:
256,192,66620,1,8,0:0:0:0:
256,192,66782,1,0,0:0:0:0:
256,192,66863,1,0,0:0:0:0:
256,192,66944,1,0,0:0:0:0:
256,192,67106,1,0,0:0:0:0:
256,192,67269,1,8,0:0:0:0:
256,192,67431,1,0,0:0:0:0:
256,192,67755,1,0,0:0:0:0:
256,192,67917,1,8,0:0:0:0:
256,192,68079,1,0,0:0:0:0:
256,192,68242,1,12,0:0:0:0:
256,192,68566,1,8,0:0:0:0:
256,192,68728,1,4,0:0:0:0:
256,192,69052,1,8,0:0:0:0:
256,192,69215,1,8,0:0:0:0:
256,192,69377,1,0,0:0:0:0:
256,192,69539,1,8,0:0:0:0:
256,192,69620,1,8,0:0:0:0:
256,192,69701,1,8,0:0:0:0:
256,192,69863,1,0,0:0:0:0:
256,192,70025,1,12,0:0:0:0:
256,192,70350,1,0,0:0:0:0:
256,192,70512,1,8,0:0:0:0:
256,192,70836,1,8,0:0:0:0:
256,192,70998,1,8,0:0:0:0:
256,192,71161,1,0,0:0:0:0:
256,192,71323,1,8,0:0:0:0:
256,192,71647,1,8,0:0:0:0:
256,192,71809,1,8,0:0:0:0:
256,192,72133,1,0,0:0:0:0:
256,192,72458,1,8,0:0:0:0:
256,192,72620,1,4,0:0:0:0:
256,192,73106,1,0,0:0:0:0:
256,192,73269,1,8,0:0:0:0:
256,192,73593,1,8,0:0:0:0:
256,192,73755,1,0,0:0:0:0:
256,192,73917,1,12,0:0:0:0:
256,192,74242,1,0,0:0:0:0:
256,192,74404,1,8,0:0:0:0:
256,192,74566,1,0,0:0:0:0:
256,192,74728,1,8,0:0:0:0:
256,192,74890,1,8,0:0:0:0:
256,192,74971,1,8,0:0:0:0:
256,192,75052,1,8,0:0:0:0:
256,192,75215,1,4,0:0:0:0:
256,192,75701,1,8,0:0:0:0:
256,192,75863,1,0,0:0:0:0:
256,192,76025,1,8,0:0:0:0:
256,192,76350,1,8,0:0:0:0:
256,192,76512,1,4,0:0:0:0:
256,192,76836,1,0,0:0:0:0:
256,192,76998,1,8,0:0:0:0:
256,192,77161,1,8,0:0:0:0:
256,192,77323,1,0,0:0:0:0:
256,192,77485,1,0,0:0:0:0:
256,192,77809,1,12,0:0:0:0:
256,192,78133,1,0,0:0:0:0:
256,192,78296,1,8,0:0:0:0:
256,192,78620,1,0,0:0:0:0:
256,192,78782,1,0,0:0:0:0:
256,192,78944,1,8,0:0:0:0:
256,192,79106,1,12,0:0:0:0:
256,192,79431,1,0,0:0:0:0:
256,192,79593,1,8,0:0:0:0:
256,192,79917,1,8,0:0:0:0:
256,192,80079,1,0,0:0:0:0:
256,192,80242,1,8,0:0:0:0:
256,192,80404,1,12,0:0:0:0:
256,192,80890,1,8,0:0:0:0:
256,192,81052,1,0,0:0:0:0:
256,192,81215,1,8,0:0:0:0:
256,192,81296,1,8,0:0:0:0:
256,192,81377,1,8,0:0:0:0:
256,192,81539,1,0,0:0:0:0:
256,192,81620,1,0,0:0:0:0:
256,192,81701,1,0,0:0:0:0:
256,192,81863,1,8,0:0:0:0:
256,192,82106,1,8,0:0:0:0:
256,192,82350,1,8,0:0:0:0:
256,192,82512,1,0,0:0:0:0:
256,192,82755,1,0,0:0:0:0:
256,192,82998,1,0,0:0:0:0:
256,192,83161,1,12,0:0:0:0:
256,192,84296,1,0,0:0:0:0:
256,192,84620,1,8,0:0:0:0:
256,192,85431,1,8,0:0:0:0:
256,192,85593,1,12,0:0:0:0:
256,192,85917,1,0,0:0:0:0:
256,192,86079,1,0,0:0:0:0:
256,192,86242,1,0,0:0:0:0:
256,192,86404,1,0,0:0:0:0:
256,192,86566,1,8,0:0:0:0:
256,192,86728,1,8,0:0:0:0:
256,192,86890,1,8,0:0:0:0:
256,192,87215,1,0,0:0:0:0:
256,192,87539,1,8,0:0:0:0:
256,192,87620,1,8,0:0:0:0:
256,192,87701,1,8,0:0:0:0:
256,192,87863,1,0,0:0:0:0:
256,192,88025,1,0,0:0:0:0:
256,192,88350,1,12,0:0:0:0:
256,192,88674,1,8,0:0:0:0:
256,192,88998,1,8,0:0:0:0:
256,192,89161,1,0,0:0:0:0:
256,192,89323,1,8,0:0:0:0:
256,192,89485,1,4,0:0:0:0:
256,192,89809,1,8,0:0:0:0:
256,192,89971,1,8,0:0:0:0:
256,192,90133,1,0,0:0:0:0:
256,192,90215,1,0,0:0:0:0:
256,192,90296,1,0,0:0:0:0:
256,192,90458,1,8,0:0:0:0:
256,192,90944,1,12,0:0:0:0:
256,192,91269,1,8,0:0:0:0:
256,192,91593,1,0,0:0:0:0:
256,192,91755,1,0,0:0:0:0:
256,192,91917,1,8,0:0:0:0:
256,192,92079,1,8,0:0:0:0:
256,192,92404,1,8,0:0:0:0:
256,192,92728,1,8,0:0:0:0:
256,192,92809,1,8,0:0:0:0:
256,192,92890,1,8,0:0:0:0:
256,192,93052,1,0,0:0:0:0:
256,192,93215,1,0,0:0:0:0:
256,192,93377,1,0,0:0:0:0:
