osu file format v14

[General]
AudioFilename: audio.ogg
AudioLeadIn: 0
PreviewTime: 16735
Countdown: 0
SampleSet: Normal
StackLeniency: 0.7
Mode: 3
LetterboxInBreaks: 0
SpecialStyle: 0
WidescreenStoryboard: 1

[Editor]
Bookmarks: 17391,33768,58333
DistanceSpacing: 2.2
BeatDivisor: 12
GridSize: 4
TimelineZoom: 2.1

[Metadata]
Title:Snowman
TitleUnicode:スノーマン
Artist:Suzuki Keiichi, Tanaka Hirokazu
ArtistUnicode:鈴木慶一, 田中宏和
Creator:Ulis-
Version:Shiro's 4K Snowball
Source:MOTHER2 ギーグの逆襲
Tags:chiptune video game relax theme of winters snes jeff ness super nintendo mother series Earthbound 16-bit instrumental track 5 Gyigas' Counterattack original soundtrack ost MOTHER2ギーグの逆襲 Shiro_122 famicom MHCL-342 gigu no gyakushu gyiyg strikes back MOTHER2 ギーグの逆襲 MOTHER 2ギーグの逆襲 MOTHER2 ギーグの逆襲
BeatmapID:4411834
BeatmapSetID:2098977

[Difficulty]
HPDrainRate:7.3
CircleSize:4
OverallDifficulty:6.9
ApproachRate:5
SliderMultiplier:1.4
SliderTickRate:1

[Events]
//Background and Video events
0,0,"987927.jpg",0,0
//Break Periods
//Storyboard Layer 0 (Background)
//Storyboard Layer 1 (Fail)
//Storyboard Layer 2 (Pass)
//Storyboard Layer 3 (Foreground)
//Storyboard Layer 4 (Overlay)
//Storyboard Sound Samples

[TimingPoints]
353,1023.89078498294,2,1,1,10,1,0

[HitObjects]
64,192,353,128,0,1888:0:0:0:0:
192,192,353,128,0,864:0:0:0:0:
320,192,1035,128,0,1376:0:0:0:0:
448,192,1376,128,0,1888:0:0:0:0:
64,192,2059,128,0,2400:0:0:0:0:
448,192,2059,128,0,2400:0:0:0:0:
192,192,2400,128,0,3083:0:0:0:0:
320,192,2400,128,0,3254:0:0:0:0:
64,192,3083,1,0,0:0:0:0:
192,192,3168,1,0,0:0:0:0:
448,192,3254,1,0,0:0:0:0:
320,192,3339,1,0,0:0:0:0:
64,192,3424,128,0,3936:0:0:0:0:
192,192,3424,128,0,4277:0:0:0:0:
320,192,4107,128,0,4448:0:0:0:0:
64,192,4448,128,0,5984:0:0:0:0:
448,192,4448,128,0,4960:0:0:0:0:
320,192,5131,128,0,5472:0:0:0:0:
192,192,5472,128,0,5984:0:0:0:0:
64,192,6155,128,0,6496:0:0:0:0:
448,192,6155,128,0,6496:0:0:0:0:
192,192,6496,128,0,7178:0:0:0:0:
320,192,6496,128,0,7349:0:0:0:0:
64,192,7178,1,0,0:0:0:0:
192,192,7264,1,0,0:0:0:0:
448,192,7349,1,0,0:0:0:0:
320,192,7434,1,0,0:0:0:0:
64,192,7520,128,0,7690:0:0:0:0:
192,192,7520,128,0,8032:0:0:0:0:
320,192,7861,128,0,8373:0:0:0:0:
448,192,7861,128,0,8032:0:0:0:0:
64,192,8202,128,0,8373:0:0:0:0:
448,192,8202,128,0,8544:0:0:0:0:
64,192,8544,128,0,9056:0:0:0:0:
192,192,8544,128,0,10250:0:0:0:0:
320,192,9226,128,0,9568:0:0:0:0:
64,192,9568,128,0,10591:0:0:0:0:
448,192,10250,1,0,0:0:0:0:
320,192,10591,128,0,10762:0:0:0:0:
448,192,10591,1,0,0:0:0:0:
192,192,10933,1,0,0:0:0:0:
320,192,10933,128,0,11103:0:0:0:0:
64,192,11274,128,0,11615:0:0:0:0:
448,192,11274,1,0,0:0:0:0:
192,192,11445,1,0,0:0:0:0:
320,192,11615,128,0,12127:0:0:0:0:
448,192,11615,1,0,0:0:0:0:
192,192,11786,1,0,0:0:0:0:
64,192,11957,1,0,0:0:0:0:
448,192,12127,1,0,0:0:0:0:
192,192,12298,128,0,12639:0:0:0:0:
320,192,12469,1,0,0:0:0:0:
64,192,12639,128,0,14346:0:0:0:0:
448,192,12639,1,0,0:0:0:0:
320,192,12810,1,0,0:0:0:0:
192,192,12980,1,0,0:0:0:0:
448,192,13151,1,0,0:0:0:0:
192,192,13322,1,0,0:0:0:0:
320,192,13492,1,0,0:0:0:0:
448,192,13663,1,0,0:0:0:0:
320,192,13834,1,0,0:0:0:0:
192,192,14004,1,0,0:0:0:0:
448,192,14175,1,0,0:0:0:0:
192,192,14346,1,0,0:0:0:0:
320,192,14516,1,0,0:0:0:0:
64,192,14687,128,0,15370:0:0:0:15:LR_Sleigh Bell.wav
320,192,14687,1,0,0:0:0:0:
448,192,14858,1,0,0:0:0:0:
192,192,15028,1,0,0:0:0:0:
320,192,15199,1,0,0:0:0:0:
192,192,15370,128,0,15540:0:0:0:0:
320,192,15540,1,0,0:0:0:0:
64,192,15711,1,0,0:0:0:15:LR_Sleigh Bell.wav
448,192,15711,128,0,16393:0:0:0:0:
192,192,15882,1,0,0:0:0:0:
320,192,16052,1,0,0:0:0:0:
64,192,16223,1,0,0:0:0:0:
320,192,16393,128,0,16735:0:0:0:0:
448,192,16564,1,0,0:0:0:0:
64,192,16735,128,0,18271:0:0:0:15:LR_Sleigh Bell.wav
192,192,16735,128,0,17247:0:0:0:0:
320,192,17417,128,0,17759:0:0:0:0:
448,192,17759,128,0,18271:0:0:0:15:LR_Sleigh Bell.wav
192,192,18100,1,0,0:0:0:8:LR_Sleigh Bell.wav
64,192,18441,128,0,18783:0:0:0:8:LR_Sleigh Bell.wav
448,192,18441,128,0,18783:0:0:0:0:
192,192,18783,128,0,19465:0:0:0:25:LR_Sleigh Bell.wav
320,192,18783,128,0,19636:0:0:0:0:
448,192,19124,1,0,0:0:0:8:LR_Sleigh Bell.wav
64,192,19465,1,0,0:0:0:8:LR_Sleigh Bell.wav
192,192,19550,1,0,0:0:0:0:
448,192,19636,1,0,0:0:0:0:
320,192,19721,1,0,0:0:0:0:
64,192,19806,128,0,20318:0:0:0:15:LR_Sleigh Bell.wav
192,192,19806,128,0,20660:0:0:0:0:
448,192,20148,1,0,0:0:0:8:LR_Sleigh Bell.wav
320,192,20489,128,0,20830:0:0:0:8:LR_Sleigh Bell.wav
64,192,20830,128,0,22366:0:0:0:25:LR_Sleigh Bell.wav
448,192,20830,128,0,21342:0:0:0:0:
192,192,21172,1,0,0:0:0:8:LR_Sleigh Bell.wav
320,192,21513,128,0,21854:0:0:0:8:LR_Sleigh Bell.wav
192,192,21854,128,0,22366:0:0:0:15:LR_Sleigh Bell.wav
320,192,22196,1,0,0:0:0:8:LR_Sleigh Bell.wav
64,192,22537,128,0,22878:0:0:0:8:LR_Sleigh Bell.wav
448,192,22537,128,0,22878:0:0:0:0:
192,192,22878,128,0,23561:0:0:0:25:LR_Sleigh Bell.wav
320,192,22878,128,0,23731:0:0:0:0:
448,192,23219,1,0,0:0:0:8:LR_Sleigh Bell.wav
64,192,23561,1,0,0:0:0:8:LR_Sleigh Bell.wav
192,192,23646,1,0,0:0:0:0:
448,192,23731,1,0,0:0:0:0:
320,192,23817,1,0,0:0:0:0:
64,192,23902,128,0,24073:0:0:0:15:LR_Sleigh Bell.wav
192,192,23902,128,0,24414:0:0:0:0:
320,192,24243,128,0,24755:0:0:0:8:LR_Sleigh Bell.wav
448,192,24243,128,0,24414:0:0:0:0:
64,192,24585,128,0,24755:0:0:0:8:LR_Sleigh Bell.wav
448,192,24585,128,0,24926:0:0:0:0:
64,192,24926,128,0,25438:0:0:0:25:LR_Sleigh Bell.wav
192,192,24926,128,0,25779:0:0:0:0:
448,192,25267,1,0,0:0:0:8:LR_Sleigh Bell.wav
320,192,25608,128,0,25950:0:0:0:8:LR_Sleigh Bell.wav
64,192,25950,128,0,26974:0:0:0:15:LR_Sleigh Bell.wav
448,192,25950,128,0,28509:0:0:0:0:
320,192,26291,1,0,0:0:0:8:LR_Sleigh Bell.wav
192,192,26632,1,0,0:0:0:8:LR_Sleigh Bell.wav
192,192,26974,128,0,27656:0:0:0:25:LR_Sleigh Bell.wav
320,192,26974,1,0,0:0:0:0:
320,192,27315,1,0,0:0:0:8:LR_Sleigh Bell.wav
64,192,27656,128,0,27998:0:0:0:8:LR_Sleigh Bell.wav
192,192,27998,1,0,0:0:0:15:LR_Sleigh Bell.wav
320,192,27998,128,0,28680:0:0:0:0:
64,192,28339,1,0,0:0:0:8:LR_Sleigh Bell.wav
192,192,28680,128,0,29021:0:0:0:8:LR_Sleigh Bell.wav
64,192,29021,128,0,29704:0:0:0:25:LR_Sleigh Bell.wav
448,192,29021,1,0,0:0:0:0:
192,192,29363,1,0,0:0:0:8:LR_Sleigh Bell.wav
448,192,29533,1,0,0:0:0:0:
320,192,29704,128,0,30045:0:0:0:8:LR_Sleigh Bell.wav
64,192,29875,1,0,0:0:0:0:
192,192,30045,1,0,0:0:0:15:LR_Sleigh Bell.wav
448,192,30045,128,0,30899:0:0:0:0:
64,192,30216,1,0,0:0:0:0:
320,192,30387,1,0,0:0:0:8:LR_Sleigh Bell.wav
64,192,30557,1,0,0:0:0:0:
192,192,30728,1,0,0:0:0:8:LR_Sleigh Bell.wav
320,192,30899,1,0,0:0:0:0:
64,192,31069,128,0,31752:0:0:0:25:LR_Sleigh Bell.wav
192,192,31069,1,0,0:0:0:0:
448,192,31240,1,0,0:0:0:0:
192,192,31411,1,0,0:0:0:8:LR_Sleigh Bell.wav
320,192,31581,1,0,0:0:0:0:
192,192,31752,128,0,31922:0:0:0:8:LR_Sleigh Bell.wav
320,192,31922,1,0,0:0:0:0:
64,192,32093,128,0,32605:0:0:0:15:LR_Sleigh Bell.wav
192,192,32093,1,0,0:0:0:0:
448,192,32093,128,0,33117:0:0:0:0:
192,192,32434,128,0,32946:0:0:0:8:LR_Sleigh Bell.wav
320,192,32434,1,0,0:0:0:0:
64,192,32776,1,0,0:0:0:8:LR_Sleigh Bell.wav
320,192,32776,128,0,33117:0:0:0:0:
64,192,33117,128,0,33288:0:0:0:25:LR_Sleigh Bell.wav
192,192,33117,128,0,34141:0:0:0:0:
64,192,33458,128,0,33629:0:0:0:8:LR_Sleigh Bell.wav
64,192,33800,128,0,34141:0:0:0:8:LR_Sleigh Bell.wav
448,192,33800,128,0,33970:0:0:0:0:
320,192,34141,128,0,35165:0:0:0:15:LR_Sleigh Bell.wav
448,192,34141,128,0,34312:0:0:0:0:
192,192,34482,128,0,34653:0:0:0:8:LR_Sleigh Bell.wav
64,192,34823,128,0,34994:0:0:0:8:LR_Sleigh Bell.wav
192,192,35165,128,0,36189:0:0:0:25:LR_Sleigh Bell.wav
448,192,35165,128,0,35335:0:0:0:0:
448,192,35506,128,0,35677:0:0:0:8:LR_Sleigh Bell.wav
64,192,35847,128,0,36018:0:0:0:8:LR_Sleigh Bell.wav
448,192,35847,128,0,36189:0:0:0:0:
64,192,36189,128,0,36871:0:0:0:15:LR_Sleigh Bell.wav
320,192,36189,128,0,36359:0:0:0:0:
448,192,36530,128,0,36701:0:0:0:8:LR_Sleigh Bell.wav
192,192,36871,128,0,37042:0:0:0:8:LR_Sleigh Bell.wav
448,192,36871,1,0,0:0:0:0:
64,192,37042,1,0,0:0:0:0:
320,192,37042,128,0,37213:0:0:0:0:
192,192,37213,128,0,37383:0:0:0:25:LR_Sleigh Bell.wav
448,192,37213,128,0,38236:0:0:0:0:
192,192,37554,128,0,37725:0:0:0:8:LR_Sleigh Bell.wav
64,192,37895,128,0,38066:0:0:0:8:LR_Sleigh Bell.wav
192,192,37895,128,0,38236:0:0:0:0:
64,192,38236,128,0,38407:0:0:0:15:LR_Sleigh Bell.wav
320,192,38236,128,0,39260:0:0:0:0:
192,192,38578,128,0,38748:0:0:0:8:LR_Sleigh Bell.wav
448,192,38919,128,0,39090:0:0:0:8:LR_Sleigh Bell.wav
192,192,39260,128,0,39602:0:0:0:25:LR_Sleigh Bell.wav
448,192,39260,128,0,39431:0:0:0:0:
64,192,39431,128,0,39602:0:0:0:0:
320,192,39602,128,0,39943:0:0:0:8:LR_Sleigh Bell.wav
448,192,39602,128,0,39772:0:0:0:0:
192,192,39772,128,0,39943:0:0:0:0:
64,192,39943,128,0,40114:0:0:0:8:LR_Sleigh Bell.wav
448,192,39943,128,0,40284:0:0:0:0:
192,192,40114,128,0,40284:0:0:0:0:
64,192,40284,128,0,40455:0:0:0:15:LR_Sleigh Bell.wav
320,192,40284,128,0,40626:0:0:0:0:
448,192,40455,128,0,40626:0:0:0:0:
64,192,40626,128,0,40796:0:0:0:8:LR_Sleigh Bell.wav
192,192,40626,128,0,40967:0:0:0:0:
320,192,40796,128,0,40967:0:0:0:0:
64,192,40967,128,0,41308:0:0:0:8:LR_Sleigh Bell.wav
448,192,40967,128,0,41137:0:0:0:0:
192,192,41137,128,0,41308:0:0:0:0:
320,192,41308,128,0,41479:0:0:0:25:LR_Sleigh Bell.wav
448,192,41308,128,0,42332:0:0:0:0:
192,192,41649,128,0,41820:0:0:0:8:LR_Sleigh Bell.wav
320,192,41649,128,0,41820:0:0:0:0:
64,192,41991,128,0,42161:0:0:0:8:LR_Sleigh Bell.wav
320,192,41991,128,0,42161:0:0:0:0:
64,192,42332,128,0,43356:0:0:0:15:LR_Sleigh Bell.wav
192,192,42332,128,0,42503:0:0:0:0:
192,192,42673,128,0,42844:0:0:0:8:LR_Sleigh Bell.wav
448,192,42673,128,0,42844:0:0:0:0:
192,192,43015,128,0,43185:0:0:0:8:LR_Sleigh Bell.wav
320,192,43015,128,0,43185:0:0:0:0:
320,192,43356,128,0,44380:0:0:0:25:LR_Sleigh Bell.wav
448,192,43356,128,0,43527:0:0:0:0:
64,192,43697,128,0,43868:0:0:0:8:LR_Sleigh Bell.wav
448,192,43697,128,0,43868:0:0:0:0:
192,192,44039,128,0,44209:0:0:0:8:LR_Sleigh Bell.wav
448,192,44039,128,0,44209:0:0:0:0:
64,192,44380,128,0,44550:0:0:0:15:LR_Sleigh Bell.wav
192,192,44380,128,0,45062:0:0:0:0:
64,192,44721,128,0,44892:0:0:0:8:LR_Sleigh Bell.wav
320,192,44721,128,0,44892:0:0:0:0:
64,192,45062,128,0,45233:0:0:0:8:LR_Sleigh Bell.wav
448,192,45062,128,0,45404:0:0:0:0:
64,192,45404,128,0,46428:0:0:0:25:LR_Sleigh Bell.wav
192,192,45404,128,0,45574:0:0:0:0:
192,192,45745,128,0,45916:0:0:0:8:LR_Sleigh Bell.wav
320,192,45745,128,0,45916:0:0:0:0:
192,192,46086,128,0,46257:0:0:0:8:LR_Sleigh Bell.wav
448,192,46086,128,0,46257:0:0:0:0:
320,192,46428,128,0,46598:0:0:0:15:LR_Sleigh Bell.wav
448,192,46428,128,0,47451:0:0:0:0:
64,192,46769,128,0,46940:0:0:0:8:LR_Sleigh Bell.wav
320,192,46769,128,0,46940:0:0:0:0:
192,192,47110,128,0,47281:0:0:0:8:LR_Sleigh Bell.wav
320,192,47110,128,0,47281:0:0:0:0:
64,192,47451,128,0,47622:0:0:0:25:LR_Sleigh Bell.wav
192,192,47451,128,0,48475:0:0:0:0:
64,192,47793,128,0,47963:0:0:0:8:LR_Sleigh Bell.wav
448,192,47793,128,0,47963:0:0:0:0:
64,192,48134,128,0,48305:0:0:0:8:LR_Sleigh Bell.wav
320,192,48134,128,0,48305:0:0:0:0:
320,192,48475,128,0,48817:0:0:0:15:LR_Sleigh Bell.wav
448,192,48475,128,0,48646:0:0:0:0:
64,192,48646,128,0,48817:0:0:0:0:
192,192,48817,128,0,48987:0:0:0:8:LR_Sleigh Bell.wav
448,192,48817,128,0,49158:0:0:0:0:
320,192,48987,128,0,49158:0:0:0:0:
64,192,49158,128,0,49499:0:0:0:8:LR_Sleigh Bell.wav
192,192,49158,128,0,49329:0:0:0:0:
320,192,49329,128,0,49499:0:0:0:0:
192,192,49499,128,0,49841:0:0:0:25:LR_Sleigh Bell.wav
448,192,49499,128,0,50523:0:0:0:0:
64,192,49670,1,0,0:0:0:0:
320,192,49841,1,0,0:0:0:8:LR_Sleigh Bell.wav
64,192,50011,1,0,0:0:0:0:
192,192,50182,128,0,50353:0:0:0:8:LR_Sleigh Bell.wav
64,192,50353,1,0,0:0:0:0:
192,192,50523,128,0,50694:0:0:0:15:LR_Sleigh Bell.wav
320,192,50523,128,0,51547:0:0:0:0:
448,192,50694,1,0,0:0:0:0:
64,192,50864,128,0,51035:0:0:0:8:LR_Sleigh Bell.wav
192,192,51035,1,0,0:0:0:0:
448,192,51206,128,0,51376:0:0:0:8:LR_Sleigh Bell.wav
192,192,51376,1,0,0:0:0:0:
64,192,51547,128,0,52571:0:0:0:25:LR_Sleigh Bell.wav
448,192,51547,128,0,51888:0:0:0:0:
192,192,51718,1,0,0:0:0:0:
320,192,51888,1,0,0:0:0:8:LR_Sleigh Bell.wav
192,192,52059,1,0,0:0:0:0:
448,192,52230,128,0,52400:0:0:0:8:LR_Sleigh Bell.wav
192,192,52400,1,0,0:0:0:0:
320,192,52571,128,0,53254:0:0:0:15:LR_Sleigh Bell.wav
448,192,52571,128,0,52742:0:0:0:0:
64,192,52742,1,0,0:0:0:0:
192,192,52912,128,0,53083:0:0:0:8:LR_Sleigh Bell.wav
64,192,53083,1,0,0:0:0:0:
192,192,53254,128,0,53424:0:0:0:8:LR_Sleigh Bell.wav
448,192,53254,1,0,0:0:0:0:
64,192,53424,128,0,53595:0:0:0:0:
320,192,53424,1,0,0:0:0:0:
192,192,53595,128,0,54619:0:0:0:25:LR_Sleigh Bell.wav
448,192,53595,128,0,53936:0:0:0:0:
320,192,53765,1,0,0:0:0:0:
64,192,53936,1,0,0:0:0:8:LR_Sleigh Bell.wav
320,192,54107,1,0,0:0:0:0:
448,192,54277,128,0,54448:0:0:0:8:LR_Sleigh Bell.wav
64,192,54448,1,0,0:0:0:0:
320,192,54619,128,0,55643:0:0:0:15:LR_Sleigh Bell.wav
448,192,54619,128,0,54789:0:0:0:0:
64,192,54789,1,0,0:0:0:0:
192,192,54960,128,0,55131:0:0:0:8:LR_Sleigh Bell.wav
448,192,55131,1,0,0:0:0:0:
64,192,55301,128,0,55472:0:0:0:8:LR_Sleigh Bell.wav
192,192,55472,1,0,0:0:0:0:
64,192,55643,128,0,55984:0:0:0:25:LR_Sleigh Bell.wav
448,192,55643,128,0,55813:0:0:0:0:
192,192,55813,128,0,55984:0:0:0:0:
320,192,55984,128,0,56325:0:0:0:8:LR_Sleigh Bell.wav
448,192,55984,128,0,56155:0:0:0:0:
192,192,56155,128,0,56325:0:0:0:0:
64,192,56325,128,0,56496:0:0:0:8:LR_Sleigh Bell.wav
448,192,56325,128,0,56666:0:0:0:0:
192,192,56496,128,0,56666:0:0:0:0:
64,192,56666,128,0,56837:0:0:0:15:LR_Sleigh Bell.wav
320,192,56666,128,0,57008:0:0:0:0:
448,192,56837,128,0,57008:0:0:0:0:
64,192,57008,128,0,57178:0:0:0:8:LR_Sleigh Bell.wav
192,192,57008,128,0,57349:0:0:0:0:
320,192,57178,128,0,57349:0:0:0:0:
64,192,57349,128,0,57520:0:0:0:8:LR_Sleigh Bell.wav
448,192,57349,128,0,57690:0:0:0:0:
192,192,57520,128,0,57690:0:0:0:0:
64,192,57690,128,0,57861:0:0:0:25:LR_Sleigh Bell.wav
320,192,57690,128,0,58032:0:0:0:0:
448,192,57861,128,0,58032:0:0:0:0:
64,192,58032,128,0,58202:0:0:0:8:LR_Sleigh Bell.wav
192,192,58032,128,0,58373:0:0:0:0:
320,192,58202,128,0,58373:0:0:0:0:
64,192,58373,128,0,58714:0:0:0:8:LR_Sleigh Bell.wav
448,192,58373,128,0,58544:0:0:0:0:
192,192,58544,128,0,58714:0:0:0:0:
320,192,58714,128,0,58885:0:0:0:15:LR_Sleigh Bell.wav
448,192,58714,128,0,59056:0:0:0:0:
192,192,58885,128,0,59056:0:0:0:0:
64,192,59056,128,0,59226:0:0:0:8:LR_Sleigh Bell.wav
320,192,59056,128,0,59397:0:0:0:0:
448,192,59226,128,0,59397:0:0:0:0:
64,192,59397,128,0,59568:0:0:0:8:LR_Sleigh Bell.wav
192,192,59397,128,0,59738:0:0:0:0:
320,192,59568,128,0,59738:0:0:0:0:
64,192,59738,128,0,60079:0:0:0:25:LR_Sleigh Bell.wav
448,192,59738,128,0,59909:0:0:0:0:
320,192,59909,128,0,60079:0:0:0:0:
192,192,60079,128,0,60421:0:0:0:8:LR_Sleigh Bell.wav
448,192,60079,128,0,60250:0:0:0:0:
64,192,60250,128,0,60421:0:0:0:0:
320,192,60421,128,0,60762:0:0:0:8:LR_Sleigh Bell.wav
448,192,60421,128,0,60591:0:0:0:0:
192,192,60591,128,0,60762:0:0:0:0:
64,192,60762,128,0,60933:0:0:0:15:LR_Sleigh Bell.wav
448,192,60762,128,0,61103:0:0:0:0:
320,192,60933,128,0,61103:0:0:0:0:
64,192,61103,128,0,61445:0:0:0:8:LR_Sleigh Bell.wav
192,192,61103,128,0,61274:0:0:0:0:
320,192,61274,128,0,61445:0:0:0:0:
192,192,61445,128,0,61786:0:0:0:8:LR_Sleigh Bell.wav
448,192,61445,128,0,61615:0:0:0:0:
64,192,61615,128,0,61786:0:0:0:0:
320,192,61786,128,0,61957:0:0:0:25:LR_Sleigh Bell.wav
448,192,61786,128,0,61957:0:0:0:0:
192,192,61957,128,0,62127:0:0:0:0:
64,192,62127,128,0,62298:0:0:0:8:LR_Sleigh Bell.wav
448,192,62127,128,0,62298:0:0:0:0:
192,192,62298,128,0,62469:0:0:0:0:
320,192,62469,128,0,62639:0:0:0:8:LR_Sleigh Bell.wav
448,192,62469,128,0,62639:0:0:0:0:
64,192,62639,128,0,62810:0:0:0:0:
192,192,62810,1,0,0:0:0:15:LR_Sleigh Bell.wav
448,192,62810,128,0,62980:0:0:0:0:
64,192,62980,128,0,63151:0:0:0:0:
320,192,63151,1,0,0:0:0:8:LR_Sleigh Bell.wav
448,192,63151,128,0,63322:0:0:0:0:
64,192,63322,128,0,63492:0:0:0:0:
192,192,63492,1,0,0:0:0:8:LR_Sleigh Bell.wav
448,192,63492,128,0,63663:0:0:0:0:
64,192,63663,128,0,63834:0:0:0:0:
320,192,63663,1,0,0:0:0:0:
192,192,63834,128,0,64004:0:0:0:25:LR_Sleigh Bell.wav
448,192,63834,1,0,0:0:0:0:
320,192,64004,128,0,64175:0:0:0:0:
64,192,64175,1,0,0:0:0:0:
192,192,64175,128,0,64346:0:0:0:0:
320,192,64346,128,0,64516:0:0:0:0:
192,192,64516,128,0,64687:0:0:0:0:
448,192,64516,1,0,0:0:0:0:
64,192,64687,1,0,0:0:0:0:
320,192,64687,128,0,64858:0:0:0:0:
192,192,64858,128,0,65028:0:0:0:15:LR_Sleigh Bell.wav
320,192,65028,128,0,65199:0:0:0:0:
192,192,65199,128,0,65540:0:0:0:0:
320,192,65370,128,0,65540:0:0:0:0:
64,192,65882,128,0,66905:0:0:0:25:LR_Sleigh Bell.wav
192,192,65882,1,0,0:0:0:0:
320,192,66223,1,0,0:0:0:0:
448,192,66223,128,0,66905:0:0:0:0:
192,192,66905,1,0,0:0:0:25:LR_Sleigh Bell.wav
320,192,66905,1,0,0:0:0:0:
