osu file format v14

[General]
AudioFilename: audio.mp3
AudioLeadIn: 0
PreviewTime: 20392
Countdown: 0
SampleSet: Normal
StackLeniency: 0.7
Mode: 0
LetterboxInBreaks: 0
WidescreenStoryboard: 1

[Editor]
DistanceSpacing: 1
BeatDivisor: 4
GridSize: 4
TimelineZoom: 2

[Metadata]
Title:Pokey's House
TitleUnicode:Pokey's House
Artist:Suzuki Keiichi, Tanaka Hirokazu
ArtistUnicode:鈴木慶一, 田中宏和
Creator:DaxMasterix
Version:Normal
Source:MOTHER 2 ギーグの逆襲
Tags:VGM VideoGame Instrumental chiptune Porky Minch ポーキー・ミンチ Shigesato Itoi 糸井重里 Ape HAL Laboratory Earthbound Gyiyg no Gyakushū SNES Super Nintendo Famicom peace Entertainment System 大森暁生 上村律夫 Akio Ohmori Ritsuo Kamimura Satoru Iwata 岩田聡
BeatmapID:2199304
BeatmapSetID:1052383

[Difficulty]
HPDrainRate:4
CircleSize:4
OverallDifficulty:6
ApproachRate:6
SliderMultiplier:1.2
SliderTickRate:1

[Events]
//Background and Video events
0,0,"BG.png",0,0
//Break Periods
//Storyboard Layer 0 (Background)
//Storyboard Layer 1 (Fail)
//Storyboard Layer 2 (Pass)
//Storyboard Layer 3 (Foreground)
//Storyboard Layer 4 (Overlay)
//Storyboard Sound Samples

[TimingPoints]
17,423.728813559322,4,1,1,80,1,0
13576,397.350993377483,4,1,3,80,1,0
16800,299.25187032419,3,1,1,80,1,0
20392,423.728813559322,4,1,1,80,1,0
33952,397.350993377483,4,1,3,80,1,0
37172,300,3,1,1,80,1,0
40772,-100,3,1,4,80,0,0

[Colours]
Combo1 : 255,255,128
Combo2 : 128,128,255
Combo3 : 255,128,255
Combo4 : 0,128,128

[HitObjects]
97,233,17,6,0,P|153:249|213:233,1,120,0|2,0:0|0:0,0:0:0:0:
297,149,864,2,0,P|354:133|411:149,1,120,0|2,0:0|0:0,0:0:0:0:
456,192,1500,1,0,0:0:0:0:
414,233,1711,6,0,P|357:249|300:233,1,120,0|2,0:0|0:0,0:0:0:0:
256,192,2347,1,0,0:0:0:0:
215,149,2559,2,0,P|157:133|100:149,1,120,0|2,0:0|0:0,0:0:0:0:
56,192,3194,1,0,0:0:0:0:
97,233,3406,6,0,P|112:288|148:344,1,120,0|8,0:0|0:0,0:0:0:0:
224,248,4254,2,0,L|284:236,1,60
312,288,4678,2,0,L|370:299,1,60,8|0,0:0|0:0,0:0:0:0:
432,308,5101,6,0,P|464:257|480:200,1,120,0|8,0:0|0:0,0:0:0:0:
420,192,5737,1,0,0:0:0:0:
359,183,5949,2,0,P|326:132|310:75,1,120,0|8,0:0|0:0,0:0:0:0:
205,15,6796,6,0,P|189:71|205:131,1,120,0|2,0:0|0:0,0:0:0:0:
289,215,7644,2,0,P|305:272|289:329,1,120,0|2,0:0|0:0,0:0:0:0:
248,373,8279,1,0,0:0:0:0:
205,332,8491,6,0,P|189:275|205:218,1,120,0|2,0:0|0:0,0:0:0:0:
246,174,9127,1,0,0:0:0:0:
289,133,9339,2,0,P|305:75|289:18,1,120,0|2,0:0|0:0,0:0:0:0:
230,31,9974,1,0,0:0:0:0:
171,43,10186,6,0,P|125:76|48:89,1,120,0|8,0:0|0:0,0:0:0:0:
14,199,11033,2,0,L|3:258,1,60
59,276,11457,2,0,L|70:335,1,60,8|0,0:0|0:0,0:0:0:0:
124,352,11881,6,0,P|185:340|242:304,1,120,0|8,0:0|0:0,0:0:0:0:
274,266,12517,1,0,0:0:0:0:
313,310,12728,2,0,P|364:340|423:351,1,120,0|8,0:0|0:0,0:0:0:0:
494,244,13576,5,8,0:0:0:0:
494,244,13774,2,0,P|502:182|493:126,1,120
438,100,14370,2,0,L|378:109,1,60
339,63,14768,1,0,0:0:0:0:
279,54,14966,1,0,0:0:0:0:
239,99,15165,6,0,P|200:128|131:142,2,120
127,53,16357,1,0,0:0:0:0:
19,108,16800,5,0,0:0:0:0:
33,186,17099,2,0,L|28:308,1,120
108,317,17697,5,0,0:0:0:0:
122,239,17997,2,0,L|116:116,1,120
197,108,18595,5,0,0:0:0:0:
211,186,18894,2,0,L|206:308,1,120
286,317,19493,5,0,0:0:0:0:
300,239,19792,2,0,L|294:116,1,120
375,108,20392,6,0,P|430:110|485:143,1,120,0|2,0:0|0:0,0:0:0:0:
485,262,21239,2,0,P|434:293|375:296,1,120,0|2,0:0|0:0,0:0:0:0:
314,296,21875,1,0,0:0:0:0:
254,296,22086,6,0,P|194:292|143:262,1,120,0|2,0:0|0:0,0:0:0:0:
137,202,22722,1,0,0:0:0:0:
143,142,22934,2,0,P|193:111|253:108,1,120,0|2,0:0|0:0,0:0:0:0:
298,146,23569,1,0,0:0:0:0:
344,185,23781,6,0,P|392:162|432:108,1,120,0|8,0:0|0:0,0:0:0:0:
327,49,24629,2,0,L|271:69,1,60
213,49,25053,2,0,L|157:69,1,60,8|0,0:0|0:0,0:0:0:0:
99,49,25476,6,0,P|52:77|22:135,1,120,0|8,0:0|0:0,0:0:0:0:
8,192,26112,1,0,0:0:0:0:
22,250,26324,2,0,P|48:303|99:335,1,120,0|8,0:0|0:0,0:0:0:0:
217,350,27171,6,0,P|272:341|326:300,1,120,0|2,0:0|0:0,0:0:0:0:
435,260,28019,2,0,P|387:224|328:213,1,120,0|2,0:0|0:0,0:0:0:0:
268,214,28654,1,0,0:0:0:0:
208,214,28866,6,0,P|149:203|101:167,1,120,0|2,0:0|0:0,0:0:0:0:
63,121,29502,1,0,0:0:0:0:
102,76,29714,2,0,P|149:40|208:29,1,120,0|2,0:0|0:0,0:0:0:0:
256,64,30349,1,0,0:0:0:0:
303,29,30561,6,0,P|362:40|410:76,1,120,0|8,0:0|0:0,0:0:0:0:
452,188,31408,2,0,L|400:216,1,60
380,272,31832,2,0,L|432:300,1,60,8|0,0:0|0:0,0:0:0:0:
452,352,32256,6,0,P|412:376|336:376,1,120,0|8,0:0|0:0,0:0:0:0:
284,356,32892,1,0,0:0:0:0:
228,332,33103,2,0,P|188:308|112:308,1,120,0|8,0:0|0:0,0:0:0:0:
56,192,33952,5,8,0:0:0:0:
56,192,34150,2,0,L|76:72,1,120
128,44,34746,2,0,L|188:36,1,60
232,76,35144,1,0,0:0:0:0:
291,68,35342,1,0,0:0:0:0:
336,108,35541,6,0,P|380:116|452:96,2,120
336,228,36733,1,0,0:0:0:0:
452,256,37172,6,0,L|384:356,1,120
308,326,37772,1,0,0:0:0:0:
236,361,38072,6,0,L|136:293,1,120
165,217,38672,1,0,0:0:0:0:
131,145,38972,6,0,L|199:45,1,120
275,74,39572,1,0,0:0:0:0:
352,40,39872,6,0,L|472:76,2,120
275,74,40772,5,0,0:0:0:0:
