osu file format v14

[General]
AudioFilename: audio.mp3
AudioLeadIn: 0
PreviewTime: 20392
Countdown: 0
SampleSet: Normal
StackLeniency: 0.7
Mode: 0
LetterboxInBreaks: 0
WidescreenStoryboard: 1

[Editor]
DistanceSpacing: 1.8
BeatDivisor: 4
GridSize: 4
TimelineZoom: 1.8

[Metadata]
Title:Pokey's House
TitleUnicode:Pokey's House
Artist:Suzuki Keiichi, Tanaka Hirokazu
ArtistUnicode:鈴木慶一, 田中宏和
Creator:DaxMasterix
Version:Hard
Source:MOTHER 2 ギーグの逆襲
Tags:VGM VideoGame Instrumental chiptune Porky Minch ポーキー・ミンチ Shigesato Itoi 糸井重里 Ape HAL Laboratory Earthbound Gyiyg no Gyakushū SNES Super Nintendo Famicom peace Entertainment System 大森暁生 上村律夫 Akio Ohmori Ritsuo Kamimura Satoru Iwata 岩田聡
BeatmapID:2199303
BeatmapSetID:1052383

[Difficulty]
HPDrainRate:5
CircleSize:4
OverallDifficulty:7
ApproachRate:7
SliderMultiplier:1.4
SliderTickRate:1

[Events]
//Background and Video events
0,0,"BG.png",0,0
//Break Periods
//Storyboard Layer 0 (Background)
//Storyboard Layer 1 (Fail)
//Storyboard Layer 2 (Pass)
//Storyboard Layer 3 (Foreground)
//Storyboard Layer 4 (Overlay)
//Storyboard Sound Samples

[TimingPoints]
17,423.728813559322,4,1,1,80,1,0
13576,397.350993377483,4,1,3,80,1,0
16800,299.25187032419,3,1,1,80,1,0
20392,423.728813559322,4,1,1,80,1,0
33952,397.350993377483,4,1,3,80,1,0
37172,300,3,1,1,80,1,0
40772,-100,3,1,4,80,0,0

[Colours]
Combo1 : 255,255,128
Combo2 : 128,128,255
Combo3 : 255,128,255
Combo4 : 0,128,128

[HitObjects]
84,288,17,6,0,P|152:280|212:240,1,140,0|2,0:0|0:0,0:0:0:0:
188,103,864,1,0,0:0:0:0:
275,160,1076,1,0,0:0:0:0:
210,241,1288,2,0,B|192:262|172:273|152:280,1,70,2|0,0:0|0:0,0:0:0:0:
123,184,1711,6,0,B|102:165|91:145|84:125,1,70
188,103,2135,2,0,B|206:82|226:71|246:64,1,70,2|0,0:0|0:0,0:0:0:0:
275,160,2559,1,0,0:0:0:0:
84,126,2983,1,2,0:0:0:0:
245,64,3194,1,0,0:0:0:0:
313,217,3406,6,0,P|370:255|439:263,1,140,0|8,0:0|0:0,0:0:0:0:
410,107,4254,2,0,P|372:93|337:92,1,70
220,129,4678,1,8,0:0:0:0:
220,129,4889,1,0,0:0:0:0:
190,254,5101,5,0,0:0:0:0:
313,217,5313,1,0,0:0:0:0:
342,91,5525,1,8,0:0:0:0:
220,129,5737,1,0,0:0:0:0:
130,40,5949,1,0,0:0:0:0:
9,76,6161,1,0,0:0:0:0:
30,202,6372,1,8,0:0:0:0:
30,202,6796,6,0,P|59:263|117:307,1,140,0|2,0:0|0:0,0:0:0:0:
237,238,7644,1,0,0:0:0:0:
211,339,7855,1,0,0:0:0:0:
115,306,8067,2,0,B|89:295|72:280|59:263,1,70,2|0,0:0|0:0,0:0:0:0:
140,203,8491,6,0,B|151:176|166:160|183:146,1,70
237,238,8915,2,0,B|262:248|279:263|292:280,1,70,2|0,0:0|0:0,0:0:0:0:
211,339,9339,1,0,0:0:0:0:
181,147,9762,1,2,0:0:0:0:
292,279,9974,1,0,0:0:0:0:
456,224,10186,6,0,P|488:187|506:97,1,140,0|8,0:0|0:0,0:0:0:0:
369,201,11033,2,0,P|331:215|296:216,1,70
179,179,11457,1,8,0:0:0:0:
179,179,11669,1,0,0:0:0:0:
149,54,11881,5,0,0:0:0:0:
272,91,12093,1,0,0:0:0:0:
394,129,12305,1,8,0:0:0:0:
301,217,12517,1,0,0:0:0:0:
179,179,12728,1,0,0:0:0:0:
207,304,12940,1,0,0:0:0:0:
100,370,13152,1,8,0:0:0:0:
0,292,13576,5,8,0:0:0:0:
0,292,13774,2,0,L|56:164,1,140
92,292,14370,2,0,L|124:220,1,70
184,292,14768,2,0,L|216:220,1,70
332,164,15165,6,0,L|276:292,1,140
397,293,15761,1,0,0:0:0:0:
490,244,15960,1,0,0:0:0:0:
423,164,16158,1,0,0:0:0:0:
423,164,16258,1,0,0:0:0:0:
423,164,16357,1,0,0:0:0:0:
330,213,16556,1,0,0:0:0:0:
239,100,16800,6,0,B|208:84|208:84|180:96|104:104,2,140
348,175,17697,2,0,B|364:144|364:144|352:116|344:40,2,140
273,284,18595,6,0,B|304:300|304:300|332:288|408:280,2,140
164,209,19493,2,0,B|148:240|148:240|160:268|168:344,2,140
239,100,20392,6,0,P|288:80|376:84,1,140,0|2,0:0|0:0,0:0:0:0:
272,204,21239,1,0,0:0:0:0:
165,180,21451,1,0,0:0:0:0:
239,100,21663,2,0,P|264:88|312:76,1,70,2|0,0:0|0:0,0:0:0:0:
165,180,22086,6,0,P|142:164|107:128,1,70
272,204,22510,2,0,P|269:231|256:279,1,70,2|0,0:0|0:0,0:0:0:0:
239,100,22934,1,0,0:0:0:0:
239,100,23358,1,2,0:0:0:0:
259,272,23569,1,0,0:0:0:0:
96,333,23781,6,0,P|65:278|65:202,1,140,0|8,0:0|0:0,0:0:0:0:
259,272,24629,2,0,P|292:289|332:295,1,70
210,185,25053,1,8,0:0:0:0:
210,185,25264,1,0,0:0:0:0:
329,146,25476,5,0,0:0:0:0:
235,61,25688,1,0,0:0:0:0:
210,185,25900,1,8,0:0:0:0:
329,146,26112,1,0,0:0:0:0:
448,107,26324,1,0,0:0:0:0:
423,231,26536,1,0,0:0:0:0:
503,318,26747,1,8,0:0:0:0:
503,318,27171,6,0,P|458:354|380:346,1,140,0|2,0:0|0:0,0:0:0:0:
413,192,28019,1,0,0:0:0:0:
328,254,28230,1,0,0:0:0:0:
380,346,28442,2,0,P|415:351|461:342,1,70,2|0,0:0|0:0,0:0:0:0:
328,254,28866,6,0,P|293:248|258:253,1,70
136,345,29290,2,0,P|171:350|206:346,1,70,2|0,0:0|0:0,0:0:0:0:
83,252,29714,1,0,0:0:0:0:
83,252,30137,1,2,0:0:0:0:
259,252,30349,1,0,0:0:0:0:
435,252,30561,6,0,P|467:196|481:120,1,140,0|8,0:0|0:0,0:0:0:0:
353,29,31408,2,0,P|305:24|282:27,1,70
158,57,31832,1,8,0:0:0:0:
158,57,32044,1,0,0:0:0:0:
246,149,32256,5,0,0:0:0:0:
371,119,32468,1,0,0:0:0:0:
459,212,32680,1,8,0:0:0:0:
334,242,32892,1,0,0:0:0:0:
246,149,33103,1,0,0:0:0:0:
209,272,33315,1,0,0:0:0:0:
117,358,33527,1,8,0:0:0:0:
32,264,33951,5,8,0:0:0:0:
32,264,34150,2,0,L|113:151,1,140
124,264,34746,2,0,L|172:197,1,70
216,264,35144,2,0,L|264:197,1,70
389,151,35541,6,0,L|308:264,1,140
408,280,36137,1,0,0:0:0:0:
509,251,36336,1,0,0:0:0:0:
480,151,36534,1,0,0:0:0:0:
480,151,36634,1,0,0:0:0:0:
480,151,36733,1,0,0:0:0:0:
379,180,36932,1,0,0:0:0:0:
317,88,37172,6,0,B|357:58|357:58|405:70|449:50,2,140
360,253,38072,2,0,B|390:293|390:293|378:341|398:385,2,140
195,296,38972,6,0,B|155:326|155:326|107:314|63:334,2,140
152,131,39872,2,0,B|122:91|122:91|134:43|114:-1,2,140
317,88,40772,5,0,0:0:0:0:
