osu file format v14

[General]
AudioFilename: audio.mp3
AudioLeadIn: 0
PreviewTime: 20973
Countdown: 0
SampleSet: Normal
StackLeniency: 0.7
Mode: 1
LetterboxInBreaks: 0
WidescreenStoryboard: 0

[Editor]
DistanceSpacing: 1.5
BeatDivisor: 8
GridSize: 4
TimelineZoom: 1.6

[Metadata]
Title:Giygas is Wounded!
TitleUnicode:Giygas is Wounded!
Artist:Suzuki Keiichi, Tanaka Hirokazu
ArtistUnicode:鈴木慶一, 田中宏和
Creator:Horiiizon
Version:Embodiment of Evil
Source:EarthBound
Tags:Earth Bound Mother 2 Electronic Instrumental video game music vgm original soundtrack ost super nintendo snes famicom ギーグの逆襲 rpg role-playing game
BeatmapID:2544421
BeatmapSetID:1223261

[Difficulty]
HPDrainRate:6
CircleSize:5
OverallDifficulty:6
ApproachRate:5
SliderMultiplier:1.4
SliderTickRate:1

[Events]
//Background and Video events
0,0,"bg.jpg",0,-25
//Break Periods
//Storyboard Layer 0 (Background)
//Storyboard Layer 1 (Fail)
//Storyboard Layer 2 (Pass)
//Storyboard Layer 3 (Foreground)
//Storyboard Layer 4 (Overlay)
//Storyboard Sound Samples

[TimingPoints]
278,323.362974939369,4,1,0,50,1,0
10585,-100,4,1,0,40,0,0
15759,-100,4,1,0,60,0,0
20932,-100,4,1,0,50,0,0
31280,-100,4,1,0,40,0,0
36454,-100,4,1,0,60,0,0
41628,-100,4,1,0,50,0,0
42921,-102.040816326531,4,1,0,49,0,0
43083,-103.092783505155,4,1,0,48,0,0
43244,-104.166666666667,4,1,0,47,0,0
43406,-105.263157894737,4,1,0,46,0,0
43568,-106.382978723404,4,1,0,45,0,0
43729,-107.52688172043,4,1,0,44,0,0
43891,-108.695652173913,4,1,0,43,0,0
44053,-109.89010989011,4,1,0,42,0,0
44214,-112.359550561798,4,1,0,41,0,0
44376,-114.942528735632,4,1,0,40,0,0
44538,-117.647058823529,4,1,0,38,0,0
44699,-120.481927710843,4,1,0,36,0,0
44861,-123.456790123457,4,1,0,34,0,0
45023,-126.582278481013,4,1,0,32,0,0
45185,-129.87012987013,4,1,0,30,0,0
45508,-136.986301369863,4,1,0,28,0,0
45670,-140.845070422535,4,1,0,26,0,0
45831,-144.927536231884,4,1,0,24,0,0
45993,-149.253731343284,4,1,0,22,0,0
46155,-153.846153846154,4,1,0,19,0,0
46316,-158.730158730159,4,1,0,16,0,0
46478,-163.934426229508,4,1,0,13,0,0
46640,-169.491525423729,4,1,0,10,0,0

[HitObjects]
255,242,278,5,0,0:0:0:0:
255,242,358,1,8,0:0:0:0:
248,219,439,1,8,0:0:0:0:
240,234,601,1,8,0:0:0:0:
248,219,763,1,0,0:0:0:0:
240,234,924,1,0,0:0:0:0:
245,250,1086,1,8,0:0:0:0:
211,232,1248,1,0,0:0:0:0:
236,253,1571,1,8,0:0:0:0:
245,245,1733,1,0,0:0:0:0:
236,187,1894,1,0,0:0:0:0:
236,197,2056,1,8,0:0:0:0:
223,198,2218,1,0,0:0:0:0:
230,200,2379,1,8,0:0:0:0:
230,200,2541,1,0,0:0:0:0:
230,200,2703,1,0,0:0:0:0:
203,185,3026,1,8,0:0:0:0:
206,155,3188,1,8,0:0:0:0:
231,222,3349,1,0,0:0:0:0:
207,161,3511,1,0,0:0:0:0:
230,200,3673,1,8,0:0:0:0:
232,199,3834,1,0,0:0:0:0:
216,249,4158,1,8,0:0:0:0:
218,231,4320,1,0,0:0:0:0:
206,222,4481,1,0,0:0:0:0:
206,222,4643,1,8,0:0:0:0:
196,208,4805,1,0,0:0:0:0:
199,190,4966,1,8,0:0:0:0:
199,190,5128,1,8,0:0:0:0:
206,172,5290,1,0,0:0:0:0:
196,161,5451,1,0,0:0:0:0:
238,220,5532,1,0,0:0:0:0:
248,219,5613,1,8,0:0:0:0:
240,234,5775,1,8,0:0:0:0:
248,219,5937,1,0,0:0:0:0:
240,234,6098,1,0,0:0:0:0:
245,250,6260,1,8,0:0:0:0:
211,232,6422,1,0,0:0:0:0:
236,253,6745,1,8,0:0:0:0:
245,245,6907,1,0,0:0:0:0:
236,187,7068,1,0,0:0:0:0:
236,197,7230,1,8,0:0:0:0:
223,198,7392,1,0,0:0:0:0:
230,200,7553,1,8,0:0:0:0:
230,200,7715,1,0,0:0:0:0:
230,200,7877,1,0,0:0:0:0:
226,268,8038,1,0,0:0:0:0:
179,199,8119,1,0,0:0:0:0:
203,185,8200,1,8,0:0:0:0:
206,155,8362,1,8,0:0:0:0:
231,222,8523,1,0,0:0:0:0:
225,185,8604,1,8,0:0:0:0:
207,161,8685,1,0,0:0:0:0:
230,200,8847,1,8,0:0:0:0:
232,199,9008,1,0,0:0:0:0:
235,220,9332,1,8,0:0:0:0:
241,173,9493,1,8,0:0:0:0:
206,222,9817,1,8,0:0:0:0:
196,208,9979,1,0,0:0:0:0:
208,194,10140,1,8,0:0:0:0:
186,192,10302,1,0,0:0:0:0:
186,192,10463,1,0,0:0:0:0:
186,192,10625,1,8,0:0:0:0:
215,182,11191,1,0,0:0:0:0:
215,182,11353,1,8,0:0:0:0:
206,163,11757,1,0,0:0:0:0:
207,165,12080,1,8,0:0:0:0:
212,207,12565,1,8,0:0:0:0:
212,207,12727,1,8,0:0:0:0:
212,207,12889,1,8,0:0:0:0:
212,207,13050,1,8,0:0:0:0:
212,207,13212,1,0,0:0:0:0:
225,206,13535,1,0,0:0:0:0:
235,214,13697,1,0,0:0:0:0:
235,214,13859,1,8,0:0:0:0:
235,214,14344,1,0,0:0:0:0:
225,212,14667,1,8,0:0:0:0:
211,208,15152,1,0,0:0:0:0:
211,208,15314,1,8,0:0:0:0:
202,190,15476,1,8,0:0:0:0:
211,208,15637,1,8,0:0:0:0:
198,207,15799,1,0,0:0:0:0:
226,212,16446,1,0,0:0:0:0:
195,202,16607,1,8,0:0:0:0:
222,248,17254,1,8,0:0:0:0:
205,204,17416,1,8,0:0:0:0:
205,204,17577,1,0,0:0:0:0:
173,207,17901,1,0,0:0:0:0:
182,187,18062,1,0,0:0:0:0:
183,214,18224,1,8,0:0:0:0:
176,175,18386,1,0,0:0:0:0:
257,194,18548,1,8,0:0:0:0:
236,195,18709,1,8,0:0:0:0:
198,177,19033,1,0,0:0:0:0:
191,207,19194,1,8,0:0:0:0:
191,207,19356,1,8,0:0:0:0:
188,167,19518,1,0,0:0:0:0:
213,202,19679,1,0,0:0:0:0:
197,196,19841,1,0,0:0:0:0:
184,168,20003,1,8,0:0:0:0:
197,196,20164,1,0,0:0:0:0:
197,196,20326,1,8,0:0:0:0:
198,196,20488,1,8,0:0:0:0:
198,196,20649,1,0,0:0:0:0:
255,242,20973,5,0,0:0:0:0:
255,242,21053,1,8,0:0:0:0:
248,219,21134,1,8,0:0:0:0:
240,234,21296,1,8,0:0:0:0:
248,219,21458,1,0,0:0:0:0:
240,234,21619,1,0,0:0:0:0:
245,250,21781,1,8,0:0:0:0:
211,232,21943,1,0,0:0:0:0:
236,253,22266,1,8,0:0:0:0:
245,245,22428,1,0,0:0:0:0:
236,187,22589,1,0,0:0:0:0:
236,197,22751,1,8,0:0:0:0:
223,198,22913,1,0,0:0:0:0:
230,200,23074,1,8,0:0:0:0:
230,200,23236,1,0,0:0:0:0:
230,200,23398,1,0,0:0:0:0:
203,185,23721,1,8,0:0:0:0:
206,155,23883,1,8,0:0:0:0:
231,222,24044,1,0,0:0:0:0:
207,161,24206,1,0,0:0:0:0:
230,200,24368,1,8,0:0:0:0:
232,199,24529,1,0,0:0:0:0:
216,249,24853,1,8,0:0:0:0:
218,231,25015,1,0,0:0:0:0:
206,222,25176,1,0,0:0:0:0:
206,222,25338,1,8,0:0:0:0:
196,208,25500,1,0,0:0:0:0:
199,190,25661,1,8,0:0:0:0:
199,190,25823,1,8,0:0:0:0:
206,172,25985,1,0,0:0:0:0:
196,161,26146,1,0,0:0:0:0:
238,220,26227,1,0,0:0:0:0:
248,219,26308,1,8,0:0:0:0:
240,234,26470,1,8,0:0:0:0:
248,219,26632,1,0,0:0:0:0:
240,234,26793,1,0,0:0:0:0:
245,250,26955,1,8,0:0:0:0:
211,232,27117,1,0,0:0:0:0:
236,253,27440,1,8,0:0:0:0:
245,245,27602,1,0,0:0:0:0:
236,187,27763,1,0,0:0:0:0:
236,197,27925,1,8,0:0:0:0:
223,198,28087,1,0,0:0:0:0:
230,200,28248,1,8,0:0:0:0:
230,200,28410,1,0,0:0:0:0:
230,200,28572,1,0,0:0:0:0:
226,268,28733,1,0,0:0:0:0:
190,201,28814,1,0,0:0:0:0:
203,185,28895,1,8,0:0:0:0:
206,155,29057,1,8,0:0:0:0:
231,222,29218,1,0,0:0:0:0:
225,185,29299,1,8,0:0:0:0:
207,161,29380,1,0,0:0:0:0:
230,200,29542,1,8,0:0:0:0:
232,199,29703,1,0,0:0:0:0:
235,220,30027,1,8,0:0:0:0:
241,173,30188,1,8,0:0:0:0:
206,222,30512,1,8,0:0:0:0:
196,208,30674,1,0,0:0:0:0:
208,194,30835,1,8,0:0:0:0:
186,192,30997,1,0,0:0:0:0:
186,192,31158,1,0,0:0:0:0:
186,192,31320,1,8,0:0:0:0:
215,182,31886,1,0,0:0:0:0:
215,182,32048,1,8,0:0:0:0:
206,163,32452,1,0,0:0:0:0:
207,165,32775,1,8,0:0:0:0:
212,207,33260,1,8,0:0:0:0:
212,207,33422,1,8,0:0:0:0:
212,207,33584,1,8,0:0:0:0:
212,207,33745,1,8,0:0:0:0:
212,207,33907,1,0,0:0:0:0:
225,206,34230,1,0,0:0:0:0:
235,214,34392,1,0,0:0:0:0:
235,214,34554,1,8,0:0:0:0:
235,214,35039,1,0,0:1:0:0:
225,212,35362,1,8,0:0:0:0:
211,208,35847,1,0,0:0:0:0:
211,208,36009,1,8,0:0:0:0:
202,190,36171,1,8,0:0:0:0:
211,208,36332,1,8,0:0:0:0:
198,207,36494,1,0,0:0:0:0:
226,212,37141,1,0,0:0:0:0:
195,202,37302,1,8,0:0:0:0:
222,248,37949,1,8,0:0:0:0:
205,204,38111,1,8,0:0:0:0:
205,204,38272,1,0,0:0:0:0:
173,207,38596,1,0,0:0:0:0:
182,187,38757,1,0,0:0:0:0:
183,214,38919,1,8,0:0:0:0:
176,175,39081,1,0,0:0:0:0:
257,194,39243,1,8,0:0:0:0:
236,195,39404,1,8,0:0:0:0:
198,177,39728,1,0,0:0:0:0:
191,207,39889,1,8,0:0:0:0:
191,207,40051,1,8,0:0:0:0:
188,167,40213,1,0,0:0:0:0:
213,202,40374,1,0,0:0:0:0:
197,196,40536,1,0,0:0:0:0:
184,168,40698,1,8,0:0:0:0:
197,196,40859,1,0,0:0:0:0:
197,196,41021,1,8,0:0:0:0:
198,196,41183,1,8,0:0:0:0:
198,196,41344,1,0,0:0:0:0:
255,242,41668,5,0,0:0:0:0:
255,242,41748,1,8,0:0:0:0:
248,219,41829,1,8,0:0:0:0:
240,234,41991,1,8,0:0:0:0:
248,219,42153,1,0,0:0:0:0:
240,234,42314,1,0,0:0:0:0:
245,250,42476,1,8,0:0:0:0:
211,232,42638,1,0,0:0:0:0:
236,253,42961,1,8,0:0:0:0:
245,245,43123,1,0,0:0:0:0:
236,187,43284,1,0,0:0:0:0:
236,197,43446,1,8,0:0:0:0:
223,198,43608,1,0,0:0:0:0:
230,200,43769,1,8,0:0:0:0:
230,200,43931,1,0,0:0:0:0:
230,200,44093,1,0,0:0:0:0:
203,185,44416,1,8,0:0:0:0:
206,155,44578,1,8,0:0:0:0:
231,222,44739,1,0,0:0:0:0:
207,161,44901,1,0,0:0:0:0:
230,200,45063,1,8,0:0:0:0:
232,199,45224,1,0,0:0:0:0:
216,249,45548,1,8,0:0:0:0:
218,231,45710,1,0,0:0:0:0:
206,222,45871,1,0,0:0:0:0:
206,222,46033,1,8,0:0:0:0:
196,208,46195,1,0,0:0:0:0:
199,190,46356,1,8,0:0:0:0:
199,190,46518,1,8,0:0:0:0:
206,172,46680,1,0,0:0:0:0:
