osu file format v14

[General]
AudioFilename: audio.mp3
AudioLeadIn: 0
PreviewTime: 18947
Countdown: 0
SampleSet: Soft
StackLeniency: 0.6
Mode: 0
LetterboxInBreaks: 0
WidescreenStoryboard: 1

[Editor]
Bookmarks: 36161
DistanceSpacing: 1.5
BeatDivisor: 4
GridSize: 4
TimelineZoom: 2.3

[Metadata]
Title:Giygas is Wounded!
TitleUnicode:Giygas is Wounded!
Artist:Suzuki Keiichi, Tanaka Hirokazu
ArtistUnicode:鈴木慶一, 田中宏和
Creator:Apo11o
Version:Minorsonek's Insane
Source:EarthBound
Tags:mother 2 ness snes battle theme instrumental nintendo retro weird glitch video game ost ギーグの逆襲 minorsonek m2usonek
BeatmapID:1925164
BeatmapSetID:897790

[Difficulty]
HPDrainRate:5
CircleSize:5
OverallDifficulty:7
ApproachRate:8
SliderMultiplier:2
SliderTickRate:1

[Events]
//Background and Video events
0,0,"BajHU4.jpg",0,0
//Break Periods
//Storyboard Layer 0 (Background)
//Storyboard Layer 1 (Fail)
//Storyboard Layer 2 (Pass)
//Storyboard Layer 3 (Foreground)
//Storyboard Sound Samples

[TimingPoints]
278,323.362974939369,4,2,2,100,1,0
278,-100,4,2,2,100,0,0
10625,-200,4,2,2,100,0,0
15799,-83.3333333333333,4,2,2,100,0,0
16607,-100,4,2,2,100,0,0
18952,-125,4,2,2,100,0,0
20973,-100,4,2,2,100,0,0
31320,-200,4,2,2,100,0,0
36494,-83.3333333333333,4,2,2,100,0,0
37303,-100,4,2,2,100,0,0
39647,-125,4,2,2,100,0,0
41749,-100,4,2,2,80,0,0
42315,-100,4,2,2,70,0,0
42961,-100,4,2,2,60,0,0
43608,-100,4,2,2,50,0,0
44255,-100,4,2,2,40,0,0
44902,-100,4,2,2,30,0,0
45548,-100,4,2,2,20,0,0
46195,-100,4,2,2,10,0,0
46842,-100,4,2,2,5,0,0

[Colours]
Combo1 : 255,159,113
Combo2 : 251,168,168

[HitObjects]
49,64,278,6,2,L|132:75,1,50,10|0,0:0|0:0,0:0:0:0:
226,73,439,2,2,L|22:48,1,200,0|0,0:0|0:0,0:0:0:0:
339,101,924,2,0,L|237:88,2,100,10|0|2,0:0|0:0|0:0,0:0:0:0:
343,108,1571,6,0,L|241:95,1,100,2|0,0:0|0:0,0:0:0:0:
429,136,1894,2,0,L|327:123,1,100,2|0,0:0|0:0,0:0:0:0:
436,292,2218,2,0,L|395:197,1,100,10|0,0:0|0:0,0:0:0:0:
304,376,2541,2,0,L|365:293,1,100,2|0,0:0|0:0,0:0:0:0:
229,291,2864,1,0,0:0:0:0:
229,291,3026,6,2,L|179:284,1,50,0|0,0:0|0:0,0:0:0:0:
12,238,3188,2,2,L|111:250,1,100,2|0,0:0|0:0,0:0:0:0:
264,316,3511,2,0,L|164:303,2,100,10|0|2,0:0|0:0|0:0,0:0:0:0:
269,307,4158,6,0,L|169:294,1,100,2|0,0:0|0:0,0:0:0:0:
345,294,4481,2,0,L|245:281,1,100,2|0,0:0|0:0,0:0:0:0:
414,253,4805,1,10,0:0:0:0:
435,173,4966,1,0,0:0:0:0:
399,102,5128,1,2,0:0:0:0:
325,70,5290,1,0,0:0:0:0:
254,99,5451,5,2,0:0:0:0:
254,99,5613,6,2,L|303:105,1,50,0|0,0:0|0:0,0:0:0:0:
424,187,5775,2,2,L|324:174,1,100,0|0,0:0|0:0,0:0:0:0:
197,62,6098,2,0,L|296:74,2,100,10|0|2,0:0|0:0|0:0,0:0:0:0:
189,52,6745,6,0,L|288:64,1,100,2|0,0:0|0:0,0:0:0:0:
107,20,7068,2,0,L|206:32,1,100,2|0,0:0|0:0,0:0:0:0:
82,190,7391,2,0,L|142:110,1,100,10|0,0:0|0:0,0:0:0:0:
216,296,7715,2,0,L|176:203,1,100,2|0,0:0|0:0,0:0:0:0:
406,320,8038,6,2,L|323:309,1,50,2|0,0:0|0:0,0:0:0:0:
229,311,8200,2,2,L|433:336,1,200,0|0,0:0|0:0,0:0:0:0:
116,283,8685,2,0,L|218:295,2,100,10|0|2,0:0|0:0|0:0,0:0:0:0:
110,274,9332,6,0,L|212:286,1,100,2|0,0:0|0:0,0:0:0:0:
99,262,9817,5,0,0:0:0:0:
125,109,9978,1,10,0:0:0:0:
279,87,10140,1,8,0:0:0:0:
347,226,10302,1,10,0:0:0:0:
236,335,10463,1,8,0:0:0:0:
257,225,10625,6,0,B|296:204|331:220|347:245|349:276|380:297|413:299|448:282,2,200,2|10|0,0:0|0:0|0:0,0:0:0:0:
200,273,12080,1,8,0:0:0:0:
196,266,12565,5,10,0:0:0:0:
137,152,12727,1,8,0:0:0:0:
198,38,12889,1,10,0:0:0:0:
256,154,13050,1,8,0:0:0:0:
198,27,13212,6,0,B|254:64|291:47|307:8|361:3|398:42,2,200,10|10|0,0:0|0:0|0:0,0:0:0:0:
345,89,14667,1,8,0:0:0:0:
345,96,15152,5,10,0:0:0:0:
493,169,15314,1,8,0:0:0:0:
449,256,15476,1,10,0:0:0:0:
301,183,15637,1,8,0:0:0:0:
438,91,15799,6,0,B|431:40|410:2|354:-21|316:-19|264:5|206:51|267:88|259:124|246:161|211:193|125:191|101:128,1,479.999985351563,2|0,0:0|0:0,0:0:0:0:
169,95,16607,6,0,B|182:124|182:124|167:142|167:142|178:159|178:159|184:170|184:170|167:178|167:178|172:185|172:185|181:193|181:193|172:197|172:197|184:204|184:204|174:209|174:209|165:228|165:228|186:239|186:239|165:265|165:265|182:284|182:284|165:333,1,300,8|0,0:0|0:0,0:0:0:0:
135,375,17254,2,0,B|173:313|173:313|208:333|208:333|234:300|234:300|273:338|273:338|306:283|306:283|347:343|347:343|392:279,1,400,8|0,0:0|0:0,0:0:0:0:
415,242,18062,1,8,0:0:0:0:
448,324,18224,2,0,B|485:270|485:270|483:222|483:222|454:187|454:187|465:169|465:169|399:170|399:170|357:211,1,300,8|0,0:0|0:0,0:0:0:0:
271,250,18871,1,8,0:0:0:0:
271,250,18952,1,0,0:0:0:0:
271,250,19033,6,0,B|322:175|307:103|205:64|115:105|125:189|210:183|210:183|255:182|199:187|166:281|244:316|244:316|287:329|325:311|345:260,1,640,0|2,0:0|0:0,0:0:0:0:
350,248,20488,1,0,0:0:0:0:
357,227,20649,1,10,0:0:0:0:
362,207,20811,1,8,0:0:0:0:
463,52,20973,6,2,L|452:135,1,50,10|0,0:0|0:0,0:0:0:0:
454,229,21134,2,2,L|479:25,1,200,0|0,0:0|0:0,0:0:0:0:
426,342,21619,2,0,L|439:240,2,100,10|0|2,0:0|0:0|0:0,0:0:0:0:
419,346,22266,6,0,L|432:244,1,100,2|0,0:0|0:0,0:0:0:0:
353,367,22590,2,0,L|366:265,1,100,2|0,0:0|0:0,0:0:0:0:
197,374,22913,2,0,L|292:333,1,100,10|0,0:0|0:0,0:0:0:0:
113,242,23236,2,0,L|196:303,1,100,2|0,0:0|0:0,0:0:0:0:
154,124,23560,1,0,0:0:0:0:
154,124,23721,6,2,L|146:174,1,50,0|0,0:0|0:0,0:0:0:0:
100,341,23883,2,2,L|112:242,1,100,2|0,0:0|0:0,0:0:0:0:
178,89,24206,2,0,L|165:189,2,100,10|0|2,0:0|0:0|0:0,0:0:0:0:
192,79,24853,6,0,L|179:179,1,100,2|0,0:0|0:0,0:0:0:0:
258,58,25176,2,0,L|245:158,1,100,2|0,0:0|0:0,0:0:0:0:
342,39,25500,1,10,0:0:0:0:
416,74,25661,1,0,0:0:0:0:
448,147,25823,1,2,0:0:0:0:
424,224,25985,1,0,0:0:0:0:
357,260,26147,5,2,0:0:0:0:
357,260,26308,6,2,L|351:309,1,50,0|0,0:0|0:0,0:0:0:0:
262,384,26470,2,2,L|275:284,1,100,2|0,0:0|0:0,0:0:0:0:
432,213,26793,2,0,L|420:312,2,100,10|0|2,0:0|0:0|0:0,0:0:0:0:
443,203,27440,6,0,L|431:302,1,100,2|0,0:0|0:0,0:0:0:0:
373,93,27763,2,0,L|361:192,1,100,2|0,0:0|0:0,0:0:0:0:
206,65,28087,2,0,L|286:125,1,100,8|0,0:0|0:0,0:0:0:0:
100,199,28410,2,0,L|193:159,1,100,2|0,0:0|0:0,0:0:0:0:
200,336,28733,6,2,L|189:253,1,50,2|0,0:0|0:0,0:0:0:0:
191,159,28895,2,2,L|216:362,1,200,0|0,0:0|0:0,0:0:0:0:
189,41,29380,2,0,L|200:140,2,100,10|0|2,0:0|0:0|0:0,0:0:0:0:
199,26,30027,6,0,L|211:128,1,100,10|0,0:0|0:0,0:0:0:0:
208,10,30512,5,0,0:0:0:0:
342,86,30674,1,10,0:0:0:0:
309,238,30835,1,8,0:0:0:0:
156,255,30997,1,10,0:0:0:0:
91,113,31159,1,8,0:0:0:0:
177,177,31320,6,0,B|198:213|245:210|266:189|270:159|319:153|357:186,2,200,10|10|0,0:0|0:0|0:0,0:0:0:0:
160,108,32775,1,8,0:0:0:0:
160,97,33261,5,10,0:0:0:0:
270,25,33422,1,8,0:0:0:0:
407,58,33584,1,10,0:0:0:0:
296,131,33746,1,8,0:0:0:0:
423,176,33907,6,0,B|466:161|475:99|436:64|363:71|361:140,2,200,10|10|0,0:0|0:0|0:0,0:0:0:0:
352,202,35362,1,8,0:0:0:0:
351,211,35847,5,10,0:0:0:0:
330,364,36009,1,8,0:0:0:0:
245,350,36171,1,10,0:0:0:0:
266,197,36332,1,8,0:0:0:0:
178,183,36494,6,0,B|147:182|110:218|110:272|154:307|217:311|251:270|261:239|251:189|273:146|299:107|367:106|430:140|430:211,1,479.999985351563,2|0,0:0|0:0,0:0:0:0:
447,279,37303,6,0,B|440:244|440:244|470:228|470:228|430:197|430:197|485:180|485:180|431:153|431:153|477:100,1,300,8|0,0:0|0:0,0:0:0:0:
506,42,37949,2,0,B|456:93|456:93|410:64|410:64|365:97|365:97|307:46|307:46|249:84|249:84|174:51,1,400,8|0,0:0|0:0,0:0:0:0:
122,136,38758,1,8,0:0:0:0:
63,91,38919,2,0,B|124:65|124:65|197:101|197:101|231:176|231:176|132:231,1,300,8|0,0:0|0:0,0:0:0:0:
117,274,39566,1,0,0:0:0:0:
117,274,39647,1,0,0:0:0:0:
117,274,39728,6,0,B|176:243|233:271|233:271|192:308|199:394|297:405|352:363|336:282|293:265|293:265|361:282|447:230|392:277|392:277|375:338|438:365,1,640,0|2,0:0|0:0,0:0:0:0:
434,365,41183,1,0,0:0:0:0:
448,373,41345,1,10,0:0:0:0:
461,380,41506,1,8,0:0:0:0:
268,314,41668,5,10,0:0:0:0:
256,192,41749,12,0,46842,0:0:0:0:
