osu file format v14

[General]
AudioFilename: audio.ogg
AudioLeadIn: 0
PreviewTime: 6459
Countdown: 0
SampleSet: Normal
StackLeniency: 0.7
Mode: 1
LetterboxInBreaks: 0
WidescreenStoryboard: 0

[Editor]
Bookmarks: 6823,19623,32423
DistanceSpacing: 0.9
BeatDivisor: 4
GridSize: 32
TimelineZoom: 1

[Metadata]
Title:Bein' Friends (VinylCheese VRC6 Remake) (Sped Up Ver.)
TitleUnicode:Bein' Friends (VinylCheese VRC6 Remake) (Sped Up Ver.)
Artist:Suzuki Keiichi, Tanaka Hirokazu
ArtistUnicode:鈴木慶一, 田中宏和
Creator:PentagonGlxy
Version:Muzukashii
Source:MOTHER
Tags:マザー 8-bit 8bit earthbound beginnings zero famicom nes electronic instrumental video game ost original soundtrack yuki_momoiro722 thepotatowhisperer chiptune
BeatmapID:3000928
BeatmapSetID:1452621

[Difficulty]
HPDrainRate:8
CircleSize:2
OverallDifficulty:4
ApproachRate:10
SliderMultiplier:1.4
SliderTickRate:1

[Events]
//Background and Video events
0,0,"bg.png",0,0
//Break Periods
//Storyboard Layer 0 (Background)
//Storyboard Layer 1 (Fail)
//Storyboard Layer 2 (Pass)
//Storyboard Layer 3 (Foreground)
//Storyboard Layer 4 (Overlay)
//Storyboard Sound Samples

[TimingPoints]
60,399.999999999767,4,1,0,60,1,0
19659,-100,4,1,0,60,0,1
32059,-100,4,1,0,60,0,0

[HitObjects]
257,193,60,5,2,0:0:0:0:
257,193,259,1,2,0:0:0:0:
257,193,659,1,2,0:0:0:0:
257,193,1059,1,2,0:0:0:0:
257,193,1659,1,0,0:0:0:0:
257,193,1859,1,0,0:0:0:0:
258,188,2259,1,2,0:0:0:0:
258,188,2659,1,2,0:0:0:0:
258,188,3259,1,0,0:0:0:0:
258,188,3459,1,0,0:0:0:0:
258,188,3859,1,2,0:0:0:0:
258,188,4259,1,2,0:0:0:0:
258,191,4859,1,0,0:0:0:0:
258,191,5059,1,0,0:0:0:0:
258,191,5459,1,2,0:0:0:0:
258,191,6059,1,0,0:0:0:0:
258,191,6459,1,2,0:0:0:0:
258,191,6659,1,0,0:0:0:0:
258,191,6859,1,0,0:0:0:0:
258,191,7059,1,2,0:0:0:0:
258,191,7459,1,2,0:0:0:0:
258,191,7859,1,2,0:0:0:0:
258,191,8059,1,2,0:0:0:0:
258,191,8259,1,0,0:0:0:0:
258,191,8459,1,2,0:0:0:0:
258,191,8659,1,0,0:0:0:0:
253,190,9259,1,2,0:0:0:0:
253,190,9659,1,0,0:0:0:0:
253,190,9859,1,0,0:0:0:0:
253,190,10059,1,2,0:0:0:0:
253,190,10259,1,0,0:0:0:0:
253,190,10659,1,0,0:0:0:0:
253,190,11059,1,2,0:0:0:0:
253,190,11259,1,2,0:0:0:0:
253,190,11459,1,0,0:0:0:0:
253,190,11659,1,2,0:0:0:0:
253,190,11859,1,0,0:0:0:0:
255,191,12259,1,2,0:0:0:0:
255,191,12459,1,2,0:0:0:0:
253,190,12859,1,2,0:0:0:0:
253,190,13059,1,0,0:0:0:0:
253,190,13259,1,0,0:0:0:0:
253,190,13459,1,2,0:0:0:0:
253,190,13859,1,2,0:0:0:0:
253,190,14259,1,2,0:0:0:0:
253,190,14459,1,2,0:0:0:0:
253,190,14659,1,0,0:0:0:0:
253,190,14859,1,2,0:0:0:0:
253,190,15059,1,0,0:0:0:0:
253,190,15659,1,2,0:0:0:0:
253,190,16059,1,0,0:0:0:0:
253,190,16259,1,0,0:0:0:0:
253,190,16459,1,2,0:0:0:0:
253,190,16659,1,2,0:0:0:0:
253,190,17059,1,0,0:0:0:0:
253,190,17459,1,2,0:0:0:0:
253,190,17659,1,2,0:0:0:0:
253,190,17859,1,0,0:0:0:0:
253,190,18059,1,2,0:0:0:0:
253,190,18259,1,0,0:0:0:0:
254,190,18659,1,2,0:0:0:0:
254,190,18859,1,2,0:0:0:0:
253,190,19659,1,0,0:0:0:0:
253,190,19859,1,0,0:0:0:0:
253,190,20059,1,2,0:0:0:0:
253,190,20459,1,2,0:0:0:0:
253,190,20659,1,0,0:0:0:0:
253,190,20859,1,2,0:0:0:0:
253,190,21259,1,2,0:0:0:0:
253,190,21659,1,0,0:0:0:0:
253,190,22059,1,2,0:0:0:0:
253,190,22459,1,0,0:0:0:0:
253,190,22659,1,2,0:0:0:0:
253,190,22759,1,2,0:0:0:0:
253,190,22859,1,2,0:0:0:0:
254,191,23259,1,0,0:0:0:0:
253,190,23659,1,2,0:0:0:0:
253,190,24059,1,2,0:0:0:0:
253,190,24259,1,2,0:0:0:0:
253,190,24459,1,2,0:0:0:0:
253,190,24659,1,0,0:0:0:0:
253,190,24859,1,2,0:0:0:0:
253,190,25259,1,0,0:0:0:0:
253,190,26059,1,0,0:0:0:0:
253,190,26259,1,0,0:0:0:0:
253,190,26459,1,2,0:0:0:0:
253,190,26859,1,2,0:0:0:0:
253,190,27059,1,0,0:0:0:0:
253,190,27259,1,2,0:0:0:0:
253,190,27659,1,0,0:0:0:0:
253,190,28059,1,2,0:0:0:0:
253,190,28459,1,2,0:0:0:0:
253,190,28859,1,0,0:0:0:0:
253,190,29059,1,2,0:0:0:0:
253,190,29159,1,2,0:0:0:0:
253,190,29259,1,2,0:0:0:0:
255,187,29659,1,0,0:0:0:0:
253,190,30059,1,2,0:0:0:0:
253,190,30459,1,2,0:0:0:0:
253,190,30659,1,2,0:0:0:0:
253,190,30859,1,0,0:0:0:0:
253,190,31059,1,0,0:0:0:0:
253,190,31259,1,2,0:0:0:0:
253,190,31659,1,0,0:0:0:0:
254,192,32059,1,2,0:0:0:0:
254,192,32459,1,0,0:0:0:0:
254,192,32859,1,2,0:0:0:0:
254,192,33259,1,2,0:0:0:0:
254,192,33459,1,2,0:0:0:0:
254,192,33659,1,0,0:0:0:0:
254,192,34059,1,2,0:0:0:0:
264,196,34459,1,0,0:0:0:0:
254,192,35259,1,2,0:0:0:0:
254,192,35459,1,0,0:0:0:0:
254,192,35659,1,2,0:0:0:0:
254,192,35859,1,0,0:0:0:0:
254,192,36059,1,0,0:0:0:0:
254,192,36459,1,0,0:0:0:0:
254,192,36659,1,0,0:0:0:0:
254,192,36859,1,2,0:0:0:0:
254,192,37259,1,2,0:0:0:0:
254,192,37659,1,2,0:0:0:0:
254,192,37759,1,2,0:0:0:0:
254,192,37859,1,2,0:0:0:0:
254,192,38059,1,2,0:0:0:0:
254,192,38259,1,2,0:0:0:0:
