osu file format v14

[General]
AudioFilename: audio.mp3
AudioLeadIn: 0
PreviewTime: 8787
Countdown: 0
SampleSet: Normal
StackLeniency: 0.7
Mode: 1
LetterboxInBreaks: 0
WidescreenStoryboard: 1

[Editor]
DistanceSpacing: 1
BeatDivisor: 2
GridSize: 32
TimelineZoom: 1.4

[Metadata]
Title:Pollyanna (I Believe in You)
TitleUnicode:Pollyanna (I Believe in You)
Artist:Suzuki Keiichi
ArtistUnicode:鈴木慶一
Creator:Horiiizon
Version:Oni
Source:Mother
Tags:chiptune earthbound beginnings zero famicom nes electronic instrumental video game ost original soundtrack
BeatmapID:2507245
BeatmapSetID:1204058

[Difficulty]
HPDrainRate:6
CircleSize:5
OverallDifficulty:4.5
ApproachRate:5
SliderMultiplier:1.4
SliderTickRate:1

[Events]
//Background and Video events
0,0,"Vast world.png",0,-132
//Break Periods
//Storyboard Layer 0 (Background)
//Storyboard Layer 1 (Fail)
//Storyboard Layer 2 (Pass)
//Storyboard Layer 3 (Foreground)
//Storyboard Layer 4 (Overlay)
//Storyboard Sound Samples

[TimingPoints]
266,532.575892064619,4,1,0,50,1,0
266,-109.89010989011,4,1,0,50,0,0
7722,-108.695652173913,4,1,0,50,0,0
7855,-107.52688172043,4,1,0,50,0,0
7988,-106.382978723404,4,1,0,50,0,0
8254,-104.166666666667,4,1,0,50,0,0
8787,-100,4,1,0,50,0,0
42339,-96.7773153972709,4,1,0,50,0,0
42605,-93.7558597412338,4,1,0,50,0,0
42872,-90.9090909090909,4,1,0,50,0,1
49529,-91.743119266055,4,1,0,50,0,1
49795,-92.5925925925926,4,1,0,50,0,1
50061,-93.4579439252336,4,1,0,50,0,1
50328,-94.3396226415094,4,1,0,50,0,1
50594,-95.2380952380952,4,1,0,50,0,1
51126,-97.0873786407767,4,1,0,50,0,1
51393,-98.0392156862745,4,1,0,50,0,0
51925,-100,4,1,0,50,0,0

[HitObjects]
212,237,266,5,0,0:0:0:0:
224,224,532,1,8,0:0:0:0:
229,232,665,1,8,0:0:0:0:
222,219,798,1,8,0:0:0:0:
222,219,1064,1,0,0:0:0:0:
228,244,1597,1,8,0:0:0:0:
207,205,2130,1,8,0:0:0:0:
205,240,2263,1,8,0:0:0:0:
206,219,2396,1,8,0:0:0:0:
233,284,2662,1,0,0:0:0:0:
231,293,3195,1,8,0:0:0:0:
215,243,3727,1,0,0:0:0:0:
215,243,4260,1,8,0:0:0:0:
211,226,4526,1,0,0:0:0:0:
230,237,4792,1,0,0:0:0:0:
249,276,4926,1,0,0:0:0:0:
216,281,5059,1,8,0:0:0:0:
205,257,5325,1,0,0:0:0:0:
205,289,5858,1,8,0:0:0:0:
210,284,6390,1,8,0:0:0:0:
235,282,6923,1,0,0:0:0:0:
235,282,7189,1,8,0:0:0:0:
216,260,7722,1,8,0:0:0:0:
216,260,7855,1,8,0:0:0:0:
222,244,7988,1,0,0:0:0:0:
205,254,8254,1,8,0:0:0:0:
265,253,8787,1,0,0:0:0:0:
265,253,9053,1,0,0:0:0:0:
260,260,9319,1,8,0:0:0:0:
236,264,9586,1,8,0:0:0:0:
200,257,9719,1,0,0:0:0:0:
233,271,9852,1,8,0:0:0:0:
246,248,10384,1,8,0:0:0:0:
244,190,10651,1,0,0:0:0:0:
255,293,11183,1,0,0:0:0:0:
255,293,11316,1,0,0:0:0:0:
255,293,11450,1,8,0:0:0:0:
255,293,11716,1,8,0:0:0:0:
237,254,12248,1,8,0:0:0:0:
255,293,12382,1,0,0:0:0:0:
260,254,12515,1,0,0:0:0:0:
234,238,12781,1,8,0:0:0:0:
237,254,13047,1,8,0:0:0:0:
230,192,13314,1,0,0:0:0:0:
240,194,13580,1,8,0:0:0:0:
245,200,13846,1,0,0:0:0:0:
245,200,14112,1,8,0:0:0:0:
245,200,14645,1,0,0:0:0:0:
224,193,14911,1,8,0:0:0:0:
224,193,15044,1,8,0:0:0:0:
224,193,15178,1,0,0:0:0:0:
218,272,15444,1,8,0:0:0:0:
224,216,15577,1,8,0:0:0:0:
217,218,15710,1,8,0:0:0:0:
217,218,15976,1,0,0:0:0:0:
217,218,16243,1,0,0:0:0:0:
210,183,16376,1,8,0:0:0:0:
217,218,16509,1,8,0:0:0:0:
217,218,16775,1,0,0:0:0:0:
217,218,16908,1,0,0:0:0:0:
217,218,17042,1,8,0:0:0:0:
265,253,17308,1,0,0:0:0:0:
265,253,17574,1,0,0:0:0:0:
260,260,17841,1,8,0:0:0:0:
236,264,18107,1,8,0:0:0:0:
200,257,18240,1,0,0:0:0:0:
233,271,18373,1,8,0:0:0:0:
246,248,18906,1,8,0:0:0:0:
244,190,19172,1,0,0:0:0:0:
255,293,19705,1,0,0:0:0:0:
255,293,19838,1,0,0:0:0:0:
255,293,19971,1,8,0:0:0:0:
255,293,20237,1,8,0:0:0:0:
237,254,20770,1,8,0:0:0:0:
255,293,20903,1,0,0:0:0:0:
260,254,21036,1,0,0:0:0:0:
234,238,21302,1,8,0:0:0:0:
237,254,21569,1,8,0:0:0:0:
230,192,21835,1,0,0:0:0:0:
240,194,22101,1,8,0:0:0:0:
245,200,22367,1,0,0:0:0:0:
245,200,22634,1,8,0:0:0:0:
245,200,23166,1,0,0:0:0:0:
224,193,23433,1,8,0:0:0:0:
224,193,23566,1,8,0:0:0:0:
224,193,23699,1,0,0:0:0:0:
218,272,23965,1,8,0:0:0:0:
224,216,24098,1,8,0:0:0:0:
217,218,24231,1,8,0:0:0:0:
217,218,24498,1,0,0:0:0:0:
217,218,24764,1,0,0:0:0:0:
208,210,24897,1,8,0:0:0:0:
217,218,25030,1,8,0:0:0:0:
217,218,25297,1,0,0:0:0:0:
217,218,25430,1,0,0:0:0:0:
217,218,25563,1,8,0:0:0:0:
221,252,25829,1,8,0:0:0:0:
236,271,26095,1,8,0:0:0:0:
224,224,26362,1,0,0:0:0:0:
232,205,26628,1,0,0:0:0:0:
224,224,26894,1,8,0:0:0:0:
222,240,27161,1,0,0:0:0:0:
207,205,27294,1,8,0:0:0:0:
241,247,27427,1,0,0:0:0:0:
233,263,27693,1,0,0:0:0:0:
233,286,27959,1,8,0:0:0:0:
266,295,28226,1,8,0:0:0:0:
270,325,28359,1,0,0:0:0:0:
266,295,28492,1,8,0:0:0:0:
266,295,28758,1,0,0:0:0:0:
223,212,29025,1,8,0:0:0:0:
233,212,29557,1,0,0:0:0:0:
233,212,29690,1,0,0:0:0:0:
219,256,29823,1,8,0:0:0:0:
242,277,30090,1,8,0:0:0:0:
268,293,30356,1,0,0:0:0:0:
242,277,30622,1,0,0:0:0:0:
250,276,30889,1,8,0:0:0:0:
250,276,31155,1,8,0:0:0:0:
250,276,31421,1,0,0:0:0:0:
250,276,31687,1,0,0:0:0:0:
250,276,31954,1,8,0:0:0:0:
250,276,32220,1,8,0:0:0:0:
240,228,32753,1,8,0:0:0:0:
237,222,33285,1,0,0:0:0:0:
237,222,33418,1,8,0:0:0:0:
237,222,33551,1,8,0:0:0:0:
237,222,33818,1,8,0:0:0:0:
241,214,34084,1,8,0:0:0:0:
250,255,34350,1,0,0:0:0:0:
198,282,34617,1,8,0:0:0:0:
198,282,34750,1,8,0:0:0:0:
200,281,34883,1,0,0:0:0:0:
206,225,35149,1,0,0:0:0:0:
206,225,35282,1,0,0:0:0:0:
224,267,35416,1,8,0:0:0:0:
221,273,35682,1,0,0:0:0:0:
246,304,35948,1,0,0:0:0:0:
221,273,36214,1,0,0:0:0:0:
217,292,36481,1,8,0:0:0:0:
219,227,36747,1,8,0:0:0:0:
256,301,36880,1,0,0:0:0:0:
219,227,37013,1,0,0:0:0:0:
257,296,37280,1,0,0:0:0:0:
215,156,37812,1,8,0:0:0:0:
215,156,38078,1,0,0:0:0:0:
221,261,38611,1,0,0:0:0:0:
216,278,38877,1,0,0:0:0:0:
210,210,39010,1,8,0:0:0:0:
228,296,39144,1,8,0:0:0:0:
216,298,39410,1,8,0:0:0:0:
219,283,39543,1,0,0:0:0:0:
229,298,39676,1,8,0:0:0:0:
210,291,39942,1,8,0:0:0:0:
206,226,40209,1,8,0:0:0:0:
205,316,40342,1,0,0:0:0:0:
226,258,40475,1,0,0:0:0:0:
210,307,40741,1,0,0:0:0:0:
235,298,41008,1,0,0:0:0:0:
214,196,41141,1,0,0:0:0:0:
185,214,41274,1,8,0:0:0:0:
206,237,41540,1,8,0:0:0:0:
223,235,41673,1,8,0:0:0:0:
185,220,41806,1,0,0:0:0:0:
243,288,42339,1,0,0:0:0:0:
243,230,42605,1,0,0:0:0:0:
243,230,42872,1,8,0:0:0:0:
227,232,43138,1,8,0:0:0:0:
242,316,43271,1,8,0:0:0:0:
242,316,43404,1,0,0:0:0:0:
242,316,43670,1,0,0:0:0:0:
221,285,43804,1,0,0:0:0:0:
221,285,43937,1,8,0:0:0:0:
221,285,44203,1,0,0:0:0:0:
225,288,44469,1,8,0:0:0:0:
218,248,45002,1,8,0:0:0:0:
222,227,45268,1,8,0:0:0:0:
198,240,45401,1,0,0:0:0:0:
222,227,45534,1,0,0:0:0:0:
198,240,45801,1,8,0:0:0:0:
217,227,45934,1,0,0:0:0:0:
217,227,46067,1,8,0:0:0:0:
234,228,46333,1,8,0:0:0:0:
346,232,46600,1,0,0:0:0:0:
261,247,46866,1,0,0:0:0:0:
243,230,47132,1,8,0:0:0:0:
227,232,47398,1,8,0:0:0:0:
242,316,47532,1,8,0:0:0:0:
242,316,47665,1,0,0:0:0:0:
242,316,47931,1,0,0:0:0:0:
221,285,48064,1,0,0:0:0:0:
221,285,48197,1,8,0:0:0:0:
221,285,48464,1,0,0:0:0:0:
225,288,48730,1,8,0:0:0:0:
213,253,49262,1,0,0:0:0:0:
221,258,49529,1,0,0:0:0:0:
246,231,49795,1,8,0:0:0:0:
246,231,50061,1,8,0:0:0:0:
229,257,50328,1,8,0:0:0:0:
184,230,50594,1,0,0:0:0:0:
184,230,51126,1,8,0:0:0:0:
206,167,51393,1,0,0:0:0:0:
226,186,51925,1,8,0:0:0:0:
218,203,52192,1,0,0:0:0:0:
213,235,52458,1,0,0:0:0:0:
226,186,52724,1,0,0:0:0:0:
258,225,52991,1,8,0:0:0:0:
241,242,53124,1,8,0:0:0:0:
241,242,53257,1,8,0:0:0:0:
