osu file format v14

[General]
AudioFilename: audio.mp3
AudioLeadIn: 0
PreviewTime: 8787
Countdown: 0
SampleSet: Normal
StackLeniency: 0.7
Mode: 1
LetterboxInBreaks: 0
WidescreenStoryboard: 1

[Editor]
DistanceSpacing: 1
BeatDivisor: 4
GridSize: 32
TimelineZoom: 1.4

[Metadata]
Title:Pollyanna (I Believe in You)
TitleUnicode:Pollyanna (I Believe in You)
Artist:Suzuki Keiichi
ArtistUnicode:鈴木慶一
Creator:Horiiizon
Version:Kantan
Source:Mother
Tags:chiptune earthbound beginnings zero famicom nes electronic instrumental video game ost original soundtrack
BeatmapID:2507243
BeatmapSetID:1204058

[Difficulty]
HPDrainRate:9
CircleSize:5
OverallDifficulty:3
ApproachRate:5
SliderMultiplier:1.4
SliderTickRate:1

[Events]
//Background and Video events
0,0,"Vast world.png",0,-132
//Break Periods
//Storyboard Layer 0 (Background)
//Storyboard Layer 1 (Fail)
//Storyboard Layer 2 (Pass)
//Storyboard Layer 3 (Foreground)
//Storyboard Layer 4 (Overlay)
//Storyboard Sound Samples

[TimingPoints]
266,532.575892064619,4,1,0,50,1,0
266,-105.263157894737,4,1,0,50,0,0
8787,-100,4,1,0,50,0,0
42872,-100,4,1,0,50,0,1
51393,-100,4,1,0,50,0,0

[HitObjects]
212,237,266,5,0,0:0:0:0:
228,244,1597,1,8,0:0:0:0:
216,261,2396,1,0,0:0:0:0:
233,284,2662,1,0,0:0:0:0:
231,293,3195,1,8,0:0:0:0:
217,231,4526,1,0,0:0:0:0:
205,289,5858,1,8,0:0:0:0:
210,284,6390,1,8,0:0:0:0:
216,260,7722,1,8,0:0:0:0:
200,232,8254,1,0,0:0:0:0:
265,253,8787,1,0,0:0:0:0:
204,192,9852,1,8,0:0:0:0:
218,204,10651,1,8,0:0:0:0:
222,228,11450,1,8,0:0:0:0:
230,188,13047,1,0,0:0:0:0:
245,200,14112,1,8,0:0:0:0:
222,246,15178,1,0,0:0:0:0:
232,187,16243,1,0,0:0:0:0:
265,253,17308,1,0,0:0:0:0:
204,192,18373,1,8,0:0:0:0:
218,204,19172,1,8,0:0:0:0:
224,218,19971,1,0,0:0:0:0:
238,188,21569,1,0,0:0:0:0:
245,200,22634,1,8,0:0:0:0:
221,191,23699,1,0,0:0:0:0:
237,180,24764,1,0,0:0:0:0:
214,274,25829,1,0,0:0:0:0:
223,268,27427,1,0,0:0:0:0:
266,295,28492,1,8,0:0:0:0:
268,250,29025,1,8,0:0:0:0:
221,187,30090,1,0,0:0:0:0:
242,277,30622,1,0,0:0:0:0:
250,276,31155,1,8,0:0:0:0:
235,214,32220,1,0,0:0:0:0:
226,194,33285,1,8,0:0:0:0:
221,183,33818,1,8,0:0:0:0:
221,183,34350,1,0,0:0:0:0:
221,239,35416,1,8,0:0:0:0:
246,304,35948,1,0,0:0:0:0:
217,292,36481,1,8,0:0:0:0:
225,229,37280,1,0,0:0:0:0:
221,261,38611,1,0,0:0:0:0:
231,206,39676,1,8,0:0:0:0:
209,199,40475,1,0,0:0:0:0:
213,197,41806,1,8,0:0:0:0:
243,288,42339,1,0,0:0:0:0:
243,230,42872,1,8,0:0:0:0:
230,211,43937,1,8,0:0:0:0:
222,227,45534,1,0,0:0:0:0:
236,204,46067,1,8,0:0:0:0:
243,230,47132,1,8,0:0:0:0:
230,211,48197,1,8,0:0:0:0:
221,183,49262,1,0,0:0:0:0:
220,177,50328,1,8,0:0:0:0:
225,196,51126,1,0,0:0:0:0:
213,235,52458,1,0,0:0:0:0:
222,172,52991,1,8,0:0:0:0:
