osu file format v14

[General]
AudioFilename: audio.mp3
AudioLeadIn: 0
PreviewTime: 11454
Countdown: 0
SampleSet: Normal
StackLeniency: 0.7
Mode: 1
LetterboxInBreaks: 0
WidescreenStoryboard: 1

[Editor]
Bookmarks: 144515
DistanceSpacing: 0.7
BeatDivisor: 4
GridSize: 32
TimelineZoom: 1

[Metadata]
Title:Onett
TitleUnicode:オネットのテーマ
Artist:Suzuki Keiichi
ArtistUnicode:鈴木慶一
Creator:Horiiizon
Version:Futsuu
Source:EarthBound
Tags:Earth Bound Mother 2 Chiptune Electronic Instrumental video game ost super nintendo snes famicom ギーグの逆襲
BeatmapID:2305076
BeatmapSetID:1102512

[Difficulty]
HPDrainRate:9.5
CircleSize:5
OverallDifficulty:3
ApproachRate:5
SliderMultiplier:1.4
SliderTickRate:1

[Events]
//Background and Video events
0,0,"Onett Earthbound.jpg",0,30
//Break Periods
//Storyboard Layer 0 (Background)
//Storyboard Layer 1 (Fail)
//Storyboard Layer 2 (Pass)
//Storyboard Layer 3 (Foreground)
//Storyboard Layer 4 (Overlay)
//Storyboard Sound Samples

[TimingPoints]
79,585.365853658537,4,1,0,60,1,0
7103,511.945392491468,4,1,0,40,1,0
11198,511.945392491468,4,1,0,40,1,0
11453,-100,4,1,0,60,0,1
27580,-100,4,1,0,70,0,0
36027,-100,4,1,0,60,0,1
52153,-100,4,1,0,50,0,0

[HitObjects]
254,196,79,5,0,0:0:0:0:
254,196,957,1,0,0:0:0:0:
184,185,1542,1,8,0:0:0:0:
254,196,2127,1,8,0:0:0:0:
257,174,2420,1,8,0:0:0:0:
254,196,3298,1,8,0:0:0:0:
256,188,4469,1,0,0:0:0:0:
266,197,4761,1,0,0:0:0:0:
266,197,5639,1,8,0:0:0:0:
265,203,6225,1,8,0:0:0:0:
253,194,7103,1,0,0:0:0:0:
253,194,8126,1,8,0:0:0:0:
253,194,9150,1,0,0:0:0:0:
253,194,10174,1,8,0:0:0:0:
253,194,10430,1,8,0:0:0:0:
253,194,10686,1,8,0:0:0:0:
245,192,11454,1,8,0:0:0:0:
235,198,12221,1,0,0:0:0:0:
242,193,13502,1,8,0:0:0:0:
252,191,14270,1,0,0:0:0:0:
252,191,14526,1,0,0:0:0:0:
241,194,15550,1,8,0:0:0:0:
246,206,16317,1,0,0:0:0:0:
241,194,17597,1,8,0:0:0:0:
255,174,18365,1,0,0:0:0:0:
251,185,18877,1,0,0:0:0:0:
231,212,19645,1,8,0:0:0:0:
234,191,20413,1,0,0:0:0:0:
222,174,21692,1,8,0:0:0:0:
234,191,22461,1,0,0:0:0:0:
246,195,23228,1,0,0:0:0:0:
221,180,23740,1,8,0:0:0:0:
234,191,24509,1,0,0:0:0:0:
243,184,25788,1,8,0:0:0:0:
234,191,26556,1,0,0:0:0:0:
231,179,27324,1,0,0:0:0:0:
234,191,27580,1,8,0:0:0:0:
234,191,28092,1,8,0:0:0:0:
234,191,28348,1,8,0:0:0:0:
251,195,29372,1,8,0:0:0:0:
251,195,29628,1,8,0:0:0:0:
251,195,30396,1,0,0:0:0:0:
255,176,31675,1,0,0:0:0:0:
246,197,32188,1,0,0:0:0:0:
246,197,32444,1,0,0:0:0:0:
246,197,33211,1,8,0:0:0:0:
246,197,33724,1,8,0:0:0:0:
246,197,34236,1,8,0:0:0:0:
256,177,34491,1,0,0:0:0:0:
245,192,36027,1,8,0:0:0:0:
235,198,36794,1,0,0:0:0:0:
242,193,38075,1,8,0:0:0:0:
252,191,38843,1,0,0:0:0:0:
252,191,39099,1,0,0:0:0:0:
241,194,40123,1,8,0:0:0:0:
246,206,40890,1,0,0:0:0:0:
241,194,42170,1,8,0:0:0:0:
255,174,42938,1,0,0:0:0:0:
251,185,43450,1,0,0:0:0:0:
231,212,44218,1,8,0:0:0:0:
234,191,44986,1,0,0:0:0:0:
222,174,46265,1,8,0:0:0:0:
234,191,47034,1,0,0:0:0:0:
246,195,47801,1,0,0:0:0:0:
221,180,48313,1,8,0:0:0:0:
234,191,49082,1,0,0:0:0:0:
243,184,50361,1,8,0:0:0:0:
234,191,51129,1,0,0:0:0:0:
231,179,51897,5,0,0:0:0:0:
256,190,52153,5,0,0:0:0:0:
231,205,52921,1,0,0:0:0:0:
256,190,53690,1,8,0:0:0:0:
256,190,54201,1,8,0:0:0:0:
223,185,54969,1,0,0:0:0:0:
256,190,55737,1,8,0:0:0:0:
256,190,56249,1,0,0:0:0:0:
249,211,57017,1,8,0:0:0:0:
259,204,57529,1,0,0:0:0:0:
259,204,58041,1,0,0:0:0:0:
256,211,59321,1,8,0:0:0:0:
256,211,60345,1,0,0:0:0:0:
256,211,61113,1,8,0:0:0:0:
256,211,62393,1,8,0:0:0:0:
252,219,63161,1,8,0:0:0:0:
246,214,63928,1,0,0:0:0:0:
246,214,64440,1,8,0:0:0:0:
254,188,65208,1,0,0:0:0:0:
245,196,65976,1,0,0:0:0:0:
255,186,66488,1,8,0:0:0:0:
241,196,67256,1,8,0:0:0:0:
