osu file format v14

[General]
AudioFilename: audio.mp3
AudioLeadIn: 0
PreviewTime: 54520
Countdown: 0
SampleSet: Soft
StackLeniency: 0.7
Mode: 0
LetterboxInBreaks: 0
WidescreenStoryboard: 0

[Editor]
DistanceSpacing: 0.1
BeatDivisor: 4
GridSize: 16
TimelineZoom: 2.5

[Metadata]
Title:The Beautiful Brave (TV Size)
TitleUnicode:The Beautiful Brave (TV Size)
Artist:Suzuki Aina, M.A.O, Minase Inori, Nakajima Megumi
ArtistUnicode:鈴木 愛奈, M・A・O, 水瀬 いのり, 中島 愛
Creator:Alexsander
Version:Hard
Source:聖闘士星矢 セインティア翔
Tags:Saint Seiya: Saintia Sho short version Shoko Kyoko Kyouko Saori Kido Athena Mii Ichimichi 翔子 沙織 響子 美衣 anime japanese rock jrock
BeatmapID:2892915
BeatmapSetID:1400373

[Difficulty]
HPDrainRate:5
CircleSize:3.4
OverallDifficulty:6.5
ApproachRate:8
SliderMultiplier:1.4
SliderTickRate:1

[Events]
//Background and Video events
Video,-130,"op.mp4"
0,0,"bg.jpg",0,0
//Break Periods
//Storyboard Layer 0 (Background)
//Storyboard Layer 1 (Fail)
//Storyboard Layer 2 (Pass)
//Storyboard Layer 3 (Foreground)
//Storyboard Layer 4 (Overlay)
//Storyboard Sound Samples

[TimingPoints]
205,315.789473684211,4,2,1,70,1,0
12836,-125,4,2,1,60,0,0
13152,-125,4,2,1,50,0,0
22626,-166.666666666667,4,2,1,50,0,0
22941,-100,4,2,1,60,0,0
33047,-100,4,2,1,60,0,0
53257,-100,4,2,1,70,0,0
53889,-100,4,2,1,70,0,0
54205,-100,4,2,1,60,0,0
54520,-100,4,2,1,80,0,1
64626,-100,4,2,1,90,0,1
74731,-100,4,2,1,80,0,1
81678,-90.9090909090909,4,2,1,80,0,1
87047,-83.3333333333333,4,2,1,40,0,0

[Colours]
Combo1 : 30,202,236
Combo2 : 41,116,165

[HitObjects]
16,28,205,6,0,L|48:173,1,140,6|8,0:0|0:0,0:0:0:0:
92,243,678,2,0,P|151:202|215:221,1,140,2|2,3:2|3:2,0:0:0:0:
273,287,1152,1,10,0:0:0:0:
342,228,1310,1,2,0:0:0:0:
411,308,1468,6,0,L|484:307,1,70,2|0,3:2|0:0,0:0:0:0:
443,224,1783,1,8,0:0:0:0:
504,152,1941,2,0,P|510:115|493:65,1,70,2|0,3:2|0:0,0:0:0:0:
432,24,2257,1,2,3:2:0:0:
349,62,2415,1,8,0:0:0:0:
264,27,2573,1,2,0:0:0:0:
214,120,2731,6,0,L|231:266,1,140,2|8,3:2|0:0,0:0:0:0:
313,296,3205,2,0,L|383:291,1,70,2|0,3:2|0:0,0:0:0:0:
351,376,3520,1,2,3:2:0:0:
259,378,3678,2,0,L|189:383,1,70,10|0,0:0|3:0,0:0:0:0:
101,382,3994,5,2,3:2:0:0:
101,382,4152,1,0,3:0:0:0:
28,314,4310,2,0,P|14:279|24:239,1,70,14|0,0:0|3:0,0:0:0:0:
46,163,4626,1,2,3:2:0:0:
46,163,4783,1,0,3:2:0:0:
151,163,4941,2,0,L|240:164,1,70,14|0,0:0|3:0,0:0:0:0:
303,229,5257,6,0,B|329:175|329:175|303:80,1,140,6|8,3:2|0:0,0:0:0:0:
247,29,5731,2,0,L|98:27,1,140,2|2,3:2|3:2,0:0:0:0:
38,87,6205,1,8,0:0:0:0:
97,155,6362,1,2,0:0:0:0:
23,230,6520,6,0,P|15:280|23:312,1,70,2|0,3:2|0:0,0:0:0:0:
70,373,6836,1,8,0:0:0:0:
150,330,6994,2,0,L|221:321,1,70,2|0,3:2|0:0,0:0:0:0:
300,364,7310,1,2,3:2:0:0:
366,301,7468,1,8,0:0:0:0:
449,338,7626,1,2,0:0:0:0:
495,243,7783,6,0,P|512:172|457:110,1,140,2|8,3:2|0:0,0:0:0:0:
385,131,8257,2,0,L|294:126,1,70,2|0,3:2|0:0,0:0:0:0:
240,73,8573,1,0,3:0:0:0:
203,156,8731,2,0,L|226:251,1,70,8|2,0:0|0:0,0:0:0:0:
179,322,9047,6,0,P|141:307|103:309,1,70,2|0,3:2|3:0,0:0:0:0:
31,349,9362,1,8,0:0:0:0:
5,261,9520,1,0,3:0:0:0:
5,261,9599,1,0,3:0:0:0:
5,261,9678,2,0,L|11:178,1,70,6|0,3:2|3:0,0:0:0:0:
15,99,9994,1,6,0:0:0:0:
122,148,10152,1,0,3:0:0:0:
122,148,10231,1,0,3:0:0:0:
122,148,10310,6,0,L|212:167,1,70,0|0,3:0|3:0,0:0:0:0:
270,207,10626,2,0,B|302:170|302:170|338:189|415:185,1,140,14|0,0:0|3:0,0:0:0:0:
480,168,11099,1,0,3:0:0:0:
492,62,11257,2,0,P|454:38|404:38,1,70,14|0,0:0|0:0,0:0:0:0:
325,49,11573,5,14,0:0:0:0:
246,14,11731,1,0,3:0:0:0:
246,14,11889,1,0,3:0:0:0:
168,84,12047,2,0,L|185:159,1,70,14|0,0:0|3:0,0:0:0:0:
165,241,12362,1,0,3:0:0:0:
87,170,12520,2,0,P|47:164|10:178,1,70,6|0,0:0|3:0,0:0:0:0:
53,246,12836,6,0,L|187:239,1,112,6|2,3:2|3:2,0:0:0:0:
233,191,13310,1,0,0:0:0:0:
290,252,13468,1,0,3:2:0:0:
290,252,13626,2,0,L|351:240,1,56,2|0,0:0|3:0,0:0:0:0:
405,183,13941,2,0,P|427:218|430:247,1,56,2|0,0:0|3:0,0:0:0:0:
421,316,14257,2,0,L|298:344,1,112,2|0,0:0|0:0,0:0:0:0:
230,315,14731,5,0,3:0:0:0:
72,382,15047,1,0,3:0:0:0:
2,229,15362,1,0,3:0:0:0:
144,140,15678,6,0,L|160:210,2,56,2|0|0,3:2|0:0|3:0,0:0:0:0:
67,102,16152,2,0,L|80:30,1,56,2|0,0:0|3:0,0:0:0:0:
153,9,16468,2,0,P|185:31|208:37,1,56,2|0,0:0|3:0,0:0:0:0:
284,42,16783,2,0,P|335:25|403:52,1,112,2|0,0:0|0:0,0:0:0:0:
447,101,17257,5,0,3:0:0:0:
349,238,17573,1,0,3:0:0:0:
447,374,17889,1,0,3:0:0:0:
470,207,18205,6,0,L|408:184,1,56,2|0,3:2|0:0,0:0:0:0:
357,128,18520,1,0,3:0:0:0:
357,128,18678,2,0,L|285:138,1,56,2|0,0:0|3:0,0:0:0:0:
221,162,18994,2,0,P|223:199|238:233,1,56,2|0,0:0|3:0,0:0:0:0:
279,284,19310,2,0,P|215:265|166:296,1,112,2|0,0:0|0:0,0:0:0:0:
145,361,19783,5,0,3:2:0:0:
228,353,19941,1,2,0:3:0:0:
308,378,20099,2,0,P|355:378|373:372,1,56,2|2,3:2|0:0,0:0:0:0:
447,323,20415,5,0,3:0:0:0:
447,323,20573,1,0,3:0:0:0:
502,259,20731,2,0,L|481:197,1,56,2|0,3:2|0:0,0:0:0:0:
405,175,21047,2,0,L|418:99,1,56,2|0,3:2|0:0,0:0:0:0:
384,41,21362,2,0,P|358:57|332:63,1,56,2|2,3:2|0:0,0:0:0:0:
248,62,21678,5,2,3:2:0:0:
166,40,21836,1,2,0:0:0:0:
90,77,21994,2,0,L|97:138,1,56,2|2,3:2|0:0,0:0:0:0:
60,209,22310,2,0,L|52:249,3,28,0|0|0|0,1:0|1:0|1:0|1:0,0:0:0:0:
33,269,22626,1,10,1:2:0:0:
174,351,22941,6,0,P|222:312|306:322,1,140,6|10,3:2|0:0,0:0:0:0:
380,353,23415,1,0,0:0:0:0:
438,283,23573,1,2,3:2:0:0:
438,283,23731,2,0,L|429:211,1,70,0|8,3:0|0:0,0:0:0:0:
337,159,24047,6,0,L|193:182,1,140,2|2,3:2|3:2,0:0:0:0:
136,247,24520,2,0,P|103:192|137:118,1,140,8|0,0:0|3:0,0:0:0:0:
195,63,24994,1,0,3:0:0:0:
285,55,25152,2,0,L|374:51,1,70,8|0,0:0|0:0,0:0:0:0:
459,87,25468,6,0,B|496:126|496:126|481:218,1,140,4|10,3:2|0:0,0:0:0:0:
412,270,25941,1,0,0:0:0:0:
456,356,26099,1,2,3:2:0:0:
456,356,26257,2,0,L|373:357,1,70,0|8,3:0|0:0,0:0:0:0:
293,307,26573,6,0,P|331:268|414:271,1,140,2|0,3:2|3:0,0:0:0:0:
432,180,27047,2,0,L|352:170,1,70,8|0,0:0|0:0,0:0:0:0:
277,138,27362,2,0,P|264:115|259:91,3,35,0|0|0|0,3:0|3:0|3:0|3:0,0:0:0:0:
270,61,27678,2,0,L|182:58,1,70,8|0,0:0|0:0,0:0:0:0:
101,17,27994,6,0,L|123:159,1,140,6|10,3:2|0:0,0:0:0:0:
184,222,28468,1,0,0:0:0:0:
127,297,28626,1,0,3:2:0:0:
127,297,28783,2,0,P|88:300|40:286,1,70,2|8,3:2|0:0,0:0:0:0:
2,203,29099,6,0,L|25:43,1,140,2|0,3:2|3:0,0:0:0:0:
103,23,29573,2,0,P|157:49|235:25,1,140,10|0,0:0|3:0,0:0:0:0:
323,0,30047,1,0,3:0:0:0:
391,60,30205,1,10,0:0:0:0:
333,129,30362,1,2,0:0:0:0:
411,174,30520,6,0,L|463:164,3,35,0|0|0|0,3:0|3:0|3:0|3:0,0:0:0:0:
491,167,30836,2,0,L|471:258,1,70,10|0,3:2|3:0,0:0:0:0:
413,302,31152,2,0,L|421:353,3,35,0|0|0|0,3:0|3:0|3:0|3:0,0:0:0:0:
387,370,31468,2,0,P|349:348|312:341,1,70,10|0,3:2|3:0,0:0:0:0:
209,357,31783,5,14,0:0:0:0:
128,315,31941,1,0,3:0:0:0:
120,224,32099,2,0,L|132:153,1,70,14|0,0:0|3:0,0:0:0:0:
207,103,32415,1,8,0:0:0:0:
285,149,32573,1,8,0:0:0:0:
371,119,32731,1,8,0:3:0:0:
390,20,32889,1,8,0:3:0:0:
390,20,32968,1,8,0:3:0:0:
390,20,33047,6,0,L|225:25,1,140,6|8,3:2|0:0,0:0:0:0:
159,16,33520,2,0,L|192:164,1,140,2|0,3:2|3:0,0:0:0:0:
228,235,33994,2,0,P|188:243|141:230,1,70,10|0,0:0|0:0,0:0:0:0:
59,206,34310,6,0,L|50:282,1,70,2|0,3:2|3:0,0:0:0:0:
20,361,34626,1,8,0:0:0:0:
108,379,34783,2,0,L|179:375,1,70,2|0,3:2|0:0,0:0:0:0:
263,342,35099,1,0,3:0:0:0:
263,342,35178,1,0,3:0:0:0:
263,342,35257,2,0,P|293:330|339:336,1,70,10|0,0:0|0:0,0:0:0:0:
429,372,35573,6,0,P|465:307|441:235,1,140,2|8,3:2|0:0,0:0:0:0:
398,170,36047,2,0,P|322:204|260:190,1,140,2|0,3:2|3:0,0:0:0:0:
199,134,36520,2,0,L|205:44,1,70,10|0,0:0|0:0,0:0:0:0:
294,10,36836,5,6,0:2:0:0:
351,87,36994,1,0,3:0:0:0:
351,87,37152,1,0,3:0:0:0:
433,19,37310,2,0,P|473:31|500:60,1,70,6|0,0:0|3:0,0:0:0:0:
505,140,37626,1,0,3:0:0:0:
432,216,37783,1,6,0:0:0:0:
501,280,37941,1,0,3:0:0:0:
423,355,38099,6,0,L|304:363,1,105,6|0,3:2|0:0,0:0:0:0:
276,382,38415,2,0,L|196:366,1,70,10|0,0:0|0:0,0:0:0:0:
148,305,38731,1,0,3:0:0:0:
148,305,38889,2,0,L|75:314,1,70,2|8,3:2|0:0,0:0:0:0:
6,236,39205,6,0,B|-17:191|-17:191|9:76,1,140,2|0,3:2|3:0,0:0:0:0:
93,107,39678,2,0,L|183:115,1,70,10|0,0:0|0:0,0:0:0:0:
237,165,39994,2,0,L|310:152,1,70,2|0,3:2|3:0,0:0:0:0:
385,198,40310,2,0,P|394:163|388:123,1,70,10|0,0:0|0:0,0:0:0:0:
356,32,40626,6,0,L|206:24,1,140,2|8,3:2|0:0,0:0:0:0:
137,69,41099,2,0,L|67:57,1,70,2|0,0:0|3:0,0:0:0:0:
6,125,41415,2,0,P|6:166|22:198,1,70,2|8,3:2|0:0,0:0:0:0:
90,247,41731,2,0,L|75:331,1,70,2|0,3:2|0:0,0:0:0:0:
143,379,42047,1,0,3:0:0:0:
212,299,42205,5,6,0:0:0:0:
298,325,42362,1,0,3:0:0:0:
377,280,42520,1,0,3:0:0:0:
420,200,42678,2,0,L|408:128,2,70,6|8|8,0:0|0:3|0:3,0:0:0:0:
333,107,43152,6,0,P|379:57|451:64,1,140,6|8,0:0|0:0,0:0:0:0:
505,131,43626,2,0,B|492:282,1,140,2|0,3:2|3:0,0:0:0:0:
438,343,44099,2,0,B|352:331,1,70,10|0,0:0|0:0,0:0:0:0:
268,367,44415,6,0,P|249:320|250:299,1,70,2|0,3:2|3:0,0:0:0:0:
290,219,44731,1,8,0:0:0:0:
199,207,44889,2,0,L|36:210,1,140,2|0,3:2|3:0,0:0:0:0:
30,174,45283,1,0,3:0:0:0:
30,174,45362,2,0,P|38:132|27:91,1,70,10|0,0:0|0:0,0:0:0:0:
105,26,45678,6,0,B|152:23|152:23|184:41|184:41|249:37,1,140,2|8,3:2|0:0,0:0:0:0:
325,70,46152,2,0,L|310:222,1,140,2|0,3:2|3:0,0:0:0:0:
349,292,46626,2,0,L|428:285,1,70,10|0,0:0|0:0,0:0:0:0:
496,214,46941,5,14,0:0:0:0:
441,148,47099,1,0,3:0:0:0:
441,148,47257,1,0,3:0:0:0:
510,66,47415,2,0,P|499:27|469:1,1,70,14|0,0:0|3:0,0:0:0:0:
397,49,47731,1,0,3:0:0:0:
297,15,47889,1,14,0:0:0:0:
231,78,48047,1,0,3:0:0:0:
140,25,48205,6,0,P|95:20|55:35,1,70,6|0,3:2|0:0,0:0:0:0:
21,102,48520,2,0,L|43:184,1,70,10|0,0:0|0:0,0:0:0:0:
93,243,48836,1,0,3:0:0:0:
169,194,48994,2,0,L|247:186,1,70,2|8,3:2|0:0,0:0:0:0:
341,217,49310,6,0,P|305:278|343:349,1,140,2|0,3:2|3:0,0:0:0:0:
413,371,49783,2,0,L|488:360,1,70,10|0,0:0|0:0,0:0:0:0:
506,272,50099,2,0,P|490:232|492:197,1,70,2|0,3:2|3:0,0:0:0:0:
494,114,50415,2,0,L|416:110,1,70,10|0,0:0|0:0,0:0:0:0:
320,136,50731,6,0,B|281:166|281:166|161:141,1,140,2|8,3:2|0:0,0:0:0:0:
102,126,51205,2,0,L|113:205,1,70,2|0,0:0|3:0,0:0:0:0:
155,275,51520,1,0,3:0:0:0:
241,246,51678,1,8,0:0:0:0:
212,350,51836,6,0,P|169:316|85:339,1,140,2|0,3:2|3:0,0:0:0:0:
23,272,52310,2,0,L|25:194,1,70,14|0,0:0|3:0,0:0:0:0:
91,139,52626,1,8,0:0:0:0:
30,71,52783,1,8,0:0:0:0:
99,12,52941,2,0,L|174:14,1,70,8|8,0:0|0:0,0:0:0:0:
242,67,53257,1,0,3:0:0:0:
336,19,53415,6,0,P|406:16|460:83,1,140,6|0,3:2|3:0,0:0:0:0:
393,131,53889,2,0,B|410:217,1,70,6|0,3:2|0:0,0:0:0:0:
366,282,54205,1,0,3:0:0:0:
286,238,54362,1,0,3:0:0:0:
181,256,54520,6,0,L|97:251,1,70,6|0,3:2|3:0,0:0:0:0:
26,217,54836,1,10,0:0:0:0:
12,126,54994,1,0,0:0:0:0:
73,58,55152,1,0,3:0:0:0:
73,58,55310,2,0,P|106:49|160:62,1,70,2|8,3:2|0:0,0:0:0:0:
217,136,55626,5,2,0:0:0:0:
217,136,55783,2,0,L|295:132,1,70,2|0,3:2|0:0,0:0:0:0:
374,159,56099,2,0,L|358:242,1,70,10|0,0:0|0:0,0:0:0:0:
299,295,56415,1,2,3:2:0:0:
217,254,56573,1,0,3:0:0:0:
145,332,56731,1,10,0:0:0:0:
321,375,57047,6,0,L|471:360,1,140,2|8,3:2|0:0,0:0:0:0:
499,278,57520,2,0,P|513:212|473:155,1,140,2|0,3:2|3:0,0:0:0:0:
390,116,57994,2,0,L|297:128,1,70,10|0,0:0|0:0,0:0:0:0:
271,203,58310,5,0,3:0:0:0:
271,203,58468,1,0,3:0:0:0:
177,145,58626,2,0,P|165:111|172:77,1,70,14|0,0:0|0:0,0:0:0:0:
238,17,58941,1,0,3:0:0:0:
238,17,59099,1,0,3:0:0:0:
131,9,59257,2,0,L|32:17,1,70,14|0,0:0|0:0,0:0:0:0:
7,107,59573,6,0,P|28:145|30:191,1,70,6|0,3:2|0:0,0:0:0:0:
14,260,59889,1,10,0:0:0:0:
102,239,60047,1,0,3:0:0:0:
182,280,60205,1,0,3:0:0:0:
182,280,60362,2,0,L|262:277,1,70,2|8,3:2|0:0,0:0:0:0:
346,225,60678,5,2,0:0:0:0:
346,225,60836,2,0,P|367:258|363:301,1,70,2|0,3:2|0:0,0:0:0:0:
324,368,61152,2,0,L|243:367,1,70,10|0,0:0|0:0,0:0:0:0:
166,340,61468,1,2,3:2:0:0:
80,370,61626,1,0,3:0:0:0:
7,315,61783,1,10,0:0:0:0:
10,223,61941,1,0,0:0:0:0:
87,175,62099,6,0,L|181:174,1,70,2|0,3:2|3:0,0:0:0:0:
249,230,62415,2,0,P|268:159|230:99,1,140,14|0,0:0|3:0,0:0:0:0:
167,44,62889,1,0,3:0:0:0:
279,23,63047,2,0,L|374:22,1,70,14|0,0:0|0:0,0:0:0:0:
441,85,63362,6,0,P|462:132|462:164,1,70,6|0,3:2|3:0,0:0:0:0:
415,230,63678,1,0,3:0:0:0:
415,230,63757,1,0,3:0:0:0:
415,230,63836,2,0,L|330:216,1,70,14|0,0:0|3:0,0:0:0:0:
268,266,64152,1,0,3:0:0:0:
201,184,64310,1,14,0:0:0:0:
116,216,64468,1,0,3:0:0:0:
112,111,64626,6,0,P|139:85|178:79,1,70,6|0,3:2|0:0,0:0:0:0:
260,85,64941,1,10,0:0:0:0:
302,165,65099,1,2,0:0:0:0:
275,252,65257,1,8,0:0:0:0:
275,252,65415,2,0,L|350:250,1,70,2|8,0:0|0:0,0:0:0:0:
449,219,65731,5,2,0:0:0:0:
449,219,65889,2,0,P|456:260|439:307,1,70,10|0,0:2|0:0,0:0:0:0:
385,352,66205,2,0,L|308:343,1,70,10|0,0:0|0:0,0:0:0:0:
227,322,66520,1,10,0:0:0:0:
144,361,66678,1,0,3:0:0:0:
67,310,66836,2,0,L|70:227,1,70,10|0,0:0|0:0,0:0:0:0:
143,162,67152,6,0,P|195:199|279:170,1,140,10|8,0:0|0:0,0:0:0:0:
346,140,67626,2,0,L|326:-2,1,140,2|0,0:0|3:0,0:0:0:0:
239,26,68099,2,0,P|199:37|150:29,1,70,10|0,0:0|0:0,0:0:0:0:
87,10,68415,5,8,3:2:0:0:
87,10,68573,1,0,3:0:0:0:
28,96,68731,2,0,L|42:180,1,70,14|0,0:0|0:0,0:0:0:0:
34,260,69047,1,10,3:2:0:0:
34,260,69205,1,0,3:0:0:0:
135,214,69363,2,0,P|169:204|216:210,1,70,14|0,0:0|0:0,0:0:0:0:
303,241,69678,6,0,L|286:309,1,70,14|0,0:0|0:0,0:0:0:0:
343,380,69994,1,10,0:0:0:0:
413,322,70152,1,2,0:0:0:0:
501,363,70310,1,8,0:0:0:0:
501,363,70468,2,0,P|509:325|500:289,1,70,2|8,0:0|0:0,0:0:0:0:
439,216,70783,5,2,0:0:0:0:
439,216,70941,2,0,L|444:131,1,70,10|0,0:0|0:0,0:0:0:0:
398,66,71257,2,0,P|360:83|322:85,1,70,10|0,0:0|0:0,0:0:0:0:
246,52,71573,1,10,0:0:0:0:
171,104,71731,1,0,3:0:0:0:
90,60,71889,1,14,0:0:0:0:
19,117,72047,1,2,0:0:0:0:
80,183,72205,6,0,P|106:209|119:260,1,70,10|0,0:0|3:0,0:0:0:0:
74,336,72520,2,0,L|215:309,1,140,14|10,0:0|0:0,0:0:0:0:
294,349,72994,1,0,0:0:0:0:
384,294,73152,2,0,P|393:254|387:209,1,70,14|0,0:0|0:0,0:0:0:0:
340,148,73468,6,0,L|347:96,2,35,14|0|8,0:0|3:0|0:3,0:0:0:0:
266,201,73783,2,0,L|273:253,2,35,0|0|12,3:0|3:0|0:0,0:0:0:0:
210,128,74099,1,8,0:3:0:0:
136,182,74257,1,8,0:3:0:0:
136,182,74336,1,8,0:3:0:0:
136,182,74415,2,0,L|68:171,3,35,6|0|0|0,0:0|3:0|3:0|3:0,0:0:0:0:
57,188,74731,6,0,P|15:125|33:57,1,140,6|8,3:2|0:0,0:0:0:0:
99,8,75205,2,0,L|178:16,1,70,2|0,3:2|0:0,0:0:0:0:
259,8,75520,1,0,3:0:0:0:
321,74,75678,2,0,P|326:122|312:162,1,70,10|0,0:0|0:0,0:0:0:0:
279,224,75994,6,0,L|430:211,1,140,2|8,3:2|0:0,0:0:0:0:
501,197,76468,2,0,L|489:295,1,70,2|0,3:2|0:0,0:0:0:0:
445,344,76783,1,0,3:0:0:0:
445,344,76862,1,0,3:0:0:0:
445,344,76941,2,0,L|346:340,1,70,10|0,0:0|0:0,0:0:0:0:
274,311,77257,6,0,L|119:330,1,140,2|8,3:2|0:0,0:0:0:0:
45,307,77731,2,0,P|14:251|48:167,1,140,2|0,3:2|3:0,0:0:0:0:
105,124,78205,2,0,L|194:127,1,70,10|0,0:0|0:0,0:0:0:0:
252,174,78520,5,0,3:0:0:0:
327,123,78678,1,0,3:0:0:0:
327,123,78757,1,0,3:0:0:0:
327,123,78836,2,0,P|345:77|301:-8,1,140,14|2,0:0|0:0,0:0:0:0:
229,41,79310,1,0,3:0:0:0:
124,20,79468,2,0,L|26:15,1,70,14|0,0:0|0:0,0:0:0:0:
0,116,79783,6,0,P|48:164|37:240,1,140,6|8,3:2|0:0,0:0:0:0:
1,313,80257,1,0,3:0:0:0:
67,375,80415,1,0,3:0:0:0:
136,316,80573,1,0,3:0:0:0:
136,316,80652,1,0,3:0:0:0:
136,316,80731,2,0,P|165:294|210:286,1,70,10|2,0:0|0:0,0:0:0:0:
284,313,81047,6,0,L|308:227,1,70,0|0,3:0|3:0,0:0:0:0:
259,146,81362,2,0,P|219:157|170:148,1,70,6|0,3:2|0:0,0:0:0:0:
91,136,81678,2,0,L|111:47,1,77.0000023498536,2|0,3:2|0:0,0:0:0:0:
194,9,81994,2,0,L|281:22,1,77.0000023498536,6|0,3:2|3:0,0:0:0:0:
365,88,82310,5,6,0:0:0:0:
298,163,82468,1,0,3:0:0:0:
298,163,82547,1,0,3:0:0:0:
298,163,82626,2,0,P|283:215|288:245,1,77.0000023498536,14|0,0:0|3:0,0:0:0:0:
356,308,82941,1,14,0:0:0:0:
302,378,83099,1,0,3:0:0:0:
302,378,83178,1,0,3:0:0:0:
302,378,83257,2,0,L|203:367,1,77.0000023498536,14|0,0:0|3:0,0:0:0:0:
110,383,83573,5,4,0:3:0:0:
44,307,83731,1,8,0:0:0:0:
69,210,83889,1,8,0:0:0:0:
163,176,84047,2,0,P|179:138|179:95,1,77.0000023498536,8|8,0:0|0:0,0:0:0:0:
115,42,84362,1,8,0:0:0:0:
115,42,84441,1,8,0:0:0:0:
115,42,84520,2,0,L|69:33,3,38.5000011749268,8|8|8|8,0:0|0:0|0:0|0:0,0:0:0:0:
28,19,84836,1,14,0:0:0:0:
256,192,84915,12,0,87047,0:0:0:0:
