osu file format v14

[General]
AudioFilename: audio.mp3
AudioLeadIn: 0
PreviewTime: 54520
Countdown: 0
SampleSet: Soft
StackLeniency: 0.7
Mode: 0
LetterboxInBreaks: 0
WidescreenStoryboard: 0

[Editor]
DistanceSpacing: 0.1
BeatDivisor: 4
GridSize: 16
TimelineZoom: 2.5

[Metadata]
Title:The Beautiful Brave (TV Size)
TitleUnicode:The Beautiful Brave (TV Size)
Artist:Suzuki Aina, M.A.O, Minase Inori, Nakajima Megumi
ArtistUnicode:鈴木 愛奈, M・A・O, 水瀬 いのり, 中島 愛
Creator:Alexsander
Version:Constellations
Source:聖闘士星矢 セインティア翔
Tags:Saint Seiya: Saintia Sho short version Shoko Kyoko Kyouko Saori Kido Athena Mii Ichimichi 翔子 沙織 響子 美衣 anime japanese rock jrock
BeatmapID:2889169
BeatmapSetID:1400373

[Difficulty]
HPDrainRate:6.5
CircleSize:4
OverallDifficulty:8.7
ApproachRate:9.3
SliderMultiplier:1.9
SliderTickRate:1

[Events]
//Background and Video events
Video,-130,"op.mp4"
0,0,"bg.jpg",0,0
//Break Periods
//Storyboard Layer 0 (Background)
//Storyboard Layer 1 (Fail)
//Storyboard Layer 2 (Pass)
//Storyboard Layer 3 (Foreground)
//Storyboard Layer 4 (Overlay)
//Storyboard Sound Samples

[TimingPoints]
205,315.789473684211,4,2,1,70,1,0
12836,-125,4,2,1,60,0,0
13152,-125,4,2,1,50,0,0
22626,-166.666666666667,4,2,1,50,0,0
22941,-100,4,2,1,60,0,0
33047,-111.111111111111,4,2,1,60,0,0
53257,-100,4,2,1,70,0,0
53889,-90.9090909090909,4,2,1,70,0,0
54205,-83.3333333333333,4,2,1,60,0,0
54520,-83.3333333333333,4,2,1,80,0,1
64626,-83.3333333333333,4,2,1,90,0,1
74731,-100,4,2,1,80,0,1
81678,-90.9090909090909,4,2,1,80,0,1
81994,-83.3333333333333,4,2,1,80,0,1
87047,-83.3333333333333,4,2,1,40,0,0

[Colours]
Combo1 : 30,202,236
Combo2 : 41,116,165

[HitObjects]
431,338,205,6,0,L|447:227,1,95,6|0,0:0|3:0,0:0:0:0:
386,92,520,1,8,0:0:0:0:
258,232,678,2,0,P|307:242|356:211,1,95,2|0,3:2|0:0,0:0:0:0:
163,149,994,1,2,3:2:0:0:
264,325,1152,1,10,0:0:0:0:
295,116,1310,1,2,0:0:0:0:
97,251,1468,6,0,L|-4:228,1,95,2|0,3:2|0:0,0:0:0:0:
68,75,1783,1,8,0:0:0:0:
188,221,1941,2,0,P|193:270|162:320,1,95,2|0,3:2|0:0,0:0:0:0:
140,127,2257,1,2,3:2:0:0:
273,278,2415,1,8,0:0:0:0:
97,251,2573,1,2,0:0:0:0:
300,84,2731,6,0,P|357:55|438:92,1,142.5,2|0,3:2|0:0,0:0:0:0:
441,156,3047,1,8,0:0:0:0:
237,152,3205,2,0,L|211:54,1,95,2|0,3:2|0:0,0:0:0:0:
149,234,3520,1,2,3:2:0:0:
92,28,3678,2,0,L|66:126,1,95,10|0,0:0|3:0,0:0:0:0:
230,239,3994,6,0,L|277:227,2,47.5,2|0|0,3:2|3:0|3:0,0:0:0:0:
23,368,4310,1,14,0:0:0:0:
105,223,4468,1,0,3:0:0:0:
199,372,4626,1,2,3:2:0:0:
353,244,4783,1,0,3:2:0:0:
91,361,4941,1,14,0:0:0:0:
305,370,5099,1,0,3:0:0:0:
61,222,5257,6,0,B|21:178|21:178|6:112|75:56,1,190,6|8,3:2|0:0,0:0:0:0:
247,163,5731,2,0,L|138:150,1,95,2|0,3:2|0:0,0:0:0:0:
268,281,6047,1,2,3:2:0:0:
391,144,6205,1,8,0:0:0:0:
501,261,6362,1,2,0:0:0:0:
319,58,6520,6,0,L|345:217,1,142.5,2|0,3:2|0:0,0:0:0:0:
331,287,6836,1,8,0:0:0:0:
510,371,6994,2,0,P|479:333|427:324,1,95,2|0,3:2|0:0,0:0:0:0:
268,376,7310,1,2,3:2:0:0:
181,195,7468,1,8,0:0:0:0:
331,287,7626,1,2,0:0:0:0:
98,382,7783,6,0,P|16:351|3:257,1,190,2|8,3:2|0:0,0:0:0:0:
155,108,8257,2,0,P|183:162|178:203,1,95,2|0,3:2|0:0,0:0:0:0:
48,93,8573,1,0,3:0:0:0:
145,273,8731,1,8,0:0:0:0:
272,173,8889,1,2,0:0:0:0:
17,187,9047,6,0,L|116:168,1,95,2|0,3:2|3:0,0:0:0:0:
257,278,9362,1,8,0:0:0:0:
289,312,9441,1,0,3:0:0:0:
333,328,9520,1,0,3:0:0:0:
380,324,9599,1,0,3:0:0:0:
420,300,9678,5,6,3:2:0:0:
241,364,9836,1,0,3:0:0:0:
423,205,9994,1,6,0:0:0:0:
196,43,10152,1,0,3:0:0:0:
177,58,10231,1,0,3:0:0:0:
169,81,10310,6,0,L|181:142,1,47.5,0|0,3:0|0:0,0:0:0:0:
327,170,10468,2,0,L|312:112,1,47.5,0|0,3:0|0:0,0:0:0:0:
109,187,10626,2,0,P|163:218|239:194,1,142.5,14|0,0:0|0:0,0:0:0:0:
312,245,10941,6,0,P|299:292|285:316,1,47.5,0|0,3:0|0:0,0:0:0:0:
175,341,11099,2,0,P|188:294|202:270,1,47.5,0|0,3:0|0:0,0:0:0:0:
327,373,11257,2,0,L|162:363,1,142.5,14|0,0:0|0:0,0:0:0:0:
87,318,11573,5,14,0:0:0:0:
231,162,11731,1,0,3:0:0:0:
121,45,11889,1,0,3:0:0:0:
269,289,12047,5,14,0:0:0:0:
217,29,12205,1,0,3:0:0:0:
76,182,12363,1,0,3:0:0:0:
366,38,12520,5,6,0:0:0:0:
452,257,12678,1,0,3:0:0:0:
355,169,12836,2,0,P|279:150|222:196,1,152,6|2,3:2|3:2,0:0:0:0:
194,263,13310,5,0,0:0:0:0:
112,175,13468,1,0,3:2:0:0:
49,220,13626,2,0,L|57:299,1,76,2|0,0:0|3:0,0:0:0:0:
137,370,13941,2,0,P|183:378|219:367,1,76,2|0,0:0|3:0,0:0:0:0:
292,328,14257,2,0,P|352:295|431:330,1,152,2|0,0:0|0:0,0:0:0:0:
506,216,14731,5,0,3:0:0:0:
464,149,14889,1,2,0:3:0:0:
354,109,15047,1,0,3:0:0:0:
277,158,15205,1,2,0:3:0:0:
190,59,15362,1,0,3:0:0:0:
190,59,15678,6,0,P|153:76|113:73,1,76,2|0,3:2|0:0,0:0:0:0:
266,12,15994,1,0,3:0:0:0:
328,50,16152,2,0,L|313:132,1,76,2|0,0:0|3:0,0:0:0:0:
385,192,16468,2,0,P|420:173|456:172,1,76,2|0,0:0|3:0,0:0:0:0:
387,276,16783,2,0,L|219:265,1,152,2|0,0:0|0:0,0:0:0:0:
121,369,17257,5,0,3:0:0:0:
56,323,17415,1,2,0:3:0:0:
139,232,17573,1,0,3:0:0:0:
70,184,17731,1,2,0:3:0:0:
176,84,17889,1,0,3:0:0:0:
176,84,18205,5,2,3:2:0:0:
93,39,18362,1,0,0:0:0:0:
2,133,18520,1,0,3:0:0:0:
70,184,18678,2,0,P|87:225|79:270,1,76,2|0,0:0|3:0,0:0:0:0:
38,344,18994,2,0,L|115:337,1,76,2|0,0:0|3:0,0:0:0:0:
210,281,19310,2,0,L|379:299,1,152,2|0,0:0|0:0,0:0:0:0:
481,202,19783,1,0,3:2:0:0:
460,295,19941,1,2,0:3:0:0:
387,119,20099,5,2,3:2:0:0:
387,119,20257,1,2,0:0:0:0:
326,179,20415,2,0,L|285:170,1,38,0|0,3:0|0:0,0:0:0:0:
242,107,20573,2,0,L|201:116,1,38,0|0,3:0|0:0,0:0:0:0:
149,186,20731,6,0,L|60:166,1,76,2|0,3:2|0:0,0:0:0:0:
0,287,21047,2,0,P|33:255|76:250,1,76,2|0,3:2|0:0,0:0:0:0:
207,308,21362,6,0,L|194:354,1,38,2|0,3:2|0:0,0:0:0:0:
130,285,21520,2,0,L|141:247,1,38,2|0,0:0|0:0,0:0:0:0:
220,181,21678,1,2,3:2:0:0:
323,226,21836,1,2,0:0:0:0:
433,137,21994,1,2,3:2:0:0:
291,157,22152,1,2,0:0:0:0:
445,303,22310,5,0,1:0:0:0:
473,294,22389,1,0,1:0:0:0:
497,275,22468,1,0,1:0:0:0:
511,248,22547,1,0,1:0:0:0:
508,216,22626,6,0,B|465:203|465:203|418:223,1,85.4999973907472,10|0,1:2|0:0,0:0:0:0:
350,266,22941,6,0,L|200:239,1,142.5,6|0,3:2|0:0,0:0:0:0:
171,258,23257,2,0,L|202:357,1,95,10|0,0:0|0:0,0:0:0:0:
52,199,23573,1,2,3:2:0:0:
185,164,23731,1,0,3:0:0:0:
84,296,23889,1,8,0:0:0:0:
99,106,24047,6,0,P|126:75|185:62,1,95,2|0,3:2|0:0,0:0:0:0:
25,33,24362,1,2,3:2:0:0:
185,164,24520,2,0,P|255:182|325:144,1,142.5,8|0,0:0|0:0,0:0:0:0:
341,119,24836,1,0,3:0:0:0:
295,255,24994,1,0,3:0:0:0:
475,161,25152,2,0,L|435:22,1,142.5,8|0,0:0|0:0,0:0:0:0:
398,5,25468,6,0,P|355:23|306:22,1,95,4|0,3:2|0:0,0:0:0:0:
127,72,25783,2,0,P|170:54|219:55,1,95,10|0,0:0|0:0,0:0:0:0:
102,167,26099,1,2,3:2:0:0:
44,48,26257,1,0,3:0:0:0:
188,136,26415,1,8,0:0:0:0:
18,226,26573,6,0,L|31:123,1,95,2|0,3:2|0:0,0:0:0:0:
62,300,26889,1,0,3:0:0:0:
194,161,27047,2,0,P|243:139|323:170,1,142.5,8|0,0:0|0:0,0:0:0:0:
402,213,27362,5,0,3:0:0:0:
385,247,27441,1,0,3:0:0:0:
369,281,27520,1,0,3:0:0:0:
353,316,27599,1,0,3:0:0:0:
337,350,27678,2,0,B|267:330|267:379|189:359,1,142.5,8|0,0:0|0:0,0:0:0:0:
148,344,27994,6,0,P|183:273|147:200,1,142.5,6|0,3:2|0:0,0:0:0:0:
128,187,28310,1,10,0:0:0:0:
265,239,28468,1,0,0:0:0:0:
126,107,28626,1,0,3:2:0:0:
225,144,28783,2,0,L|333:140,1,95,2|8,3:2|0:0,0:0:0:0:
167,21,29099,6,0,P|121:12|67:36,1,95,2|0,3:2|0:0,0:0:0:0:
10,123,29415,1,0,3:0:0:0:
225,144,29573,2,0,P|243:193|225:250,1,95,10|0,0:0|0:0,0:0:0:0:
148,364,29889,1,0,3:0:0:0:
148,364,30047,1,0,3:0:0:0:
171,197,30205,1,10,0:0:0:0:
259,314,30362,1,2,0:0:0:0:
392,201,30520,5,0,3:0:0:0:
417,161,30599,1,0,3:0:0:0:
420,114,30678,1,0,3:0:0:0:
402,71,30757,1,0,3:0:0:0:
365,42,30836,1,10,3:2:0:0:
296,183,30994,1,0,3:0:0:0:
475,226,31152,5,0,3:0:0:0:
500,265,31231,1,0,3:0:0:0:
503,312,31310,1,0,3:0:0:0:
485,355,31389,1,0,3:0:0:0:
448,384,31468,1,10,3:2:0:0:
349,288,31626,1,0,3:0:0:0:
118,384,31783,5,14,0:0:0:0:
248,275,31941,1,0,3:0:0:0:
29,132,32099,1,14,0:0:0:0:
218,61,32257,1,0,3:0:0:0:
158,209,32415,5,8,0:0:0:0:
113,117,32573,1,8,0:0:0:0:
65,28,32731,5,8,0:3:0:0:
88,28,32810,1,8,0:3:0:0:
112,29,32889,1,8,0:3:0:0:
136,30,32968,1,8,0:3:0:0:
161,31,33047,6,0,B|207:75|207:75|230:129|196:198,1,170.999994781494,6|8,3:2|0:0,0:0:0:0:
53,240,33520,2,0,P|88:212|140:210,1,85.4999973907472,2|0,3:2|0:0,0:0:0:0:
241,254,33836,1,0,3:0:0:0:
126,366,33994,2,0,L|115:269,1,85.4999973907472,10|0,0:0|0:0,0:0:0:0:
228,92,34310,6,0,P|253:138|246:190,1,85.4999973907472,2|0,3:2|3:0,0:0:0:0:
150,61,34626,1,8,0:0:0:0:
330,113,34783,2,0,L|422:109,1,85.4999973907472,2|0,3:2|0:0,0:0:0:0:
307,254,35099,1,0,3:0:0:0:
271,265,35178,1,0,3:0:0:0:
241,254,35257,2,0,L|254:155,1,85.4999973907472,10|0,0:0|0:0,0:0:0:0:
433,345,35573,6,0,B|393:317|393:317|342:370|267:360,1,170.999994781494,2|8,3:2|0:0,0:0:0:0:
168,259,36047,2,0,P|250:227|317:280,1,170.999994781494,2|0,3:2|3:0,0:0:0:0:
135,335,36520,2,0,P|97:300|91:249,1,85.4999973907472,10|0,0:0|0:0,0:0:0:0:
218,75,36836,5,6,0:2:0:0:
79,188,36994,1,0,3:0:0:0:
79,188,37152,1,0,3:0:0:0:
351,114,37310,5,6,0:0:0:0:
144,50,37468,1,0,3:0:0:0:
144,50,37626,1,0,3:0:0:0:
345,216,37783,5,6,0:0:0:0:
166,156,37941,1,0,3:0:0:0:
395,9,38099,6,0,P|444:49|454:126,1,128.249996086121,6|0,3:2|0:0,0:0:0:0:
447,136,38415,2,0,L|345:125,1,85.4999973907472,10|0,0:0|0:0,0:0:0:0:
244,229,38731,1,0,3:0:0:0:
206,154,38889,2,0,P|252:146|290:159,1,85.4999973907472,2|8,3:2|0:0,0:0:0:0:
152,311,39205,6,0,L|116:128,1,170.999994781494,2|0,3:2|3:0,0:0:0:0:
22,19,39678,2,0,L|10:124,1,85.4999973907472,10|0,0:0|0:0,0:0:0:0:
56,264,39994,1,2,3:2:0:0:
118,143,40152,1,0,3:0:0:0:
225,259,40310,2,0,L|126:250,1,85.4999973907472,10|0,0:0|0:0,0:0:0:0:
0,384,40626,6,0,P|47:346|133:365,1,128.249996086121,2|0,3:2|0:0,0:0:0:0:
142,373,40941,1,8,0:0:0:0:
303,309,41099,2,0,P|314:258|303:224,1,85.4999973907472,2|0,0:0|3:0,0:0:0:0:
157,220,41415,2,0,P|195:255|230:262,1,85.4999973907472,2|8,3:2|0:0,0:0:0:0:
341,118,41731,2,0,P|291:133|267:160,1,85.4999973907472,2|0,3:2|0:0,0:0:0:0:
395,250,42047,1,0,3:0:0:0:
458,23,42205,5,6,0:0:0:0:
328,41,42362,1,0,3:0:0:0:
269,157,42520,1,0,3:0:0:0:
459,168,42678,5,6,0:0:0:0:
353,146,42836,1,8,0:3:0:0:
284,232,42994,1,8,0:3:0:0:
195,202,43152,6,0,B|160:153|160:153|192:35,1,170.999994781494,6|8,0:0|0:0,0:0:0:0:
284,232,43626,2,0,P|233:288|138:273,1,170.999994781494,2|0,3:2|3:0,0:0:0:0:
49,151,44099,2,0,P|85:183|96:229,1,85.4999973907472,10|0,0:0|0:0,0:0:0:0:
0,370,44415,6,0,L|94:360,1,85.4999973907472,2|0,3:2|3:0,0:0:0:0:
266,266,44731,1,8,0:0:0:0:
169,196,44889,2,0,L|190:373,1,170.999994781494,2|0,3:2|3:0,0:0:0:0:
218,380,45283,1,0,3:0:0:0:
245,381,45362,2,0,L|346:361,1,85.4999973907472,10|0,0:0|0:0,0:0:0:0:
494,279,45678,6,0,P|430:235|345:277,1,170.999994781494,2|8,3:2|0:0,0:0:0:0:
169,196,46152,2,0,B|228:180|228:180|274:198|274:198|349:180,1,170.999994781494,2|0,3:2|3:0,0:0:0:0:
292,27,46626,2,0,L|283:129,1,85.4999973907472,10|0,0:0|0:0,0:0:0:0:
137,278,46941,5,14,0:0:0:0:
56,112,47099,1,0,3:0:0:0:
56,112,47257,1,0,3:0:0:0:
150,370,47415,5,14,0:0:0:0:
238,167,47573,1,0,3:0:0:0:
238,167,47731,1,0,3:0:0:0:
10,383,47889,5,14,0:0:0:0:
241,313,48047,1,0,3:0:0:0:
56,112,48205,6,0,L|88:245,1,128.249996086121,6|0,3:2|0:0,0:0:0:0:
118,266,48520,2,0,P|158:237|192:234,1,85.4999973907472,10|0,0:0|0:0,0:0:0:0:
348,294,48836,1,0,3:0:0:0:
281,215,48994,2,0,L|265:305,1,85.4999973907472,2|8,3:2|0:0,0:0:0:0:
456,367,49310,6,0,P|486:321|432:220,1,170.999994781494,2|0,3:2|3:0,0:0:0:0:
311,147,49783,2,0,L|412:134,1,85.4999973907472,10|0,0:0|0:0,0:0:0:0:
217,230,50099,1,2,3:2:0:0:
265,77,50257,1,0,3:0:0:0:
371,247,50415,2,0,L|286:257,1,85.4999973907472,10|0,0:0|0:0,0:0:0:0:
85,188,50731,6,0,P|144:137|231:160,1,170.999994781494,2|8,3:2|0:0,0:0:0:0:
180,331,51205,2,0,L|170:235,1,85.4999973907472,2|0,0:0|3:0,0:0:0:0:
113,380,51520,1,0,3:0:0:0:
85,188,51678,1,8,0:0:0:0:
76,275,51836,6,0,L|277:243,1,170.999994781494,2|0,3:2|3:0,0:0:0:0:
358,82,52310,2,0,P|390:121|395:161,1,85.4999973907472,14|0,0:0|3:0,0:0:0:0:
203,76,52626,1,8,0:0:0:0:
346,255,52783,1,8,0:0:0:0:
254,19,52941,1,8,0:0:0:0:
149,191,53099,1,8,0:0:0:0:
239,148,53257,6,0,L|283:129,1,47.5,0|0,3:0|0:0,0:0:0:0:
52,71,53415,2,0,B|7:102|7:102|-17:170|34:244,1,190,6|0,3:2|3:0,0:0:0:0:
167,352,53889,6,0,B|204:321|204:321|259:356|324:329,1,156.750004783631,6|0,3:2|0:0,0:0:0:0:
271,199,54205,6,0,P|262:236|264:270,1,56.9999982604981,0|0,3:0|0:0,0:0:0:0:
361,248,54362,2,0,P|370:211|368:177,1,56.9999982604981,0|0,3:0|0:0,0:0:0:0:
225,85,54520,6,0,L|93:79,1,113.999996520996,6|0,3:2|3:0,0:0:0:0:
261,254,54836,1,10,0:0:0:0:
354,83,54994,1,0,0:0:0:0:
453,280,55152,1,0,3:0:0:0:
499,194,55310,2,0,P|441:176|391:200,1,113.999996520996,2|8,3:2|0:0,0:0:0:0:
246,346,55626,6,0,L|310:334,1,56.9999982604981,2|0,0:0|0:0,0:0:0:0:
313,243,55783,2,0,B|225:222|243:301|130:277,1,170.999994781494,2|0,3:2|0:0,0:0:0:0:
72,241,56099,2,0,P|51:302|72:352,1,113.999996520996,10|0,0:0|0:0,0:0:0:0:
174,145,56415,1,2,3:2:0:0:
0,207,56573,1,0,3:0:0:0:
236,341,56731,2,0,P|200:291|147:281,1,113.999996520996,10|0,0:0|0:0,0:0:0:0:
38,61,57047,6,0,B|134:108|206:28|206:28|213:62|230:96,1,227.999993041992,2|8,3:2|0:0,0:0:0:0:
432,202,57520,2,0,P|378:117|256:133,1,227.999993041992,2|0,3:2|3:0,0:0:0:0:
153,323,57994,2,0,L|269:299,1,113.999996520996,10|0,0:0|0:0,0:0:0:0:
44,172,58310,5,0,3:0:0:0:
120,78,58468,1,0,3:0:0:0:
325,188,58626,2,0,P|271:214|213:202,1,113.999996520996,14|0,0:0|0:0,0:0:0:0:
36,82,58941,5,0,3:0:0:0:
128,5,59099,1,0,3:0:0:0:
219,205,59257,2,0,L|196:336,1,113.999996520996,14|0,0:0|0:0,0:0:0:0:
488,299,59573,6,0,B|467:255|467:255|401:227|334:275,1,170.999994781494,6|0,3:2|0:0,0:0:0:0:
317,338,59889,1,10,0:0:0:0:
343,142,60047,1,0,3:0:0:0:
127,270,60205,1,0,3:0:0:0:
219,205,60362,2,0,P|246:150|237:92,1,113.999996520996,2|8,3:2|0:0,0:0:0:0:
28,17,60678,6,0,P|51:46|74:63,1,56.9999982604981,2|0,0:0|0:0,0:0:0:0:
198,24,60836,2,0,P|119:57|97:148,1,170.999994781494,2|0,3:2|0:0,0:0:0:0:
106,224,61152,2,0,L|222:204,1,113.999996520996,10|0,0:0|0:0,0:0:0:0:
418,300,61468,1,2,3:2:0:0:
236,284,61626,1,0,3:0:0:0:
463,237,61783,1,10,0:0:0:0:
286,365,61941,1,0,0:0:0:0:
447,124,62099,6,0,L|464:244,1,113.999996520996,2|0,3:2|3:0,0:0:0:0:
258,90,62415,2,0,P|316:31|426:54,1,170.999994781494,14|0,0:0|0:0,0:0:0:0:
362,123,62731,2,0,L|238:107,1,113.999996520996,0|0,3:0|3:0,0:0:0:0:
47,188,63047,2,0,B|94:239|94:239|71:351,1,170.999994781494,14|0,0:0|0:0,0:0:0:0:
8,267,63362,5,6,3:2:0:0:
159,102,63520,1,0,3:0:0:0:
350,297,63678,1,0,3:0:0:0:
362,315,63757,1,0,3:0:0:0:
370,336,63836,5,14,0:0:0:0:
193,215,63994,1,0,3:0:0:0:
345,105,64152,1,0,3:0:0:0:
46,52,64310,5,14,0:0:0:0:
271,190,64468,1,0,3:0:0:0:
0,384,64626,6,0,B|-29:294|48:307|3:193,1,170.999994781494,6|0,3:2|0:0,0:0:0:0:
0,138,64941,1,10,0:0:0:0:
71,337,65099,1,2,0:0:0:0:
137,107,65257,1,8,0:0:0:0:
289,213,65415,2,0,L|162:199,1,113.999996520996,2|8,0:0|0:0,0:0:0:0:
306,368,65731,6,0,P|321:341|331:301,1,56.9999982604981,2|0,0:0|0:0,0:0:0:0:
152,328,65889,2,0,P|228:342|310:285,1,170.999994781494,10|0,0:2|0:0,0:0:0:0:
368,219,66205,2,0,L|344:104,1,113.999996520996,10|0,0:0|0:0,0:0:0:0:
142,39,66520,1,10,0:0:0:0:
280,189,66678,1,0,3:0:0:0:
492,15,66836,2,0,P|437:0|381:26,1,113.999996520996,10|0,0:0|0:0,0:0:0:0:
197,219,67152,6,0,L|169:41,1,170.999994781494,10|0,0:0|0:0,0:0:0:0:
114,7,67468,1,8,0:0:0:0:
282,244,67626,2,0,L|303:108,1,113.999996520996,2|8,0:0|0:0,0:0:0:0:
169,333,67942,1,0,3:0:0:0:
377,203,68099,2,0,P|465:216|500:298,1,170.999994781494,10|0,0:0|0:0,0:0:0:0:
437,324,68415,5,8,3:2:0:0:
288,203,68573,1,0,3:0:0:0:
110,343,68731,2,0,L|231:323,1,113.999996520996,14|0,0:0|0:0,0:0:0:0:
377,203,69047,5,10,3:2:0:0:
191,124,69205,1,0,3:0:0:0:
302,371,69362,2,0,P|319:319|281:259,1,113.999996520996,14|0,0:0|0:0,0:0:0:0:
48,208,69678,6,0,B|97:250|97:250|211:226,1,170.999994781494,14|0,0:0|0:0,0:0:0:0:
273,169,69994,1,10,0:0:0:0:
145,332,70152,1,2,0:0:0:0:
0,125,70310,1,8,0:0:0:0:
26,319,70468,2,0,L|49:198,1,113.999996520996,2|8,0:0|0:0,0:0:0:0:
263,82,70783,6,0,P|212:96|195:95,1,56.9999982604981,2|0,0:0|0:0,0:0:0:0:
67,50,70941,2,0,P|148:38|210:103,1,170.999994781494,10|0,0:0|0:0,0:0:0:0:
231,182,71257,2,0,L|120:159,1,113.999996520996,10|0,0:0|0:0,0:0:0:0:
340,72,71573,1,10,0:0:0:0:
267,266,71731,1,0,3:0:0:0:
156,41,71889,1,14,0:0:0:0:
329,172,72047,1,2,0:0:0:0:
84,294,72205,6,0,P|125:258|200:260,1,113.999996520996,10|0,0:0|3:0,0:0:0:0:
409,384,72520,2,0,L|449:204,1,170.999994781494,14|0,0:0|0:0,0:0:0:0:
450,143,72836,2,0,P|391:120|331:146,1,113.999996520996,10|0,0:0|0:0,0:0:0:0:
122,185,73152,2,0,P|205:210|288:160,1,170.999994781494,14|0,0:0|0:0,0:0:0:0:
278,90,73468,5,14,0:0:0:0:
259,66,73547,1,0,3:0:0:0:
224,57,73626,2,0,L|163:70,1,56.9999982604981,8|0,0:3|0:0,0:0:0:0:
28,20,73783,5,0,3:0:0:0:
28,20,73862,1,0,3:0:0:0:
28,20,73941,2,0,L|47:90,1,56.9999982604981,12|0,0:0|0:0,0:0:0:0:
6,223,74099,5,8,0:3:0:0:
20,277,74178,1,8,0:3:0:0:
60,316,74257,1,8,0:3:0:0:
115,331,74336,1,8,0:3:0:0:
170,316,74415,6,0,L|194:250,1,56.9999982604981,6|0,0:0|3:0,0:0:0:0:
174,77,74573,2,0,L|154:130,1,56.9999982604981,0|0,3:0|3:0,0:0:0:0:
268,267,74731,6,0,P|360:287|439:211,1,190,6|8,3:2|0:0,0:0:0:0:
336,85,75205,2,0,L|338:191,1,95,2|0,3:2|0:0,0:0:0:0:
229,75,75520,1,0,3:0:0:0:
402,13,75678,2,0,P|432:62|429:108,1,95,10|0,0:0|0:0,0:0:0:0:
389,276,75994,5,2,3:2:0:0:
248,177,76152,1,0,3:0:0:0:
248,177,76231,1,0,3:0:0:0:
248,177,76310,1,8,0:0:0:0:
173,277,76468,2,0,L|283:265,1,95,2|0,3:2|0:0,0:0:0:0:
68,208,76783,1,0,3:0:0:0:
68,208,76862,1,0,3:0:0:0:
68,208,76941,1,10,0:0:0:0:
146,351,77099,1,0,0:0:0:0:
127,130,77257,6,0,P|143:84|186:55,1,95,2|0,3:2|0:0,0:0:0:0:
68,208,77573,1,8,0:0:0:0:
250,215,77731,2,0,P|244:168|212:133,1,95,2|0,3:2|0:0,0:0:0:0:
305,286,78047,1,0,3:0:0:0:
123,293,78205,2,0,P|128:246|160:211,1,95,10|0,0:0|0:0,0:0:0:0:
348,158,78520,5,0,3:0:0:0:
374,184,78599,1,0,3:0:0:0:
409,200,78678,1,0,3:0:0:0:
446,202,78757,1,0,3:0:0:0:
482,190,78836,2,0,L|498:344,1,142.5,14|0,0:0|0:0,0:0:0:0:
465,367,79152,6,0,P|421:348|395:346,1,47.5,2|0,0:0|0:0,0:0:0:0:
372,271,79310,2,0,P|327:288|307:305,1,47.5,0|0,3:0|0:0,0:0:0:0:
221,378,79468,2,0,L|338:361,1,95,14|0,0:0|0:0,0:0:0:0:
111,193,79783,6,0,B|68:243|68:243|100:386,1,190,6|8,3:2|0:0,0:0:0:0:
181,263,80257,1,0,3:0:0:0:
129,107,80415,1,0,3:0:0:0:
91,110,80494,1,0,3:0:0:0:
57,128,80573,1,0,3:0:0:0:
32,156,80652,1,0,3:0:0:0:
20,191,80731,5,10,0:0:0:0:
1,74,80889,1,2,0:0:0:0:
111,193,81047,1,0,3:0:0:0:
213,102,81205,1,0,3:0:0:0:
377,277,81362,6,0,L|268:262,1,95,6|0,3:2|0:0,0:0:0:0:
109,116,81678,6,0,L|228:99,1,104.500003189087,2|0,3:2|0:0,0:0:0:0:
372,351,81994,6,0,L|252:334,1,113.999996520996,6|0,3:2|3:0,0:0:0:0:
29,141,82310,5,6,0:0:0:0:
233,254,82468,1,0,3:0:0:0:
262,258,82547,1,0,3:0:0:0:
291,250,82626,5,14,0:0:0:0:
142,344,82783,1,0,3:0:0:0:
308,105,82941,5,14,0:0:0:0:
110,252,83099,1,0,3:0:0:0:
81,256,83178,1,0,3:0:0:0:
52,247,83257,6,0,P|88:190|139:174,1,113.999996520996,14|0,0:0|3:0,0:0:0:0:
322,369,83573,5,4,0:3:0:0:
214,186,83731,1,8,0:0:0:0:
409,335,83889,1,8,0:0:0:0:
302,79,84047,5,8,0:0:0:0:
163,311,84205,1,8,0:0:0:0:
420,171,84362,5,8,0:0:0:0:
409,226,84440,1,8,0:0:0:0:
373,270,84519,1,8,0:0:0:0:
320,289,84598,1,8,0:0:0:0:
265,280,84677,1,8,0:0:0:0:
221,244,84756,1,8,0:0:0:0:
214,186,84836,5,14,0:0:0:0:
256,192,84915,12,0,87047,0:0:0:0:
