osu file format v14

[General]
AudioFilename: audio.mp3
AudioLeadIn: 0
PreviewTime: 64122
Countdown: 0
SampleSet: Soft
StackLeniency: 0.7
Mode: 0
LetterboxInBreaks: 0
WidescreenStoryboard: 1

[Editor]
DistanceSpacing: 1.4
BeatDivisor: 4
GridSize: 4
TimelineZoom: 1

[Metadata]
Title:Motto Takaku (TV Size)
TitleUnicode:もっと高く (TV Size)
Artist:Suzuki Aina
ArtistUnicode:鈴木愛奈
Creator:bossandy
Version:YamYA's Hard
Source:いわかける!- Sport Climbing Girls -
Tags:Hang On! Climbing Girls Iwa Kakeru!: Sport Climbing Girls J-pop Jpop pop Japanese Anime Opening op Blade 笠原好 Kasahara Konomi 上原隼 Uehara Jun 四葉幸与 Yotsuba Sayo 杉浦野々華 Sugiura Nonoka 浅田秀之 栗山健太 IKW Asada Hideyuki Kuriyama Kenta YamYa
BeatmapID:3250019
BeatmapSetID:1518706

[Difficulty]
HPDrainRate:5.5
CircleSize:4
OverallDifficulty:5.5
ApproachRate:7.4
SliderMultiplier:1.4
SliderTickRate:1

[Events]
//Background and Video events
Video,470,"video.avi"
0,0,"sayo.jpg",0,0
//Break Periods
//Storyboard Layer 0 (Background)
//Storyboard Layer 1 (Fail)
//Storyboard Layer 2 (Pass)
//Storyboard Layer 3 (Foreground)
//Storyboard Layer 4 (Overlay)
//Storyboard Sound Samples

[TimingPoints]
813,441.176470588235,4,2,1,40,1,0
813,-125,4,2,1,40,0,0
1474,441.176470588235,4,2,1,40,1,0
1474,-125,4,2,1,40,0,0
15591,-100,4,2,1,60,0,0
22650,-111.111111111111,4,2,1,60,0,0
36768,-111.111111111111,4,2,1,60,0,0
50885,-111.111111111111,4,2,1,60,0,0
63018,-99.9999999999999,4,2,1,60,0,0
64341,-111.111111111111,4,2,1,60,0,0
65003,-83.3333333333333,4,2,1,80,0,0
65334,-83.3333333333333,4,2,1,80,0,0
65444,-83.3333333333333,4,2,1,80,0,1
84415,-100,4,2,1,80,0,0
86179,-100,4,2,1,60,0,0
86290,-100,4,2,1,40,0,0
86621,-100,4,2,1,35,0,0
87062,-100,4,2,1,30,0,0
87503,-100,4,2,1,25,0,0
87944,-100,4,2,1,20,0,0
88385,-100,4,2,1,15,0,0
88826,-100,4,2,1,10,0,0
89268,-100,4,2,1,5,0,0

[Colours]
Combo1 : 253,198,131
Combo2 : 128,87,148
Combo3 : 218,104,130
Combo4 : 139,73,116

[HitObjects]
46,133,813,6,0,P|39:170|25:190,2,56,2|2|2,0:0|0:0|0:0,0:0:0:0:
19,59,1474,6,0,B|55:45|103:57|101:79|150:97|195:69,1,168,2|2,0:0|0:0,0:0:0:0:
254,49,2356,2,0,P|261:87|252:114,1,56,2|0,0:0|0:0,0:0:0:0:
227,176,2797,1,0,0:0:0:0:
261,246,3018,1,2,0:0:0:0:
332,214,3238,6,0,P|399:232|457:243,1,112,2|2,0:0|0:0,0:0:0:0:
501,307,3900,2,0,P|446:318|392:333,1,112,2|2,0:0|0:0,0:0:0:0:
317,356,4562,1,2,0:0:0:0:
213,238,5003,6,0,P|159:264|87:267,1,112,2|2,0:0|0:0,0:0:0:0:
31,251,5665,1,2,0:0:0:0:
96,108,6106,1,0,0:0:0:0:
161,150,6326,2,0,P|191:157|231:152,1,56,2|2,0:0|0:0,0:0:0:0:
247,228,6768,6,0,P|316:208|425:220,1,168,2|2,0:0|0:0,0:0:0:0:
494,182,7650,2,0,P|482:154|485:125,1,56,2|2,0:0|0:0,0:0:0:0:
422,79,8091,2,0,P|427:40|419:9,1,56,2|2,0:0|0:0,0:0:0:0:
340,56,8532,6,0,P|295:76|214:55,1,112,2|0,0:0|0:0,0:0:0:0:
161,37,9194,2,0,P|113:29|47:58,1,112,2|0,0:0|0:0,0:0:0:0:
3,110,9856,1,2,0:0:0:0:
58,167,10076,1,2,0:0:0:0:
147,164,10297,6,0,L|122:281,1,112,2|0,0:0|0:0,0:0:0:0:
160,342,10959,2,0,P|234:316|277:332,1,112,2|0,0:0|0:0,0:0:0:0:
336,354,11621,1,2,0:0:0:0:
397,306,11841,1,2,0:0:0:0:
472,327,12062,6,0,B|482:253|482:253|491:204|455:159,1,168,2|0,0:0|0:0,0:0:0:0:
389,130,12944,2,0,P|358:139|317:133,1,56,2|0,0:0|0:0,0:0:0:0:
292,204,13385,2,0,P|266:190|236:185,1,56,2|2,0:0|0:0,0:0:0:0:
161,228,13826,5,2,0:0:0:0:
59,146,15591,6,0,P|88:127|164:131,1,105,6|2,3:2|0:0,0:0:0:0:
199,152,16032,1,8,0:0:0:0:
126,217,16253,1,2,0:0:0:0:
126,217,16363,1,10,1:0:0:0:
126,217,16473,2,0,L|105:312,1,70,2|0,3:0|3:2,0:0:0:0:
177,357,16915,2,0,L|198:267,1,70,8|2,0:0|3:2,0:0:0:0:
281,247,17356,6,0,P|330:254|381:224,1,105,2|8,3:2|1:0,0:0:0:0:
403,186,17797,1,8,0:0:0:0:
318,157,18018,1,2,0:0:0:0:
318,157,18128,1,8,1:0:0:0:
318,157,18238,2,0,L|292:68,1,70,0|0,3:0|3:0,0:0:0:0:
234,15,18679,1,8,0:0:0:0:
226,42,18790,1,8,3:0:0:0:
217,68,18900,1,6,3:0:0:0:
135,121,19121,5,2,3:2:0:0:
54,65,19341,2,0,P|36:98|43:145,1,70,2|10,3:2|0:0,0:0:0:0:
34,228,19782,2,0,P|89:208|177:232,1,140,2|2,0:0|3:2,0:0:0:0:
258,260,20444,1,8,0:0:0:0:
258,162,20665,6,0,P|302:180|335:176,1,70,2|2,3:2|3:2,0:0:0:0:
402,120,21106,1,0,3:0:0:0:
488,184,21326,1,10,0:0:0:0:
488,184,21437,1,2,3:2:0:0:
488,184,21547,1,2,3:2:0:0:
425,255,21768,2,0,L|445:341,1,70,0|0,3:0|3:0,0:0:0:0:
346,349,22209,2,0,L|336:396,2,35,8|4|4,0:0|3:0|3:0,0:0:0:0:
326,250,22650,5,4,3:1:0:0:
164,312,23091,2,0,P|112:323|91:315,1,62.9999980773926,10|2,1:0|0:0,0:0:0:0:
40,258,23532,1,2,3:2:0:0:
124,230,23753,2,0,L|97:95,1,125.999996154785,2|2,0:0|0:0,0:0:0:0:
117,21,24415,6,0,P|166:48|215:37,1,94.499997116089,2|2,3:2|0:0,0:0:0:0:
243,27,24856,1,8,1:0:0:0:
319,68,25076,1,2,0:0:0:0:
395,23,25297,2,0,B|422:44|423:75|423:75|418:146,1,125.999996154785,2|8,3:2|1:0,0:0:0:0:
406,227,25959,1,2,0:0:0:0:
339,169,26179,6,0,P|280:192|230:172,1,94.499997116089,2|2,3:2|0:0,0:0:0:0:
210,167,26621,1,8,1:0:0:0:
133,209,26841,1,2,0:0:0:0:
90,131,27062,2,0,P|59:152|44:192,1,62.9999980773926,2|2,3:2|0:0,0:0:0:0:
0,249,27503,2,0,P|31:279|29:315,1,62.9999980773926,10|2,1:0|0:0,0:0:0:0:
90,364,27944,6,0,P|183:330|223:329,1,125.999996154785,2|8,3:2|1:0,0:0:0:0:
229,248,28606,1,2,0:0:0:0:
229,248,28716,1,2,0:0:0:0:
229,248,28826,2,0,P|287:271|349:276,1,125.999996154785,2|10,3:2|1:0,0:0:0:0:
430,240,29488,1,2,3:2:0:0:
393,145,29709,6,0,P|361:163|344:199,1,62.9999980773926,6|0,3:1|0:0,0:0:0:0:
294,98,30150,2,0,P|241:118|163:94,1,125.999996154785,10|2,1:0|3:2,0:0:0:0:
101,53,30812,1,0,0:0:0:0:
45,121,31032,2,0,P|63:155|64:204,1,62.9999980773926,10|0,1:0|0:0,0:0:0:0:
117,251,31473,6,0,P|132:223|156:203,1,62.9999980773926,2|0,3:2|0:0,0:0:0:0:
140,115,31915,2,0,P|169:125|201:125,1,62.9999980773926,10|0,1:0|0:0,0:0:0:0:
276,79,32356,2,0,L|422:102,1,125.999996154785,2|8,3:2|1:0,0:0:0:0:
483,172,33018,5,2,0:0:0:0:
483,172,33128,1,2,0:0:0:0:
483,172,33238,2,0,P|460:201|453:255,1,62.9999980773926,2|2,3:2|0:0,0:0:0:0:
438,312,33679,1,10,1:0:0:0:
359,271,33900,1,2,0:0:0:0:
276,328,34121,2,0,P|227:355|171:347,2,94.499997116089,2|2|2,3:2|0:0|0:0,0:0:0:0:
267,226,35003,5,10,1:0:0:0:
267,226,35223,1,10,1:0:0:0:
183,168,35444,2,0,L|121:183,1,62.9999980773926,10|0,1:0|0:0,0:0:0:0:
121,182,35775,1,2,3:2:0:0:
121,182,35885,1,0,0:0:0:0:
35,159,36106,1,8,1:0:0:0:
41,246,36326,2,0,L|57:294,3,31.4999990386963,0|8|0|8,3:0|0:0|3:0|0:0,0:0:0:0:
88,300,36768,6,0,B|146:265|146:265|179:248|215:258,1,125.999996154785,6|10,3:2|0:0,0:0:0:0:
283,311,37429,1,10,1:0:0:0:
283,311,37540,1,0,3:0:0:0:
283,311,37650,2,0,P|328:329|358:322,1,62.9999980773926,2|2,0:0|3:2,0:0:0:0:
339,239,38091,1,8,0:0:0:0:
420,273,38312,1,10,1:0:0:0:
498,233,38532,6,0,B|514:259|503:297|503:297|491:341,1,94.499997116089,2|2,3:2|0:0,0:0:0:0:
481,366,38973,1,8,0:0:0:0:
407,319,39194,1,10,1:0:0:0:
325,283,39415,2,0,L|273:303,2,31.4999990386963,2|8|0,0:0|1:0|3:0,0:0:0:0:
383,216,39856,2,0,P|396:174|385:133,1,62.9999980773926,8|10,0:0|1:0,0:0:0:0:
380,116,40187,1,0,0:0:0:0:
380,116,40297,6,0,B|287:152,1,94.499997116089,2|2,3:2|0:0,0:0:0:0:
251,168,40738,1,8,0:0:0:0:
177,119,40959,1,10,1:0:0:0:
109,62,41179,2,0,P|85:91|87:130,1,62.9999980773926,2|2,0:0|3:2,0:0:0:0:
131,189,41621,2,0,P|155:218|153:257,1,62.9999980773926,10|10,0:0|1:0,0:0:0:0:
129,326,42062,6,0,L|263:300,1,125.999996154785,2|8,3:2|0:0,0:0:0:0:
256,221,42723,1,10,1:0:0:0:
256,221,42834,1,2,3:2:0:0:
256,221,42944,2,0,L|390:247,1,125.999996154785,2|10,0:0|0:0,0:0:0:0:
461,211,43606,1,2,3:2:0:0:
484,113,43826,6,0,P|460:78|423:65,1,62.9999980773926,6|0,3:1|3:0,0:0:0:0:
369,18,44268,2,0,P|337:44|307:49,1,62.9999980773926,10|10,0:0|1:0,0:0:0:0:
238,32,44709,1,2,0:0:0:0:
238,32,44819,1,8,1:0:0:0:
238,32,44929,2,0,L|227:98,1,62.9999980773926,0|10,3:0|0:0,0:0:0:0:
216,182,45371,1,8,1:0:0:0:
137,141,45591,6,0,P|102:124|72:127,1,62.9999980773926,2|0,3:2|3:0,0:0:0:0:
0,193,46032,2,0,P|35:210|65:207,1,62.9999980773926,10|8,0:0|1:0,0:0:0:0:
119,272,46473,2,0,P|201:236|249:245,1,125.999996154785,2|8,0:0|0:0,0:0:0:0:
306,186,47135,1,10,1:0:0:0:
306,186,47246,1,2,0:0:0:0:
306,186,47356,6,0,P|337:206|386:210,1,62.9999980773926,2|2,3:2|3:2,0:0:0:0:
391,294,47797,2,0,P|426:267|463:265,1,62.9999980773926,10|10,0:0|1:0,0:0:0:0:
444,175,48238,2,0,B|425:114|425:114|443:78|430:44,1,125.999996154785,2|10,0:0|0:0,0:0:0:0:
359,4,48900,1,8,1:0:0:0:
329,87,49121,6,0,P|270:108|251:102,1,62.9999980773926,6|0,3:1|3:0,0:0:0:0:
220,179,49562,2,0,P|161:158|142:164,1,62.9999980773926,10|8,0:0|1:0,0:0:0:0:
163,157,49893,1,6,3:1:0:0:
163,157,50003,1,0,0:0:0:0:
80,127,50223,1,0,3:0:0:0:
79,215,50444,2,0,L|70:254,3,31.4999990386963,8|8|8|8,1:0|1:0|1:0|1:0,0:0:0:0:
74,290,50885,6,0,L|156:266,1,62.9999980773926,4|0,3:2|0:0,0:0:0:0:
209,222,51326,2,0,P|240:241|283:242,1,62.9999980773926,10|0,0:0|0:0,0:0:0:0:
291,329,51768,2,0,P|332:309|370:306,1,62.9999980773926,2|8,3:2|1:0,0:0:0:0:
436,314,52209,1,10,0:0:0:0:
444,137,52650,5,2,3:2:0:0:
390,208,52871,1,2,0:0:0:0:
390,208,52981,1,0,3:0:0:0:
390,208,53091,2,0,P|349:230|314:238,1,62.9999980773926,10|2,0:0|3:2,0:0:0:0:
304,141,53532,2,0,P|247:153|164:128,1,125.999996154785,2|2,0:0|3:2,0:0:0:0:
109,99,54194,1,2,3:2:0:0:
63,176,54415,5,2,3:2:0:0:
63,176,54635,1,2,0:0:0:0:
107,257,54856,1,10,0:0:0:0:
107,257,55076,1,2,0:0:0:0:
198,214,55297,2,0,P|249:203|298:213,2,94.499997116089,2|2|6,3:2|3:2|3:1,0:0:0:0:
241,290,56179,6,0,B|297:304|297:304|302:311|302:311|363:327,1,125.999996154785,2|10,0:0|0:0,0:0:0:0:
453,352,56841,1,2,3:2:0:0:
453,352,56951,1,0,0:0:0:0:
452,353,57062,2,0,B|416:300|448:249,1,94.499997116089,10|2,0:0|3:2,0:0:0:0:
460,224,57503,1,0,0:0:0:0:
441,137,57723,1,6,3:0:0:0:
365,204,57944,6,0,P|322:216|295:209,1,62.9999980773926,6|0,3:1|0:0,0:0:0:0:
254,140,58385,2,0,L|147:165,1,94.499997116089,10|0,0:0|0:0,0:0:0:0:
118,171,58826,1,2,3:2:0:0:
39,129,59047,1,0,3:0:0:0:
58,42,59268,2,0,L|131:58,1,62.9999980773926,10|0,0:0|0:0,0:0:0:0:
166,33,59598,1,2,0:0:0:0:
166,33,59709,6,0,L|291:57,1,125.999996154785,2|10,3:2|0:0,0:0:0:0:
387,19,60371,1,2,3:2:0:0:
387,19,60481,1,2,0:0:0:0:
387,19,60591,2,0,P|412:61|411:92,1,62.9999980773926,2|10,3:2|1:0,0:0:0:0:
371,151,61032,1,10,0:0:0:0:
450,190,61253,1,10,3:0:0:0:
416,284,61473,6,0,L|280:263,1,125.999996154785,6|10,3:1|0:0,0:0:0:0:
233,197,62135,1,0,3:0:0:0:
194,276,62356,2,0,P|160:297|91:280,1,94.499997116089,2|2,0:0|0:0,0:0:0:0:
71,256,62797,1,10,0:0:0:0:
131,179,63018,6,0,P|147:142|151:84,1,70,2|2,3:0|0:0,0:0:0:0:
116,26,63459,1,2,3:2:0:0:
116,26,63679,1,2,3:2:0:0:
248,170,64121,1,2,3:2:0:0:
326,130,64341,6,0,L|340:66,2,62.9999980773926,2|2|2,0:0|0:0|0:0,0:0:0:0:
442,144,65003,2,0,L|459:232,1,83.9999974365235,6|8,3:1|1:0,0:0:0:0:
470,280,65334,1,10,1:0:0:0:
470,280,65444,6,0,P|441:255|380:254,1,83.9999974365235,12|10,0:0|1:0,0:0:0:0:
314,307,65885,2,0,P|270:325|230:307,1,83.9999974365235,2|0,0:0|3:0,0:0:0:0:
197,291,66216,1,2,0:0:0:0:
197,291,66326,2,0,L|175:379,1,83.9999974365235,8|2,0:0|3:2,0:0:0:0:
99,307,66768,6,0,L|76:178,1,125.999996154785,2|10,3:2|1:0,0:0:0:0:
68,132,67209,1,10,0:0:0:0:
162,166,67429,2,0,P|237:159|267:117,1,125.999996154785,10|0,1:0|3:0,0:0:0:0:
274,71,67871,1,2,3:2:0:0:
364,115,68091,1,10,0:0:0:0:
466,87,68312,1,2,3:2:0:0:
466,87,68422,1,0,0:0:0:0:
466,87,68532,6,0,L|445:182,1,83.9999974365235,2|10,3:2|1:0,0:0:0:0:
447,288,68973,2,0,P|410:260|351:270,1,83.9999974365235,8|8,0:0|1:0,0:0:0:0:
332,285,69304,1,2,3:2:0:0:
332,285,69415,2,0,P|291:311|246:306,1,83.9999974365235,0|2,0:0|3:2,0:0:0:0:
165,266,69856,1,10,0:0:0:0:
89,332,70076,1,2,3:2:0:0:
27,252,70297,6,0,P|21:197|44:151,1,83.9999974365235,2|8,3:2|1:0,0:0:0:0:
55,126,70628,1,10,1:0:0:0:
55,126,70738,2,0,P|83:158|134:161,1,83.9999974365235,8|10,0:0|1:0,0:0:0:0:
180,81,71179,2,0,P|238:55|300:61,1,125.999996154785,2|0,0:0|0:0,0:0:0:0:
349,75,71621,1,10,0:0:0:0:
327,173,71841,1,0,3:0:0:0:
209,163,72062,6,0,P|216:220|197:250,1,83.9999974365235,6|8,3:1|1:0,0:0:0:0:
171,280,72393,1,10,1:0:0:0:
171,280,72503,2,0,L|276:248,1,83.9999974365235,12|10,0:0|1:0,0:0:0:0:
321,328,72944,2,0,L|415:358,1,83.9999974365235,2|0,0:0|3:0,0:0:0:0:
433,314,73275,1,2,0:0:0:0:
433,314,73385,2,0,P|422:273|437:235,1,83.9999974365235,8|2,0:0|3:2,0:0:0:0:
487,148,73826,6,0,B|495:98|495:98|499:50|456:21,1,125.999996154785,2|10,3:2|1:0,0:0:0:0:
427,0,74268,1,10,0:0:0:0:
366,80,74488,2,0,P|331:97|238:81,1,125.999996154785,10|0,1:0|3:0,0:0:0:0:
207,54,74929,1,2,3:2:0:0:
109,79,75150,1,10,0:0:0:0:
113,187,75371,1,2,3:2:0:0:
113,187,75481,1,0,0:0:0:0:
113,187,75591,6,0,P|157:169|197:175,1,83.9999974365235,2|10,3:0|1:0,0:0:0:0:
204,274,76032,2,0,P|245:300|282:298,1,83.9999974365235,10|10,0:0|1:0,0:0:0:0:
330,285,76363,1,2,3:2:0:0:
330,285,76473,2,0,P|335:237|361:206,1,83.9999974365235,0|2,0:0|3:2,0:0:0:0:
431,274,76915,1,10,0:0:0:0:
512,222,77135,1,2,3:2:0:0:
481,107,77356,6,0,P|432:138|396:130,1,83.9999974365235,2|8,3:2|1:0,0:0:0:0:
371,108,77687,1,10,1:0:0:0:
371,108,77797,2,0,P|339:79|283:78,1,83.9999974365235,8|10,0:0|1:0,0:0:0:0:
214,127,78238,1,0,0:0:0:0:
125,78,78459,1,2,3:2:0:0:
38,129,78679,2,0,P|21:182|39:229,1,83.9999974365235,10|2,0:0|3:2,0:0:0:0:
90,308,79121,6,0,B|134:292|173:307|177:337|223:354|266:324,1,167.999994873047,6|8,3:1|0:0,0:0:0:0:
347,384,79782,1,10,1:0:0:0:
347,384,79893,1,0,3:0:0:0:
347,384,80003,2,0,P|363:342|350:291,1,83.9999974365235,0|0,0:0|3:0,0:0:0:0:
275,245,80444,2,0,P|264:182|277:159,1,83.9999974365235,10|2,0:0|3:2,0:0:0:0:
355,109,80885,6,0,B|302:118|235:128|200:68,1,167.999994873047,2|8,3:0|0:0,0:0:0:0:
116,19,81547,1,10,1:0:0:0:
116,19,81657,1,0,3:0:0:0:
116,19,81768,2,0,P|115:78|100:105,1,83.9999974365235,0|0,0:0|3:0,0:0:0:0:
37,175,82209,1,10,0:0:0:0:
83,264,82429,1,2,3:2:0:0:
173,218,82650,6,0,L|261:244,1,83.9999974365235,2|8,3:2|1:0,0:0:0:0:
218,336,83091,2,0,P|283:344|313:326,1,83.9999974365235,8|8,0:0|1:0,0:0:0:0:
349,250,83532,2,0,P|389:239|428:251,1,83.9999974365235,2|8,3:2|1:0,0:0:0:0:
481,268,83863,1,0,3:0:0:0:
481,268,83973,2,0,L|495:162,1,83.9999974365235,8|2,0:0|3:2,0:0:0:0:
507,87,84415,5,6,3:1:0:0:
256,192,86179,5,6,3:2:0:0:
256,192,86290,12,0,89268,0:0:0:0:
